Subcategories

Hagen Quartett - Mozart: Complete String Quartets (2006)

Posted By: tirexiss
Hagen Quartett - Mozart: Complete String Quartets (2006)

Hagen Quartett - Mozart: Complete String Quartets (2006)
EAC | FLAC (image+.cue, log) | Covers Included | 08:51:01 | 2,34 Gb
Genre: Classical | Label: Deutsche Grammophon | Catalog: 00289 477 6253

Recorded between 1989 and 2004, the Hagen Quartet's recordings of Mozart's complete music for string quartet is clearly the finest set of the works released in the early digital age. For one thing, because the collection includes not only the 23 canonical string quartets but also the three early Divertimenti for string quartet, the five Fugues from Bach's Well-Tempered Clavier arranged by Mozart, and the late Adagio and Fugue in C minor, their set really is the complete music for string quartet. For another thing, because the performances were recorded by Deutsche Grammophon in their finest translucent digital sound, this set is the cleanest and clearest available. But, most importantly, the Hagen's performances are certainly among the finest ever given to the music. The wit, the charm, the poise, the elegance, the balance, the depth, the sheer ravishing beauty of Mozart's string quartet writing have rarely been so fully realized – and then only in stereo sets that include only the 23 standard quartets. For performance, sound, and inclusiveness, this set is the one to get if you're looking to get only one set of Mozart's quartets.

Hagen Quartett - Mozart: Complete String Quartets (2006)

Track List:

CD 1:
Divertimento in D major, K.136
1. I. Allegro
2. II. Andante
3. III. Presto

Divertimento in B-flat major, K.137
4. I. Andante
5. II. Allegro di molto
6. III. Allegro assai

Divertimento in F major, K.138
7. I. Allegro
8. II. Andante
9. III. Presto

Quartet in G major, K.80
10. I. Adagio
11. II. Allegro
12. III. Minuetto-Trio
13. IV. Rondeau (Allegro)

Quartet in D major, K.155
14. [Allegro]
15. II. Andante
16. III. Molto allegro

Quartet in G major, K.156
17. I. Presto
18. II. Adagio
19. III. Tempo di Menuetto

EAC 抓取日志文件从31. 五月 2006, 15:56 用于 CD
Hagen Quartett / Mozart, The Early String Quartets (Disk 1)

使用驱动器 :PLEXTOR DVDR PX-716A Adapter: 1 ID: 0
读取模式 :不使用 C2,使用精确流, 禁用缓存的安全模式
读取偏移校正:30
读取 Lead-In 和 Lead-Out : 是

所用输出模式:Monkey's Audio Lossless Encoder v3.99 DLL
Normal Lossless Compression

其他选项 :
用静音填充抓取中丢失偏移的采样 : 是
去除首尾静音块 : 否
Win NT 及 2000 本地 Win32 接口

范围状态及错误
已选择范围
文件名 D:\Mozart_Complete String Quartets_Hagen(DGG 7CD)\CD1\CDImage.ape

峰值电平 85.2 %
范围质量 100.0 %
CRC 91B39A03
复制成功

没有错误发生

状态报告结尾

[CUETools log; Date: 11.04.2018 11:01:55; Version: 2.1.5]
Pregap length 00:00:33.
[CTDB TOCID: ojzGmtE3_3mshLqCRFWnvDb_wcI-] found.
Track | CTDB Status
1 | (50/50) Accurately ripped
2 | (50/50) Accurately ripped
3 | (50/50) Accurately ripped
4 | (49/50) Accurately ripped
5 | (50/50) Accurately ripped
6 | (50/50) Accurately ripped
7 | (50/50) Accurately ripped
8 | (49/50) Accurately ripped
9 | (49/50) Accurately ripped
10 | (49/50) Accurately ripped
11 | (49/50) Accurately ripped
12 | (48/50) Accurately ripped
13 | (48/50) Accurately ripped, or (1/50) differs in 125 samples @01:01:23-01:01:24
14 | (49/50) Accurately ripped
15 | (48/50) Accurately ripped
16 | (50/50) Accurately ripped
17 | (47/50) Accurately ripped, or (2/50) differs in 51 samples @02:33:47, or (1/50) differs in 51 samples @02:33:47
18 | (50/50) Accurately ripped
19 | (49/50) Accurately ripped
[AccurateRip ID: 0035a5a0-02e69b91-f011c413] found.
Track [ CRC | V2 ] Status
01 [897a97f4|ede8b0dc] (16+43/68) Accurately ripped
02 [91f1fd34|fdf1caf2] (16+43/68) Accurately ripped
03 [54db5fe5|658bbff7] (16+42/67) Accurately ripped
04 [6847e882|f92a8223] (16+42/67) Accurately ripped
05 [acb5d3b8|ee3fab19] (16+44/69) Accurately ripped
06 [a9e43696|e3962c86] (16+43/68) Accurately ripped
07 [6ab32c7a|99f60000] (16+43/68) Accurately ripped
08 [5fed4d67|1e622b8e] (16+41/66) Accurately ripped
09 [c0fbade8|a392fd36] (16+41/66) Accurately ripped
10 [dfaca223|3a3aa4c5] (17+40/66) Accurately ripped
11 [6e95c111|92eee7f7] (17+40/66) Accurately ripped
12 [85892ab1|f343f5df] (17+40/66) Accurately ripped
13 [0e90e48f|5ebc6d10] (17+39/65) Accurately ripped
14 [db83d742|072fba1f] (16+39/64) Accurately ripped
15 [708448ce|c8b8b1a5] (16+40/65) Accurately ripped
16 [7729cd48|a68f17a6] (16+41/66) Accurately ripped
17 [7eeed538|4485f6c8] (16+41/66) Accurately ripped
18 [ab2b6f8e|4d48842f] (16+41/66) Accurately ripped
19 [041d4420|d0d1a633] (15+44/69) Accurately ripped
Offsetted by 453:
01 [aaad0fa7] (00/68) No match (V2 was not tested)
02 [f6404bfb] (00/68) No match (V2 was not tested)
03 [9407d3f7] (00/67) No match (V2 was not tested)
04 [fd05eb19] (00/67) No match (V2 was not tested)
05 [d774a0e7] (00/69) No match (V2 was not tested)
06 [fb21e091] (00/68) No match (V2 was not tested)
07 [219b2484] (00/68) No match (V2 was not tested)
08 [62aa3050] (00/66) No match (V2 was not tested)
09 [fa2823ac] (00/66) No match (V2 was not tested)
10 [d69122dc] (00/66) No match (V2 was not tested)
11 [36da65fb] (00/66) No match (V2 was not tested)
12 [f8f709c6] (00/66) No match (V2 was not tested)
13 [b46f12a8] (00/65) No match (V2 was not tested)
14 [5628b82c] (00/64) No match (V2 was not tested)
15 [a7242ea1] (00/65) No match (V2 was not tested)
16 [11b91ac1] (00/66) No match (V2 was not tested)
17 [05697b5b] (00/66) No match (V2 was not tested)
18 [fe73459a] (00/66) No match (V2 was not tested)
19 [74b525d1] (00/69) No match (V2 was not tested)
Offsetted by 1607:
01 [bc6cb4a3] (05/68) Accurately ripped
02 [0073ef89] (05/68) Accurately ripped
03 [e63e15bd] (05/67) Accurately ripped
04 [3106fd03] (05/67) Accurately ripped
05 [a376202e] (05/69) Accurately ripped
06 [9a1131e6] (05/68) Accurately ripped
07 [16e55004] (05/68) Accurately ripped
08 [ec771cad] (05/66) Accurately ripped
09 [f3b4d63d] (05/66) Accurately ripped
10 [b96837e5] (05/66) Accurately ripped
11 [2e049c08] (05/66) Accurately ripped
12 [f1ad5336] (05/66) Accurately ripped
13 [cb18f388] (05/65) Accurately ripped
14 [03d97d13] (05/64) Accurately ripped
15 [bf7f8517] (05/65) Accurately ripped
16 [e2073630] (05/66) Accurately ripped
17 [9d7991e4] (00/66) No match (V2 was not tested)
18 [51b1844a] (05/66) Accurately ripped
19 [a7e9e1fc] (06/69) Accurately ripped

Track Peak [ CRC32 ] [W/O NULL]
– 85,2 [91B39A03] [78F89310]
01 69,1 [B6C57B78] [213ADC84]
02 39,2 [D4B2E936] [70EBDBCC]
03 75,7 [76E44B69] [C905BC10]
04 64,7 [FCAD94CC] [82537868]
05 85,2 [CC0BC585] [409E2435]
06 84,4 [62A92944] [922A52DD]
07 67,2 [2F1FAD00] [A6DE4092]
08 52,0 [D161041C] [EF2D825E]
09 72,6 [E8B66CF5] [BD23B1F5]
10 40,2 [53CE88F8] [87770B08]
11 71,0 [ABD31389] [059A16FD]
12 56,4 [479B5250] [447BBAE2]
13 68,2 [A07B7802] [1CEAC14F]
14 56,4 [263253F0] [312B2F6A]
15 40,8 [5D1FC169] [E39BEE34]
16 64,1 [D12093A3] [32C91A3D]
17 64,3 [FCB1E609] [092E97D6]
18 64,8 [CBFFDAA5] [9BF864A9]
19 65,6 [5E157865] [78FD1BE7]

CD 2:
Quartet in C major, K.157
1. I. Allegro
2. II. Andante
3. III. Presto

Quartet in F major, K.158
4. I. Allegro
5. II. Andante un poco Allegretto
6. III. Tempo di Menuetto

Quartet in B-flat major, K.159
7. I. Andante
8. II. Allegro
9. III. Rondo (Allegro grazioso)

Quartet in E-flat major, K.160
10. I. Allegro
11. II. Un poco Adagio
12. III. Presto

Quartet in F major, K.168
13. I. Allegro
14. II. Andante
15. III. Menuetto-Trio
16. IV. Allegro

EAC 抓取日志文件从31. 五月 2006, 16:22 用于 CD
Hagen Quartett / Mozart, The Early String Quartets (Disk 2)

使用驱动器 :PLEXTOR DVDR PX-716A Adapter: 1 ID: 0
读取模式 :不使用 C2,使用精确流, 禁用缓存的安全模式
读取偏移校正:30
读取 Lead-In 和 Lead-Out : 是

所用输出模式:Monkey's Audio Lossless Encoder v3.99 DLL
Normal Lossless Compression

其他选项 :
用静音填充抓取中丢失偏移的采样 : 是
去除首尾静音块 : 否
Win NT 及 2000 本地 Win32 接口

范围状态及错误
已选择范围
文件名 D:\Mozart_Complete String Quartets_Hagen(DGG 7CD)\CD2\CDImage.ape

峰值电平 85.0 %
范围质量 100.0 %
CRC 9DBEEF77
复制成功

没有错误发生

状态报告结尾

[CUETools log; Date: 11.04.2018 11:02:23; Version: 2.1.5]
Pregap length 00:00:33.
[CTDB TOCID: FaSkEOCnUziO5AAD.uTBN6En3DU-] found.
Track | CTDB Status
1 | (53/55) Accurately ripped
2 | (54/55) Accurately ripped
3 | (54/55) Accurately ripped
4 | (54/55) Accurately ripped
5 | (54/55) Accurately ripped
6 | (54/55) Accurately ripped
7 | (54/55) Accurately ripped
8 | (54/55) Accurately ripped
9 | (54/55) Accurately ripped
10 | (54/55) Accurately ripped
11 | (54/55) Accurately ripped
12 | (54/55) Accurately ripped
13 | (54/55) Accurately ripped
14 | (54/55) Accurately ripped
15 | (54/55) Accurately ripped
16 | (54/55) Accurately ripped
[AccurateRip ID: 00278b79-01d74b30-ea0f0510] found.
Track [ CRC | V2 ] Status
01 [9ffefdc4|0e632689] (15+42/64) Accurately ripped
02 [1bbe2557|30f45059] (15+42/64) Accurately ripped
03 [edeac9f0|120fc087] (15+42/64) Accurately ripped
04 [a4c35b61|8a82240e] (15+42/66) Accurately ripped
05 [a8ee20b0|39f0815b] (15+42/66) Accurately ripped
06 [4e8210ff|5d6ae93f] (14+42/65) Accurately ripped
07 [ce845ff8|df9247bd] (15+42/66) Accurately ripped
08 [b585a0b3|98200a9a] (15+42/66) Accurately ripped
09 [5c350d70|3687b765] (15+42/66) Accurately ripped
10 [e0b129b2|749c7522] (15+42/66) Accurately ripped
11 [527bae09|fc220f3e] (15+42/66) Accurately ripped
12 [8040701a|866f72c0] (15+42/66) Accurately ripped
13 [50f09a8a|8fade62c] (15+43/66) Accurately ripped
14 [c7f87bbc|d0eedf88] (14+43/66) Accurately ripped
15 [8be8261a|8584b26e] (15+43/66) Accurately ripped
16 [f73d99f0|e47092f2] (14+44/67) Accurately ripped
Offsetted by 361:
01 [dde1fd71] (04/64) Accurately ripped
02 [daf2428c] (04/64) Accurately ripped
03 [5cc2f142] (04/64) Accurately ripped
04 [1b740f77] (04/66) Accurately ripped
05 [cd3a578c] (04/66) Accurately ripped
06 [7de10dfd] (04/65) Accurately ripped
07 [430f2979] (04/66) Accurately ripped
08 [7b04589a] (04/66) Accurately ripped
09 [29cab52f] (04/66) Accurately ripped
10 [34bd65ab] (04/66) Accurately ripped
11 [982affc4] (04/66) Accurately ripped
12 [fa25295f] (04/66) Accurately ripped
13 [70cdf6a7] (04/66) Accurately ripped
14 [6c8f4c17] (04/66) Accurately ripped
15 [9ba5f742] (04/66) Accurately ripped
16 [e799f2a6] (04/67) Accurately ripped
Offsetted by 314:
01 [5d5a91b3] (00/64) No match (V2 was not tested)
02 [fbe3f94a] (00/64) No match (V2 was not tested)
03 [1c5a3c16] (00/64) No match (V2 was not tested)
04 [81784996] (00/66) No match (V2 was not tested)
05 [1dc43c1d] (00/66) No match (V2 was not tested)
06 [7ad69ead] (00/65) No match (V2 was not tested)
07 [34d8acc4] (00/66) No match (V2 was not tested)
08 [d4b9e5c6] (00/66) No match (V2 was not tested)
09 [0ecddbc7] (00/66) No match (V2 was not tested)
10 [514f6add] (00/66) No match (V2 was not tested)
11 [fa236fcf] (00/66) No match (V2 was not tested)
12 [953f312b] (00/66) No match (V2 was not tested)
13 [9b16ab7b] (00/66) No match (V2 was not tested)
14 [f6b53bf1] (00/66) No match (V2 was not tested)
15 [1e89861c] (00/66) No match (V2 was not tested)
16 [30ad69d0] (00/67) No match (V2 was not tested)

Track Peak [ CRC32 ] [W/O NULL]
– 85,0 [9DBEEF77] [9CEA936F]
01 69,4 [97C5B9F2] [D28A2C42]
02 48,4 [D27FCBA9] [0E658ED6]
03 85,0 [1D43E5C5] [44256877]
04 64,9 [BC1C8DFE] [384B5E84]
05 57,1 [754528FF] [B647C9DD]
06 66,6 [DA5779EB] [1B53D7C1]
07 46,2 [AEA587A9] [AB55EBA2]
08 77,1 [1E9CBB0A] [6D9352E1]
09 81,5 [9E1962FC] [81ADECD9]
10 65,9 [A9AB7A9B] [3750CEFE]
11 61,6 [0710A616] [B5598BFB]
12 78,7 [D8C76511] [B85DBFE6]
13 70,4 [78516216] [16BF9F99]
14 40,8 [C799567B] [4948C324]
15 60,5 [FE27AED7] [09D47695]
16 78,8 [F37BEFB6] [7741DA9E]

CD 3:
Quartet in A major, K.169
1. I. Molto allegro
2. II. Andante
3. III. Menuetto-Trio
4. IV. Rondeaux (Allegro)

Quartet in C major, K.170
5. I. Thema (Andante) & Variationen
6. II. Menuetto-Trio
7. III. Un poco Adagio
8. IV. Rondeaux (Allegro)

Quartet in E-flat major, K.171
9. I. Adagio-Allegro assai
10. II. Menuetto-Trio
11. III. Andante
12. IV. Allegro assai

Quartet in B-flat major, K.172
13. I. [Allegro spiritoso.
14. II. Adagio
15. III. Menuetto-Trio
16. IV. Allegro assai

Quartet in D minor, K.173
17. I. Allegro ma molto moderato
18. II. Andantino grazioso
19. III. Menuetto-Trio
20. IV. Allegro

EAC 抓取日志文件从31. 五月 2006, 16:53 用于 CD
Hagen Quartett / Mozart, The Early String Quartets (Disk 3)

使用驱动器 :PLEXTOR DVDR PX-716A Adapter: 1 ID: 0
读取模式 :不使用 C2,使用精确流, 禁用缓存的安全模式
读取偏移校正:30
读取 Lead-In 和 Lead-Out : 是

所用输出模式:Monkey's Audio Lossless Encoder v3.99 DLL
Normal Lossless Compression

其他选项 :
用静音填充抓取中丢失偏移的采样 : 是
去除首尾静音块 : 否
Win NT 及 2000 本地 Win32 接口

范围状态及错误
已选择范围
文件名 D:\Mozart_Complete String Quartets_Hagen(DGG 7CD)\CD3\CDImage.ape

峰值电平 89.1 %
范围质量 100.0 %
CRC 623782D0
复制成功

没有错误发生

状态报告结尾

[CUETools log; Date: 11.04.2018 11:02:59; Version: 2.1.5]
Pregap length 00:00:33.
[CTDB TOCID: Al_2xD7zUDYoElf70v9EV57mZrg-] found.
Track | CTDB Status
1 | (52/53) Accurately ripped
2 | (52/53) Accurately ripped
3 | (53/53) Accurately ripped
4 | (53/53) Accurately ripped
5 | (53/53) Accurately ripped
6 | (53/53) Accurately ripped
7 | (52/53) Accurately ripped
8 | (52/53) Accurately ripped
9 | (53/53) Accurately ripped
10 | (53/53) Accurately ripped
11 | (53/53) Accurately ripped
12 | (53/53) Accurately ripped
13 | (53/53) Accurately ripped
14 | (53/53) Accurately ripped
15 | (53/53) Accurately ripped
16 | (53/53) Accurately ripped
17 | (52/53) Accurately ripped
18 | (53/53) Accurately ripped
19 | (52/53) Accurately ripped
20 | (52/53) Accurately ripped
[AccurateRip ID: 00362fb0-03183aa8-1111b914] found.
Track [ CRC | V2 ] Status
01 [a26c8d50|18a3ad9f] (13+41/60) Accurately ripped
02 [2ff96f4f|58ba071a] (13+41/60) Accurately ripped
03 [9d929875|80cd1584] (13+41/60) Accurately ripped
04 [a76dee8e|9aab6a55] (13+41/60) Accurately ripped
05 [14e8b703|94606f70] (13+41/60) Accurately ripped
06 [431900a6|347741b2] (13+41/60) Accurately ripped
07 [bebf7587|d56ff692] (13+40/59) Accurately ripped
08 [bb18d593|ef2ade21] (13+40/59) Accurately ripped
09 [d10ea070|09eb98b4] (13+41/60) Accurately ripped
10 [1cdea758|5b5e367d] (13+41/60) Accurately ripped
11 [992a7b51|fbc226b0] (13+40/59) Accurately ripped
12 [340e9380|92bcd736] (13+41/60) Accurately ripped
13 [4add47ed|13ed931d] (13+41/60) Accurately ripped
14 [33867a48|fe352814] (13+41/60) Accurately ripped
15 [e2e5286c|5a450d0b] (13+41/60) Accurately ripped
16 [24a1053c|0194b99c] (13+40/59) Accurately ripped
17 [eb7ebbb3|0a4c45e6] (13+41/60) Accurately ripped
18 [3b563b02|23b22c35] (14+41/61) Accurately ripped
19 [da3f2922|98835cd8] (14+41/61) Accurately ripped
20 [8785de69|69d0a7f3] (14+42/62) Accurately ripped
Offsetted by -303:
01 [8635b048] (03/60) Accurately ripped
02 [bbb35c07] (03/60) Accurately ripped
03 [934981d6] (03/60) Accurately ripped
04 [edd23c3b] (03/60) Accurately ripped
05 [d46a8510] (03/60) Accurately ripped
06 [983829e0] (03/60) Accurately ripped
07 [27728d26] (03/59) Accurately ripped
08 [4c6576fa] (03/59) Accurately ripped
09 [57e505af] (03/60) Accurately ripped
10 [b055f87a] (03/60) Accurately ripped
11 [7860ad84] (03/59) Accurately ripped
12 [3c248ae2] (03/60) Accurately ripped
13 [61a1d10d] (03/60) Accurately ripped
14 [59e297a7] (03/60) Accurately ripped
15 [66a6e3ed] (03/60) Accurately ripped
16 [76ed7927] (03/59) Accurately ripped
17 [8e0bfce1] (03/60) Accurately ripped
18 [19abbefc] (03/61) Accurately ripped
19 [c8f77e18] (03/61) Accurately ripped
20 [cb722053] (03/62) Accurately ripped
Offsetted by 903:
01 [0716ab94] (00/60) No match (V2 was not tested)
02 [5130fb6e] (00/60) No match (V2 was not tested)
03 [68fc6d2f] (00/60) No match (V2 was not tested)
04 [dd4010a3] (00/60) No match (V2 was not tested)
05 [3a8fda3b] (00/60) No match (V2 was not tested)
06 [f9731836] (00/60) No match (V2 was not tested)
07 [6ea6c329] (00/59) No match (V2 was not tested)
08 [8de0d114] (00/59) No match (V2 was not tested)
09 [0c417681] (00/60) No match (V2 was not tested)
10 [53f297b9] (00/60) No match (V2 was not tested)
11 [e52c69ef] (00/59) No match (V2 was not tested)
12 [b0fe022a] (00/60) No match (V2 was not tested)
13 [c1b72b2d] (00/60) No match (V2 was not tested)
14 [5b6f8cb9] (00/60) No match (V2 was not tested)
15 [8e8246a5] (00/60) No match (V2 was not tested)
16 [94948123] (00/59) No match (V2 was not tested)
17 [2316fe4e] (00/60) No match (V2 was not tested)
18 [de4eae66] (00/61) No match (V2 was not tested)
19 [f82c06ec] (00/61) No match (V2 was not tested)
20 [75058314] (00/62) No match (V2 was not tested)

Track Peak [ CRC32 ] [W/O NULL]
– 89,1 [623782D0] [E80F7858]
01 67,6 [F701E2E0] [0F8756DA]
02 67,5 [EEC37930] [C5B5E15C]
03 42,8 [09B0AAA7] [551C4A1C]
04 61,3 [90CEB218] [8A8D6979]
05 52,6 [0F9163A4] [EAF06957]
06 43,1 [5FF2352E] [83A33AC3]
07 30,1 [FD57D697] [865E7976]
08 68,6 [8490ED17] [8F2DB23B]
09 52,1 [F110011F] [C788B72C]
10 44,9 [C4DA47EE] [F0D5160F]
11 31,9 [7C64E5DB] [F395D5D6]
12 89,1 [9CAE8BE3] [A6D90EC7]
13 70,0 [7EB60649] [4DC1CE42]
14 31,2 [51ADBC6A] [314C443D]
15 46,6 [1C3CCC01] [295CADEA]
16 83,0 [36394D16] [06B14D37]
17 73,6 [DF302D34] [48DFE04C]
18 67,5 [F8818F4A] [ABBB9E7B]
19 79,7 [15D7B485] [D07C4AAA]
20 86,3 [C4ABF45E] [6BFD066F]

CD 4:
Quartet in G major, K. 387
1. I. Allegro vivace assai
2. II. Menuetto. Allegro - Trio
3. III. Andante cantabile
4. IV. Molto Allegro

Quartet in D minor, K. 421
5. I. Allegro moderato
6. II. Andante
7. III. Menuetto. Allegro - Trio
8. IV. Allegretto ma non troppo

Eine kleine Nachtmusik in G major, K. 525
9. I. Allegro
10. II. Romance
11. III. Menuetto
12. IV. Rondo

EAC 抓取日志文件从1. 六月 2006, 11:38 用于 CD
Hagen Quartett / Mozart Streichquartette 4

使用驱动器 :PLEXTOR DVDR PX-716A Adapter: 1 ID: 0
读取模式 :不使用 C2,使用精确流, 禁用缓存的安全模式
读取偏移校正:30
读取 Lead-In 和 Lead-Out : 是

所用输出模式:Monkey's Audio Lossless Encoder v3.99 DLL
Normal Lossless Compression

其他选项 :
用静音填充抓取中丢失偏移的采样 : 是
去除首尾静音块 : 否
Win NT 及 2000 本地 Win32 接口

范围状态及错误
已选择范围
文件名 D:\Mozart_Complete String Quartets_Hagen(DGG 7CD)\CD4\CDImage.ape

峰值电平 99.9 %
范围质量 100.0 %
CRC 91017DD3
复制成功

没有错误发生

状态报告结尾

[CUETools log; Date: 11.04.2018 11:03:36; Version: 2.1.5]
[CTDB TOCID: IQESgSM8N1RMc0Fcw5VB4H8j.u4-] found.
Track | CTDB Status
1 | (61/61) Accurately ripped
2 | (61/61) Accurately ripped
3 | (61/61) Accurately ripped
4 | (61/61) Accurately ripped
5 | (61/61) Accurately ripped
6 | (61/61) Accurately ripped
7 | (61/61) Accurately ripped
8 | (61/61) Accurately ripped
9 | (61/61) Accurately ripped
10 | (61/61) Accurately ripped
11 | (61/61) Accurately ripped
12 | (60/61) Accurately ripped
[AccurateRip ID: 0026ff7e-016855de-9f12f50c] found.
Track [ CRC | V2 ] Status
01 [55b80310|54e4db2d] (14+43/57) Accurately ripped
02 [f88d2a45|ceae5863] (14+43/57) Accurately ripped
03 [20ae8f5a|ce58090a] (14+43/57) Accurately ripped
04 [08e16c16|c7bba258] (14+42/56) Accurately ripped
05 [2eb5bbe4|de745d7a] (14+43/57) Accurately ripped
06 [26ed4da7|fd4f0b95] (14+43/57) Accurately ripped
07 [24451460|49a350e4] (13+43/56) Accurately ripped
08 [7aef805c|b4096215] (14+42/56) Accurately ripped
09 [6ed66e60|1401b122] (14+43/57) Accurately ripped
10 [822ac994|b8973666] (14+42/56) Accurately ripped
11 [cd37cbb6|fa946c45] (14+43/57) Accurately ripped
12 [320231ed|f1c888cc] (13+40/53) Accurately ripped

Track Peak [ CRC32 ] [W/O NULL]
– 99,9 [91017DD3] [66968E1A]
01 79,6 [D3DEA994] [BC6D9FFB]
02 64,4 [2FE1F928] [BEB25F5E]
03 51,6 [5513386A] [072F2136]
04 71,4 [832F6350] [F64C2DB7]
05 99,9 [F4D303E4] [2F935911]
06 99,9 [A4B51727] [6BBACB43]
07 76,3 [26706402] [225EB5D4]
08 84,9 [6944ADE4] [C696E371]
09 53,8 [DD59BBF2] [05D3A257]
10 39,4 [2701AFF6] [5662A6BD]
11 36,6 [F8B8156C] [2FA5B446]
12 47,6 [6EAAEA21] [B0E1A463]

CD 5:
String Quartet In E Flat Major, KV 428(421b)
1. I. Allegro Non Toroppo
2. II. Andante Con Moto
3. III. Menuetto.Allegro - Trio
4. IV. Allegro Vivace

String Quartet In B Flat Major, KV 458 'The Hunt'
5. I. Allegro Vivace Assai
6. II. Menuetto.Moderato - Trio
7. III. Adagio
8. IV. Allegro Assai

String Quartet In D Major, KV 575 'Prussian No.1'
9. I. Allegrertto
10. II. Andante
11. III. Menuetto.Allegretto
12. IV. Allegretto

EAC 抓取日志文件从1. 六月 2006, 15:16 用于 CD
Hagen String Quartett / Mozart The String Quartets 5/7

使用驱动器 :PLEXTOR DVDR PX-716A Adapter: 1 ID: 0
读取模式 :不使用 C2,使用精确流, 禁用缓存的安全模式
读取偏移校正:30
读取 Lead-In 和 Lead-Out : 是

所用输出模式:Monkey's Audio Lossless Encoder v3.99 DLL
Normal Lossless Compression

其他选项 :
用静音填充抓取中丢失偏移的采样 : 是
去除首尾静音块 : 否
Win NT 及 2000 本地 Win32 接口

范围状态及错误
已选择范围
文件名 D:\Mozart_Complete String Quartets_Hagen(DGG 7CD)\CD5\CDImage.ape

峰值电平 99.9 %
范围质量 100.0 %
CRC 9625FA56
复制成功

没有错误发生

状态报告结尾

[CUETools log; Date: 11.04.2018 11:04:07; Version: 2.1.5]
[CTDB TOCID: tdIqREAGwpps1kbucSoFzfc17DM-] found.
Track | CTDB Status
1 | (61/62) Accurately ripped
2 | (61/62) Accurately ripped
3 | (60/62) Accurately ripped
4 | (61/62) Accurately ripped
5 | (60/62) Accurately ripped
6 | (60/62) Accurately ripped
7 | (61/62) Accurately ripped
8 | (61/62) Accurately ripped
9 | (61/62) Accurately ripped
10 | (58/62) Accurately ripped
11 | (58/62) Accurately ripped
12 | (59/62) Accurately ripped
[AccurateRip ID: 0023cb30-0148b876-ac11e20c] found.
Track [ CRC | V2 ] Status
01 [bf3e6be1|28d690e0] (15+44/59) Accurately ripped
02 [26f8f514|9667515d] (15+45/60) Accurately ripped
03 [769e0ccf|04fe4411] (15+43/58) Accurately ripped
04 [cc5a27ca|82864286] (15+44/59) Accurately ripped
05 [bcbf0338|5a966928] (15+46/61) Accurately ripped
06 [e4e36a16|c4adbf47] (15+45/60) Accurately ripped
07 [55682c9e|2c3e48aa] (15+46/61) Accurately ripped
08 [70e23810|c2686849] (15+45/60) Accurately ripped
09 [d946fbbf|5d85823d] (15+45/60) Accurately ripped
10 [b8140eb7|f2bf9c3a] (15+45/60) Accurately ripped
11 [12f6332c|d98ad1b9] (15+44/59) Accurately ripped
12 [68950b9d|5b4e2981] (15+44/59) Accurately ripped

Track Peak [ CRC32 ] [W/O NULL]
– 99,9 [9625FA56] [1BA57E66]
01 92,9 [150300DB] [F9B13ED5]
02 49,9 [E686A133] [08404D17]
03 87,7 [F10A4A4A] [FB68B394]
04 72,0 [D52B42FB] [4AA74E15]
05 66,7 [ED2D989F] [5722D5F2]
06 61,0 [8D27E282] [B5C30C51]
07 50,5 [5881C1E4] [79AFBE9D]
08 64,7 [AA260659] [01B212A6]
09 99,9 [31539157] [E5090D64]
10 39,4 [C7D075B3] [F97A041E]
11 77,6 [EEB1F806] [A1340B0E]
12 82,6 [0C71F152] [DF7A0254]

CD 6:
String Quartet In A Major, KV 464
1. I. Allegro
2. II. Menuetto - Trio
3. III. Andante
4. IV. Allegro Non Troppo

String Quartet In C Major, KV 465 'Dissonance'
5. I. Adagio - Allergro
6. II. Andante Cantabile
7. III. Menuetto.Allegro - Trio
8. IV. Allegro Molto

Four-Part Fugues KV 405
9. No.2 In C Minor (From Bach:BWV871)
10. No.7 In E Flat Major (From Bach:BWV876)
11. No.9 In E Major (From Bach:BWV878)
12. No.8 In D Minor (From Bach:BWV877)
13. No.5 In D Major (From Bach:BWV874)

Adagio And Fugue, KV 546
14. I. Adagio
15. II. Fuga.Allegro

EAC 抓取日志文件从1. 六月 2006, 16:05 用于 CD
Hagen String Quartett / Mozart : Comp.String Quartets - 6

使用驱动器 :PLEXTOR DVDR PX-716A Adapter: 1 ID: 0
读取模式 :不使用 C2,使用精确流, 禁用缓存的安全模式
读取偏移校正:30
读取 Lead-In 和 Lead-Out : 是

所用输出模式:Monkey's Audio Lossless Encoder v3.99 DLL
Normal Lossless Compression

其他选项 :
用静音填充抓取中丢失偏移的采样 : 是
去除首尾静音块 : 否
Win NT 及 2000 本地 Win32 接口

范围状态及错误
已选择范围
文件名 D:\Mozart_Complete String Quartets_Hagen(DGG 7CD)\CD6\CDImage.ape

峰值电平 96.6 %
范围质量 99.9 %
CRC 64B0CDB7
复制成功

没有错误发生

状态报告结尾

[CUETools log; Date: 11.04.2018 11:04:37; Version: 2.1.5]
[CTDB TOCID: 9ABBLkHNJd4Uc.AfZ5Vbkf2vUSE-] found.
Track | CTDB Status
1 | (58/59) Accurately ripped
2 | (58/59) Accurately ripped
3 | (56/59) Accurately ripped
4 | (57/59) Accurately ripped
5 | (57/59) Accurately ripped
6 | (57/59) Accurately ripped
7 | (58/59) Accurately ripped
8 | (58/59) Accurately ripped
9 | (58/59) Accurately ripped
10 | (58/59) Accurately ripped
11 | (58/59) Accurately ripped
12 | (58/59) Accurately ripped
13 | (58/59) Accurately ripped
14 | (58/59) Accurately ripped
15 | (57/59) Accurately ripped
[AccurateRip ID: 00362575-02481775-ec12bf0f] found.
Track [ CRC | V2 ] Status
01 [6f211cd7|e02a8016] (15+43/58) Accurately ripped
02 [78a19478|5254959b] (15+43/58) Accurately ripped
03 [6dadfc4e|ae41d26c] (14+42/56) Accurately ripped
04 [7a601220|59135952] (15+42/57) Accurately ripped
05 [c6e9ffb3|68d68ee8] (14+44/58) Accurately ripped
06 [f9024a68|2b3e5838] (14+44/58) Accurately ripped
07 [9b3b529e|12f8d4b5] (15+44/59) Accurately ripped
08 [cb56c44b|53541898] (15+43/58) Accurately ripped
09 [a860e99a|0ac49b60] (15+42/57) Accurately ripped
10 [4f6b212b|10749621] (15+42/57) Accurately ripped
11 [274f984b|0a6c21d5] (15+42/57) Accurately ripped
12 [dd7c9af8|10cc6e98] (15+42/57) Accurately ripped
13 [74534dc7|d5ae242e] (15+41/56) Accurately ripped
14 [29e5dc75|4172a380] (14+42/56) Accurately ripped
15 [bbbb780d|41dce8c8] (14+40/54) Accurately ripped

Track Peak [ CRC32 ] [W/O NULL]
– 96,6 [64B0CDB7] [95202B8A]
01 87,6 [0D295A8B] [976C5790]
02 88,6 [1B7670CB] [3BD1BC59]
03 73,9 [1ADFCB25] [8382A87F]
04 85,7 [CCDEF722] [87306904]
05 96,6 [06B8E468] [643A5920]
06 70,8 [C001F0B1] [61D0100A]
07 78,0 [FB046690] [0B9A3B8E]
08 79,7 [5F27D2FE] [26A61F11]
09 86,3 [3B4E7890] [1AF16F87]
10 39,4 [50A6E344] [7CB0FCDD]
11 38,5 [2239A2C0] [72576754]
12 45,3 [1E7E4111] [E6837B67]
13 41,2 [9616392B] [1688947E]
14 74,2 [B684AF42] [17930A85]
15 91,2 [C111FAED] [D7C5104B]

CD 7:
Streichquartett D-Dur Kv.499 'Hoffmeister'
1. I. Allegretto
2. II. Menuetto. Allegretto
3. III. Adagio
4. IV. Allegro

Streichquartett B-Dur Kv.589 'Prussian No.2'
5. I. Allegro
6. II. Larghetto
7. III. Menuetto. Moderto
8. IV. Allegro Assai

Streichquartett B-Dur Kv.590 'Prussian No.3'
9. I. Allegro Moderato
10. II. Allegretto
11. III. Menuetto. Allegretto
12. IV. Allegro

EAC 抓取日志文件从1. 六月 2006, 16:26 用于 CD
Hagen String Quartett / Mozart: Streichquartette Hagen Quartett

使用驱动器 :PLEXTOR DVDR PX-716A Adapter: 1 ID: 0
读取模式 :不使用 C2,使用精确流, 禁用缓存的安全模式
读取偏移校正:30
读取 Lead-In 和 Lead-Out : 是

所用输出模式:Monkey's Audio Lossless Encoder v3.99 DLL
Normal Lossless Compression

其他选项 :
用静音填充抓取中丢失偏移的采样 : 是
去除首尾静音块 : 否
Win NT 及 2000 本地 Win32 接口

范围状态及错误
已选择范围
文件名 D:\Mozart_Complete String Quartets_Hagen(DGG 7CD)\CD7\CDImage.ape

峰值电平 80.7 %
范围质量 100.0 %
CRC F514E6A7
复制成功

没有错误发生

状态报告结尾

[CUETools log; Date: 11.04.2018 11:05:06; Version: 2.1.5]
[CTDB TOCID: .hFBtB_vXdu3zRG05bWDLTpai8Q-] found.
Track | CTDB Status
1 | (76/83) Accurately ripped
2 | (83/83) Accurately ripped
3 | (82/83) Accurately ripped
4 | (83/83) Accurately ripped
5 | (83/83) Accurately ripped
6 | (82/83) Accurately ripped
7 | (83/83) Accurately ripped
8 | (83/83) Accurately ripped
9 | (81/83) Accurately ripped
10 | (77/83) Accurately ripped
11 | (83/83) Accurately ripped
12 | (78/83) Accurately ripped
[AccurateRip ID: 00237c9d-01492dff-99125a0c] found.
Track [ CRC | V2 ] Status
01 [3ed30b49|6bf91950] (22+52/74) Accurately ripped
02 [00324280|72c2ec87] (23+53/76) Accurately ripped
03 [71ed97ab|fad40e77] (23+53/76) Accurately ripped
04 [49475079|58f88398] (23+52/75) Accurately ripped
05 [963e5d22|fd2e1710] (23+52/75) Accurately ripped
06 [cc5e2de6|d5035e80] (23+52/75) Accurately ripped
07 [06a66a48|8e84998f] (22+52/74) Accurately ripped
08 [1ca970d9|64b272ee] (23+51/74) Accurately ripped
09 [1c44222d|adf8e7ed] (23+52/75) Accurately ripped
10 [d720aec7|98528daa] (23+51/74) Accurately ripped
11 [f87550e5|cfe03ed8] (23+52/75) Accurately ripped
12 [e8cb6d49|a80e44bc] (22+51/73) Accurately ripped

Track Peak [ CRC32 ] [W/O NULL]
– 80,7 [F514E6A7] [E0A45A18]
01 64,6 [54CD0459] [00034EE2]
02 58,4 [3263BBDC] [DDA4F97B]
03 76,0 [746CDF1F] [75B0C672]
04 65,6 [6CD08B0A] [341F232C]
05 69,9 [AD96C02B] [7D943820]
06 45,7 [DF46E098] [32AB6142]
07 73,5 [241F3701] [319573BE]
08 76,4 [AC7B53C1] [505B8E9E]
09 80,7 [A7E6921D] [3993F471]
10 49,0 [9D08340D] [D0F99B04]
11 72,1 [2129DECF] [6252DCC4]
12 69,5 [636D4894] [C1865079]

Performers:
Hagen Quartett

Lukas Hagen, violin I
Rainer Schmidt, violin II
Veronika Hagen, viola
Clemens Hagen, violoncello

Thanks to the Original ripper (unknown)!

Download: