Subcategories

George Frideric Handel - Collegium Cartusianum - Saul [HWV 53] (1998, MDG "Gold" # 332 0801-2) [RE-UP]

Posted By: luckburz
George Frideric Handel - Collegium Cartusianum - Saul [HWV 53] (1998, MDG "Gold" # 332 0801-2) [RE-UP]

George Frideric Handel - Saul [HWV 53] (3xCD)
Kölner Kammerchor / Collegium Cartusianum / Peter Neumann
EAC+LOG+CUE | FLAC: 955 MB | Full Artwork | 5% Recovery Info
Label/Cat#: MDG "Gold" # 332 0801-2 | Country/Year: Germany 1998
Genre: Classical | Hoster: Style: Oratorio

MD5 [X] CUE [X] LOG [X] INFO TEXT [X] ARTWORK [X]

webfind [ ] selfrip [X]

George Frideric Handel - Collegium Cartusianum - Saul [HWV 53] (1998, MDG "Gold" # 332 0801-2) [RE-UP]

George Frideric Handel - Collegium Cartusianum - Saul [HWV 53] (1998, MDG "Gold" # 332 0801-2) [RE-UP]



Exact Audio Copy V1.0 beta 2 from 29. April 2011

EAC extraction logfile from 25. May 2012, 12:01

Collegium Cartusianum / Händel - Saul CD 1

Used drive : PIONEER BD-RW BDR-206 Adapter: 2 ID: 3

Read mode : Secure
Utilize accurate stream : Yes
Defeat audio cache : Yes
Make use of C2 pointers : No

Read offset correction : 667
Overread into Lead-In and Lead-Out : No
Fill up missing offset samples with silence : Yes
Delete leading and trailing silent blocks : No
Null samples used in CRC calculations : Yes
Used interface : Native Win32 interface for Win NT & 2000

Used output format : User Defined Encoder
Selected bitrate : 896 kBit/s
Quality : High
Add ID3 tag : No
Command line compressor : C:\Program Files\FLAC\flac.exe
Additional command line options : -5 -T "Artist=%artist%" -T "Title=%title%" -T "Album=%albumtitle%" -T "Date=%year%" -T "Tracknumber=%tracknr%" -T "Genre=%genre%" %source% -o %dest%


TOC of the extracted CD

Track | Start | Length | Start sector | End sector
––––––––––––––––––––––––––––-
1 | 0:00.00 | 3:46.62 | 0 | 17011
2 | 3:46.62 | 1:58.40 | 17012 | 25901
3 | 5:45.27 | 2:38.20 | 25902 | 37771
4 | 8:23.47 | 3:17.55 | 37772 | 52601
5 | 11:41.27 | 2:45.05 | 52602 | 64981
6 | 14:26.32 | 1:38.63 | 64982 | 72394
7 | 16:05.20 | 0:57.27 | 72395 | 76696
8 | 17:02.47 | 1:52.35 | 76697 | 85131
9 | 18:55.07 | 2:23.05 | 85132 | 95861
10 | 21:18.12 | 3:14.08 | 95862 | 110419
11 | 24:32.20 | 0:54.30 | 110420 | 114499
12 | 25:26.50 | 1:44.15 | 114500 | 122314
13 | 27:10.65 | 0:29.40 | 122315 | 124529
14 | 27:40.30 | 2:16.45 | 124530 | 134774
15 | 29:57.00 | 0:22.40 | 134775 | 136464
16 | 30:19.40 | 4:23.27 | 136465 | 156216
17 | 34:42.67 | 0:22.00 | 156217 | 157866
18 | 35:04.67 | 2:21.40 | 157867 | 168481
19 | 37:26.32 | 0:24.53 | 168482 | 170334
20 | 37:51.10 | 1:14.47 | 170335 | 175931
21 | 39:05.57 | 1:07.03 | 175932 | 180959
22 | 40:12.60 | 0:50.30 | 180960 | 184739
23 | 41:03.15 | 1:02.37 | 184740 | 189426
24 | 42:05.52 | 0:17.38 | 189427 | 190739
25 | 42:23.15 | 1:30.07 | 190740 | 197496
26 | 43:53.22 | 0:20.45 | 197497 | 199041
27 | 44:13.67 | 0:29.45 | 199042 | 201261
28 | 44:43.37 | 0:14.60 | 201262 | 202371
29 | 44:58.22 | 1:17.65 | 202372 | 208211
30 | 46:16.12 | 0:50.10 | 208212 | 211971
31 | 47:06.22 | 2:53.30 | 211972 | 224976
32 | 49:59.52 | 0:15.35 | 224977 | 226136
33 | 50:15.12 | 3:36.10 | 226137 | 242346
34 | 53:51.22 | 1:30.58 | 242347 | 249154
35 | 55:22.05 | 0:14.45 | 249155 | 250249
36 | 55:36.50 | 1:50.40 | 250250 | 258539
37 | 57:27.15 | 0:20.52 | 258540 | 260091
38 | 57:47.67 | 3:46.43 | 260092 | 277084
39 | 61:34.35 | 1:40.10 | 277085 | 284594
40 | 63:14.45 | 1:38.22 | 284595 | 291966
41 | 64:52.67 | 1:35.73 | 291967 | 299164
42 | 66:28.65 | 3:04.07 | 299165 | 312971
43 | 69:32.72 | 0:27.33 | 312972 | 315029
44 | 70:00.30 | 2:19.52 | 315030 | 325506


Range status and errors

Selected range

Filename I:\=== VINYL RIPS ===\=== EAC===\X FRESH RIP\Collegium Cartusianum - Händel - Saul CD 1.wav

Peak level 91.8 %
Extraction speed 8.3 X
Range quality 100.0 %
Test CRC 7C41D713
Copy CRC 7C41D713
Copy OK

No errors occurred


AccurateRip summary

Track 1 accurately ripped (confidence 2) [F53C4979] (AR v1)
Track 2 accurately ripped (confidence 2) [2B63FCD5] (AR v1)
Track 3 accurately ripped (confidence 2) [20713752] (AR v1)
Track 4 accurately ripped (confidence 2) [ADBAB4DC] (AR v1)
Track 5 accurately ripped (confidence 2) [CBAEC2A4] (AR v1)
Track 6 accurately ripped (confidence 2) [71E7016E] (AR v1)
Track 7 accurately ripped (confidence 2) [3D4DB4B1] (AR v1)
Track 8 accurately ripped (confidence 2) [0096248E] (AR v1)
Track 9 accurately ripped (confidence 2) [503B2696] (AR v1)
Track 10 accurately ripped (confidence 2) [4FA91F27] (AR v1)
Track 11 accurately ripped (confidence 2) [60B6B950] (AR v1)
Track 12 accurately ripped (confidence 2) [9282208F] (AR v1)
Track 13 accurately ripped (confidence 2) [C1659728] (AR v1)
Track 14 accurately ripped (confidence 2) [EE62C4F9] (AR v1)
Track 15 accurately ripped (confidence 2) [2634364A] (AR v1)
Track 16 accurately ripped (confidence 2) [C6279E07] (AR v1)
Track 17 accurately ripped (confidence 2) [54EE9839] (AR v1)
Track 18 accurately ripped (confidence 2) [4BDC53A3] (AR v1)
Track 19 accurately ripped (confidence 2) [35F58801] (AR v1)
Track 20 accurately ripped (confidence 2) [8E68D9B7] (AR v1)
Track 21 accurately ripped (confidence 2) [530269F8] (AR v1)
Track 22 accurately ripped (confidence 2) [65F3F1A8] (AR v1)
Track 23 accurately ripped (confidence 2) [19B6DD8F] (AR v1)
Track 24 accurately ripped (confidence 2) [A214BE11] (AR v1)
Track 25 accurately ripped (confidence 2) [D949BCD7] (AR v1)
Track 26 accurately ripped (confidence 2) [F65EE27F] (AR v1)
Track 27 accurately ripped (confidence 2) [640C38E9] (AR v1)
Track 28 accurately ripped (confidence 2) [5422302B] (AR v1)
Track 29 accurately ripped (confidence 2) [EAEF8A7F] (AR v1)
Track 30 accurately ripped (confidence 2) [F941DEB8] (AR v1)
Track 31 accurately ripped (confidence 2) [A7BE1225] (AR v1)
Track 32 accurately ripped (confidence 2) [749A20ED] (AR v1)
Track 33 accurately ripped (confidence 2) [CB2CB1F5] (AR v1)
Track 34 accurately ripped (confidence 2) [94925C8C] (AR v1)
Track 35 accurately ripped (confidence 2) [3C2D1EFE] (AR v1)
Track 36 accurately ripped (confidence 2) [594DCB8D] (AR v1)
Track 37 accurately ripped (confidence 2) [B170BC54] (AR v1)
Track 38 accurately ripped (confidence 2) [860D65EE] (AR v1)
Track 39 accurately ripped (confidence 2) [ECB7118B] (AR v1)
Track 40 accurately ripped (confidence 2) [F51A23EB] (AR v1)
Track 41 accurately ripped (confidence 2) [DAA2CE18] (AR v1)
Track 42 accurately ripped (confidence 2) [EA1B4B8C] (AR v1)
Track 43 accurately ripped (confidence 2) [7FDA61FF] (AR v1)
Track 44 accurately ripped (confidence 2) [4C646397] (AR v1)

All tracks accurately ripped

End of status report

==== Log checksum 80FF7EC700AF5D71A366D0D7556C3889E843F937267C5B4175A954949521BBB6 ====

Exact Audio Copy V1.0 beta 2 from 29. April 2011

EAC extraction logfile from 25. May 2012, 12:16

Collegium Cartusianum / Händel - Saul CD 2

Used drive : PIONEER BD-RW BDR-206 Adapter: 2 ID: 3

Read mode : Secure
Utilize accurate stream : Yes
Defeat audio cache : Yes
Make use of C2 pointers : No

Read offset correction : 667
Overread into Lead-In and Lead-Out : No
Fill up missing offset samples with silence : Yes
Delete leading and trailing silent blocks : No
Null samples used in CRC calculations : Yes
Used interface : Native Win32 interface for Win NT & 2000

Used output format : User Defined Encoder
Selected bitrate : 896 kBit/s
Quality : High
Add ID3 tag : No
Command line compressor : C:\Program Files\FLAC\flac.exe
Additional command line options : -5 -T "Artist=%artist%" -T "Title=%title%" -T "Album=%albumtitle%" -T "Date=%year%" -T "Tracknumber=%tracknr%" -T "Genre=%genre%" %source% -o %dest%


TOC of the extracted CD

Track | Start | Length | Start sector | End sector
––––––––––––––––––––––––––––-
1 | 0:00.00 | 2:32.52 | 0 | 11451
2 | 2:32.52 | 0:38.58 | 11452 | 14359
3 | 3:11.35 | 2:23.60 | 14360 | 25144
4 | 5:35.20 | 0:40.00 | 25145 | 28144
5 | 6:15.20 | 2:24.60 | 28145 | 39004
6 | 8:40.05 | 1:24.52 | 39005 | 45356
7 | 10:04.57 | 2:18.35 | 45357 | 55741
8 | 12:23.17 | 0:30.45 | 55742 | 58036
9 | 12:53.62 | 1:06.55 | 58037 | 63041
10 | 14:00.42 | 0:24.10 | 63042 | 64851
11 | 14:24.52 | 0:37.43 | 64852 | 67669
12 | 15:02.20 | 2:18.67 | 67670 | 78086
13 | 17:21.12 | 1:19.48 | 78087 | 84059
14 | 18:40.60 | 1:39.02 | 84060 | 91486
15 | 20:19.62 | 4:36.13 | 91487 | 112199
16 | 24:56.00 | 0:30.02 | 112200 | 114451
17 | 25:26.02 | 1:11.15 | 114452 | 119791
18 | 26:37.17 | 0:36.15 | 119792 | 122506
19 | 27:13.32 | 1:25.45 | 122507 | 128926
20 | 28:39.02 | 1:05.33 | 128927 | 133834
21 | 29:44.35 | 3:41.72 | 133835 | 150481
22 | 33:26.32 | 1:12.05 | 150482 | 155886
23 | 34:38.37 | 0:39.23 | 155887 | 158834
24 | 35:17.60 | 1:08.42 | 158835 | 163976
25 | 36:26.27 | 4:47.45 | 163977 | 185546


Range status and errors

Selected range

Filename I:\=== VINYL RIPS ===\=== EAC===\X FRESH RIP\Collegium Cartusianum - Händel - Saul CD 2.wav

Peak level 75.1 %
Extraction speed 6.9 X
Range quality 100.0 %
Test CRC E01A9CCF
Copy CRC E01A9CCF
Copy OK

No errors occurred


AccurateRip summary

Track 1 not present in database
Track 2 not present in database
Track 3 not present in database
Track 4 not present in database
Track 5 not present in database
Track 6 not present in database
Track 7 not present in database
Track 8 not present in database
Track 9 not present in database
Track 10 not present in database
Track 11 not present in database
Track 12 not present in database
Track 13 not present in database
Track 14 not present in database
Track 15 not present in database
Track 16 not present in database
Track 17 not present in database
Track 18 not present in database
Track 19 not present in database
Track 20 not present in database
Track 21 not present in database
Track 22 not present in database
Track 23 not present in database
Track 24 not present in database
Track 25 not present in database

None of the tracks are present in the AccurateRip database

End of status report

==== Log checksum AEAE060C0F609581544F72402A5C20A0E28278E5EB104E819FF75A6252E9E017 ====

Exact Audio Copy V1.0 beta 2 from 29. April 2011

EAC extraction logfile from 25. May 2012, 12:33

Collegium Cartusianum / Händel - Saul CD 3

Used drive : PIONEER BD-RW BDR-206 Adapter: 2 ID: 3

Read mode : Secure
Utilize accurate stream : Yes
Defeat audio cache : Yes
Make use of C2 pointers : No

Read offset correction : 667
Overread into Lead-In and Lead-Out : No
Fill up missing offset samples with silence : Yes
Delete leading and trailing silent blocks : No
Null samples used in CRC calculations : Yes
Used interface : Native Win32 interface for Win NT & 2000

Used output format : User Defined Encoder
Selected bitrate : 896 kBit/s
Quality : High
Add ID3 tag : No
Command line compressor : C:\Program Files\FLAC\flac.exe
Additional command line options : -5 -T "Artist=%artist%" -T "Title=%title%" -T "Album=%albumtitle%" -T "Date=%year%" -T "Tracknumber=%tracknr%" -T "Genre=%genre%" %source% -o %dest%


TOC of the extracted CD

Track | Start | Length | Start sector | End sector
––––––––––––––––––––––––––––-
1 | 0:00.00 | 2:16.42 | 0 | 10241
2 | 2:16.42 | 0:43.60 | 10242 | 13526
3 | 3:00.27 | 0:35.05 | 13527 | 16156
4 | 3:35.32 | 1:54.73 | 16157 | 24779
5 | 5:30.30 | 3:32.40 | 24780 | 40719
6 | 9:02.70 | 0:37.62 | 40720 | 43556
7 | 9:40.57 | 1:14.53 | 43557 | 49159
8 | 10:55.35 | 1:56.12 | 49160 | 57871
9 | 12:51.47 | 3:16.00 | 57872 | 72571
10 | 16:07.47 | 3:39.13 | 72572 | 89009
11 | 19:46.60 | 2:15.42 | 89010 | 99176
12 | 22:02.27 | 3:11.40 | 99177 | 113541
13 | 25:13.67 | 2:24.50 | 113542 | 124391
14 | 27:38.42 | 0:22.48 | 124392 | 126089
15 | 28:01.15 | 4:28.30 | 126090 | 146219
16 | 32:29.45 | 4:14.20 | 146220 | 165289
17 | 36:43.65 | 0:31.40 | 165290 | 167654
18 | 37:15.30 | 5:22.55 | 167655 | 191859


Range status and errors

Selected range

Filename I:\=== VINYL RIPS ===\=== EAC===\X FRESH RIP\Collegium Cartusianum - Händel - Saul CD 3.wav

Peak level 96.3 %
Extraction speed 7.0 X
Range quality 100.0 %
Test CRC 98848B6F
Copy CRC 98848B6F
Copy OK

No errors occurred


AccurateRip summary

Track 1 not present in database
Track 2 not present in database
Track 3 not present in database
Track 4 not present in database
Track 5 not present in database
Track 6 not present in database
Track 7 not present in database
Track 8 not present in database
Track 9 not present in database
Track 10 not present in database
Track 11 not present in database
Track 12 not present in database
Track 13 not present in database
Track 14 not present in database
Track 15 not present in database
Track 16 not present in database
Track 17 not present in database
Track 18 not present in database

None of the tracks are present in the AccurateRip database

End of status report

==== Log checksum 283D2CBFB21089F3E672890DBB457BF2FE49A53A3C524D122AB479F8391C8542 ====


foobar2000 1.1.7 / Dynamic Range Meter 1.1.1
log date: 2012-06-01 21:14:41

––––––––––––––––––––––––––––––––––––––––
Analyzed: Collegium Cartusianum / Händel - Saul CD 1
––––––––––––––––––––––––––––––––––––––––

DR Peak RMS Duration Track
––––––––––––––––––––––––––––––––––––––––
DR13 -10.41 dB -26.61 dB 3:47 01-Symphonie - Allegro
DR11 -13.44 dB -28.73 dB 1:59 02-Symphonie - Larghetto
DR13 -10.77 dB -27.87 dB 2:38 03-Symphonie - Allegro
DR13 -13.10 dB -30.50 dB 3:18 04-Symphonie - Andante larghetto
DR13 -2.93 dB -22.35 dB 2:45 05-Chorus - How excellent thy Name
DR11 -6.97 dB -24.76 dB 1:39 06-Air Soprano - An infant rais'd
DR14 -5.82 dB -23.57 dB 0:57 07-Trio - Along the Monster Atheist strode
DR12 -6.43 dB -23.68 dB 1:52 08-Chorus - The Youth inspir'd by Three
DR12 -2.66 dB -19.64 dB 2:23 09-Chorus - How excellent thy Name - Hallelujah
DR14 -7.19 dB -28.42 dB 3:14 10-Air / Larghetto - He comes!
DR12 -16.02 dB -33.14 dB 0:54 11-Recitative - Behold, O King
DR12 -6.42 dB -26.54 dB 1:44 12-Air - O King your favours with Delight
DR13 -11.04 dB -32.84 dB 0:30 13-Recitative - O early Piety!
DR12 -4.98 dB -23.28 dB 2:17 14-Air - What abject Thoughts a Prince can have
DR11 -7.93 dB -28.67 dB 0:23 15-Recitative - Yet think, on whom this honour…
DR14 -10.73 dB -30.70 dB 4:23 16-Air - Birth and Fortune I despise
DR11 -18.27 dB -35.32 dB 0:22 17-Recitative - Go on, illustrious Pair!
DR14 -12.87 dB -33.21 dB 2:22 18-Air - While yet thy Tide of Blood runs high
DR10 -6.73 dB -25.61 dB 0:25 19-Thou, Merab, first birth
DR12 -4.49 dB -22.97 dB 1:15 20-Air - My soul rejects the thought with scom
DR14 -3.66 dB -24.97 dB 1:07 21-Air - See, see with what a scornful air
DR13 -5.35 dB -26.16 dB 0:50 22-Air - Ah Lovely Youth
DR12 -22.17 dB -37.95 dB 1:02 23-Symphonie pour les carillons
DR11 -5.67 dB -26.07 dB 0:18 24-Recitative - Already see, the Daughters of the Land
DR13 -4.15 dB -22.86 dB 1:30 25-Chorus - Welcome, welcome, mighty King
DR10 -9.40 dB -24.18 dB 0:21 26-Accompagnato - What do I hear
DR12 -0.74 dB -16.08 dB 0:30 27-Chorus - David his Ten Thousands slew
DR11 -9.94 dB -26.26 dB 0:15 28-Accompagnato - To him Ten thousends
DR13 -4.47 dB -23.84 dB 1:18 29-Air - With Rage I shall burst his Praises to hear
DR12 -8.70 dB -31.07 dB 0:50 30-Recitative - Imprudent Women
DR15 -5.63 dB -31.02 dB 2:53 31-Air - Fair Rage and black Despair possest
DR12 -16.46 dB -33.51 dB 0:15 32-Recitative - Rack'd with Infernal Pains
DR14 -10.47 dB -31.74 dB 3:36 33-Air - O Lord, whose Mercies
DR12 -32.56 dB -49.79 dB 1:31 34-Symphonie
DR15 -9.75 dB -33.37 dB 0:15 35-Recitaive - T'is all in vain
DR15 -9.06 dB -28.31 dB 1:51 36-Air - A Serpent in my Bosom warm'd
DR12 -16.99 dB -33.99 dB 0:21 37-Recitative - Has he escap'd my Rage?
DR15 -3.12 dB -23.79 dB 3:47 38-Air - Capricious Man
DR15 -7.04 dB -31.60 dB 1:40 39-Accompagnato - O Filial Piety
DR15 -8.12 dB -30.37 dB 1:38 40-Air - No, no cruel father, no
DR12 -13.67 dB -29.95 dB 1:36 41-Air - O Lord, whose Providence
DR13 -7.19 dB -24.22 dB 3:04 42-Chorus - Preserve him for the Glory of thy Name
DR14 -16.02 dB -36.77 dB 0:27 43-Recitative - This but the smallest Part of Harmony
DR13 -15.48 dB -34.82 dB 2:20 44-By thee This Universal Frame
––––––––––––––––––––––––––––––––––––––––

Number of tracks: 44
Official DR value: DR13

Samplerate: 44100 Hz
Channels: 2
Bits per sample: 16
Bitrate: 564 kbps
Codec: FLAC
================================================================================

––––––––––––––––––––––––––––––––––––––––
Analyzed: Collegium Cartusianum / Händel - Saul CD 2
––––––––––––––––––––––––––––––––––––––––

DR Peak RMS Duration Track
––––––––––––––––––––––––––––––––––––––––
DR14 -2.49 dB -21.93 dB 2:33 01-Chorus - Envy! Eldest born off Hell!
DR13 -5.64 dB -29.74 dB 0:39 02-Recitative -Ah, dearest Friend
DR14 -10.19 dB -28.93 dB 2:24 03-Air - But sooner Jordan's Stream
DR13 -12.59 dB -34.35 dB 0:40 04-Recitative- Hast thou obey'd my Orders
DR14 -9.82 dB -30.06 dB 2:25 05-Air - Sin not, O king, agaibst the Youth
DR12 -9.02 dB -26.64 dB 1:25 06-Air - As great Jehovah lives
DR14 -6.27 dB -28.54 dB 2:18 07-Air - From cities storm'd, and Battles won
DR12 -10.66 dB -29.19 dB 0:31 08-Recitative - Appear, my Friend
DR11 -6.77 dB -28.79 dB 1:07 09-Air - Your Words, O King, my loyal heart
DR16 -14.39 dB -34.47 dB 0:24 10-Recitative - Yes, heshall wed my Daughter!
DR15 -8.03 dB -29.56 dB 0:38 11-Recitative - A Fasther's Will has autoriz'd my Love
DR15 -8.88 dB -30.11 dB 2:19 12-Duet - O Fairest of ten thousand Fair
DR13 -3.75 dB -24.08 dB 1:20 13-Chorus - Is there a Man, who all his Ways
DR11 -12.71 dB -27.45 dB 1:39 14-Symphonie - Largo
DR12 -17.15 dB -34.93 dB 4:36 15-Symphonie - Allegro
DR10 -11.43 dB -31.14 dB 0:30 16-Recitative - The Fasther is as cruel
DR14 -8.10 dB -26.69 dB 1:11 17-Duet - At Persecution I can laugh
DR13 -11.44 dB -31.18 dB 0:36 18-Recitative - Whom dost thou seek?
DR15 -8.16 dB -28.31 dB 1:26 19-Air - No, no, let the Guilly tremble
DR12 -12.63 dB -31.83 dB 1:05 20-Recitative - Mean as he was, he is my Brother now
DR13 -8.81 dB -28.48 dB 3:42 21-Air - Author of Peace, who canst controul
DR12 -8.53 dB -23.85 dB 1:12 22-Symphonie
DR10 -10.56 dB -24.87 dB 0:39 23-Accompagnato - The Time at length
DR13 -6.20 dB -26.82 dB 1:09 24-Recitative - Where is the Son of Jesse?
DR14 -5.40 dB -24.20 dB 4:48 25-Chorus - O fatal Consequence
––––––––––––––––––––––––––––––––––––––––

Number of tracks: 25
Official DR value: DR13

Samplerate: 44100 Hz
Channels: 2
Bits per sample: 16
Bitrate: 552 kbps
Codec: FLAC
================================================================================

––––––––––––––––––––––––––––––––––––––––
Analyzed: Collegium Cartusianum / Händel - Saul CD 3
––––––––––––––––––––––––––––––––––––––––

DR Peak RMS Duration Track
––––––––––––––––––––––––––––––––––––––––
DR15 -7.86 dB -27.75 dB 2:17 01-Accompagnato - Wretch that I am
DR14 -10.19 dB -30.38 dB 0:44 02-Recitative - Tis said, here lives a Woman
DR14 -17.17 dB -36.67 dB 0:35 03-Recitative - With me what would'st thou?
DR13 -9.44 dB -28.18 dB 1:55 04-Air - Infernal spirits, by whose Pow'r
DR13 -12.01 dB -29.86 dB 3:33 05-Accompagnato - Why hast thou forc'd me
DR10 -7.55 dB -24.13 dB 0:38 06-Symphonie
DR13 -14.00 dB -33.31 dB 1:15 07-Recitative - Whence comest thou?
DR14 -6.73 dB -27.53 dB 1:56 08-Air - Impious Wretch, of Race accurst?
DR15 -15.12 dB -35.24 dB 3:16 09-March. Grave
DR13 -9.08 dB -29.10 dB 3:39 10-Chorus - Mourn, Israel, mourn thy Beauty lost
DR16 -10.23 dB -33.40 dB 2:16 11-Air - O let it not in Gath be heard
DR13 -7.55 dB -29.42 dB 3:12 12-Air - Brave Johnathan his Bow ne'er drew
DR12 -8.48 dB -29.10 dB 2:25 13-Chorus - Eagles were not so swift as they
DR10 -6.11 dB -24.45 dB 0:23 14-Air - In sweetest Harmony they liv'd
DR13 -9.43 dB -28.71 dB 4:28 15-Solo and Chorus
DR15 -4.13 dB -25.76 dB 4:14 16-O fatal day How low the Mighty lie
DR14 -15.95 dB -34.71 dB 0:32 17-Recitative - Ye Men of Judah, weep no more!
DR14 -0.32 dB -19.89 dB 5:23 18-Corus - Gird on thy Sword, thou Man of Might
––––––––––––––––––––––––––––––––––––––––

Number of tracks: 18
Official DR value: DR13

Samplerate: 44100 Hz
Channels: 2
Bits per sample: 16
Bitrate: 525 kbps
Codec: FLAC
================================================================================



CD Info:

Georg Friedrich Händel - Kölner Kammerchor / Collegium Cartusianum / Peter Neumann - Saul HWV 53

Label: MDG
Series: Gold
Catalog#: MDG 332 0801-2
Format: 3xCD, Album
Country: Germany
Released: 1998
Genre: Classical
Style: Oratorium

Tracklist:

CD 1:

01. Symphonie - Allegro [0:03:46.62]
02. Symphonie - Larghetto [0:01:58.40]
03. Symphonie - Allegro [0:02:38.20]
04. Symphonie - Andante larghetto [0:03:17.55]
05. Chorus - How excellent thy Name [0:02:45.05]
06. Air Soprano - An infant rais'd [0:01:38.63]
07. Trio - Along the Monster Atheist strode [0:00:57.27]
08. Chorus - The Youth inspir'd by Three [0:01:52.35]
09. Chorus - How excellent thy Name - Hallelujah [0:02:23.05]
10. Air / Larghetto - He comes! [0:03:14.08]
11. Recitative - Behold, O King [0:00:54.30]
12. Air - O King your favours with Delight [0:01:44.15]
13. Recitative - O early Piety! [0:00:29.40]
14. Air - What abject Thoughts a Prince can have [0:02:16.45]
15. Recitative - Yet think, on whom this honour… [0:00:22.40]
16. Air - Birth and Fortune I despise [0:04:23.27]
17. Recitative - Go on, illustrious Pair! [0:00:22.00]
18. Air - While yet thy Tide of Blood runs high [0:02:21.40]
19. Thou, Merab, first birth [0:00:24.53]
20. Air - My soul rejects the thought with scom [0:01:14.47]
21. Air - See, see with what a scornful air [0:01:07.03]
22. Air - Ah Lovely Youth [0:00:50.30]
23. Symphonie pour les carillons [0:01:02.37]
24. Recitative - Already see, the Daughters of the Land [0:00:17.38]
25. Chorus - Welcome, welcome, mighty King [0:01:30.07]
26. Accompagnato - What do I hear [0:00:20.45]
27. Chorus - David his Ten Thousands slew [0:00:29.45]
28. Accompagnato - To him Ten thousends [0:00:14.60]
29. Air - With Rage I shall burst his Praises to hear [0:01:17.65]
30. Recitative - Imprudent Women [0:00:50.10]
31. Air - Fair Rage and black Despair possest [0:02:53.30]
32. Recitative - Rack'd with Infernal Pains [0:00:15.35]
33. Air - O Lord, whose Mercies [0:03:36.10]
34. Symphonie [0:01:30.58]
35. Recitaive - T'is all in vain [0:00:14.45]
36. Air - A Serpent in my Bosom warm'd [0:01:50.40]
37. Recitative - Has he escap'd my Rage? [0:00:20.52]
38. Air - Capricious Man [0:03:46.43]
39. Accompagnato - O Filial Piety [0:01:40.10]
40. Air - No, no cruel father, no [0:01:38.22]
41. Air - O Lord, whose Providence [0:01:35.73]
42. Chorus - Preserve him for the Glory of thy Name [0:03:04.07]
43. Recitative - This but the smallest Part of Harmony [0:00:27.33]
44. By thee This Universal Frame [0:02:19.52]

CD 2:

01. Chorus - Envy! Eldest born off Hell! [0:02:32.52]
02. Recitative -Ah, dearest Friend [0:00:38.58]
03. Air - But sooner Jordan's Stream [0:02:23.60]
04. Recitative- Hast thou obey'd my Orders [0:00:40.00]
05. Air - Sin not, O king, agaibst the Youth [0:02:24.60]
06. Air - As great Jehovah lives [0:01:24.52]
07. Air - From cities storm'd, and Battles won [0:02:18.35]
08. Recitative - Appear, my Friend [0:00:30.45]
09. Air - Your Words, O King, my loyal heart [0:01:06.55]
10. Recitative - Yes, heshall wed my Daughter! [0:00:24.10]
11. Recitative - A Fasther's Will has autoriz'd my Love [0:00:37.43]
12. Duet - O Fairest of ten thousand Fair [0:02:18.67]
13. Chorus - Is there a Man, who all his Ways [0:01:19.48]
14. Symphonie - Largo [0:01:39.02]
15. Symphonie - Allegro [0:04:36.13]
16. Recitative - The Fasther is as cruel [0:00:30.02]
17. Duet - At Persecution I can laugh [0:01:11.15]
18. Recitative - Whom dost thou seek? [0:00:36.15]
19. Air - No, no, let the Guilly tremble [0:01:25.45]
20. Recitative - Mean as he was, he is my Brother now [0:01:05.33]
21. Air - Author of Peace, who canst controul [0:03:41.72]
22. Symphonie [0:01:12.05]
23. Accompagnato - The Time at length [0:00:39.23]
24. Recitative - Where is the Son of Jesse? [0:01:08.42]
25. Chorus - O fatal Consequence [0:04:47.45]

CD 3:

01. Accompagnato - Wretch that I am [0:02:16.42]
02. Recitative - Tis said, here lives a Woman [0:00:43.60]
03. Recitative - With me what would'st thou? [0:00:35.05]
04. Air - Infernal spirits, by whose Pow'r [0:01:54.73]
05. Accompagnato - Why hast thou forc'd me [0:03:32.40]
06. Symphonie [0:00:37.62]
07. Recitative - Whence comest thou? [0:01:14.53]
08. Air - Impious Wretch, of Race accurst? [0:01:56.12]
09. March. Grave [0:03:16.00]
10. Chorus - Mourn, Israel, mourn thy Beauty lost [0:03:39.13]
11. Air - O let it not in Gath be heard [0:02:15.42]
12. Air - Brave Johnathan his Bow ne'er drew [0:03:11.40]
13. Chorus - Eagles were not so swift as they [0:02:24.50]
14. Air - In sweetest Harmony they liv'd [0:00:22.48]
15. Solo and Chorus [0:04:28.30]
16. O fatal day How low the Mighty lie [0:04:14.20]
17. Recitative - Ye Men of Judah, weep no more! [0:00:31.40]
18. Corus - Gird on thy Sword, thou Man of Might [0:05:22.55]

Credits:

Gregory Reinhart, Bass – Saul
Matthias Koch, Altus – David
John Elwes, Tenor – Jonathan
Vasilijka Jezovšek, Sopran – Michal
Simone Kermes – Merab
Johannes Kalpers, Tenor – High Priest
Michail Schelomjanskis, Bass – Samuel

»Dramatic conviction is strong in Neumann's conception of the work. Tempos move briskly, charged with energy and vitality. He appreciates the important role of the chorus, whose contributions are powerful. This is an exciting performance, and by the final chorus I was really on a "high". Against the competition, this new German recording rates very high. It is certainly superior to Harnoncourt's heavily cut and somewhat mannered Teldec reissue.«
Barker in American Record Guide



Composer:

Johann Sebastian Bach
Bach- Calefax Reed Quintet - Die Kunst der Fuge BWV 1080 (2000)
Bach- Collegium Cartusianum - Passio secundum Johannem BWV 245 (Version II, 1725) (2000) [2xCD]
Bach- Musica Alta Ripa - Solo Concertos Vol. 1-4 (1996-1999) [4xCD]

Woldemar Bargiel
Bargiel- Trio Parnassus - Complete Piano Trios Vol. 1 (1998)

Ludwig van Beethoven
Beethoven- Trio Parnassus - Complete Piano Trios Vol. 1-5 (1994, 2001) [5xCD]
Beethoven- Ochester der Beethovenhalle Bonn - Leonore (Version 1806, aka 'Fidelio') (1998) [2xCD]
BeethovenQuartett - Beethoven: String Quartet op. 135 / Schumann: String Quartets op. 41 Nos. 1& 2 First Version (2010) [SACD]
BeethovenQuartett - Beethoven: String Quartet op. 135 / Schumann: String Quartets op. 41 Nos. 1& 2 First Version (2010) [CD]
Beethoven - BOB / Blunier - Symphonies No. 1 & 5 (2012) [SACD]
Beethoven - BOB / Blunier - Symphonies No. 1 & 5 (2012) [CD]

Frantisek Benda
Benda- Konrad Hünteler - Concertos for Flute, Strings and Basso Continuo (1996)

Oskar Gottlieb Blarr
Blarr- Neandersinfonietta - Jesus-Geburt: Weihnachtsoratorium (1992) [2xCD]

Luigi Boccherini
Boccherini- Flieder-Trio - String Trios op.14 (1990)

Oskar Böhme
Brandt / Böhme- Wolfgang Bauer - Music for Trumpet (2009) [SACD]
Brandt / Böhme- Wolfgang Bauer - Music for Trumpet (2009) [CD]

Mel Bonis
Bonis- Mozart Piano Quartet - Complete Piano Quartets (2007)

Marco Enrico Bossi
Bossi- Maija Lehtonen - Complete Organ Works Vol. 1 (1994)

Johannes Brahms
Brahms- Hardy Rittner - Early Piano Works Vol.1 (2008) [CD]
Brahms- Hardy Rittner - Early Piano Works Vol.2 (2008) [SACD]
Brahms- Hardy Rittner - Early Piano Works Vol.2 (2008) [CD]
Mozart Piano Quartet- Schumann / Brahms - Piano Quartets (2011)

Vassily/Willy Brandt
Brandt / Böhme- Wolfgang Bauer - Music for Trumpet (2009) [SACD]
Brandt / Böhme- Wolfgang Bauer - Music for Trumpet (2009) [CD]

Anton Bruckner
Bruckner- BOB / Blunier - Symphony D minor "Nullte", 3 Pieces, March (2011) [SACD]
Bruckner- BOB / Blunier - Symphony D minor "Nullte", 3 Pieces, March (2011) [CD]
Bruckner- BOB / Blunier - Symphony No. 8 WAB 108 (Version 1890) (2011) [SACD]
Bruckner- BOB / Blunier - Symphony No. 8 WAB 108 (Version 1890) (2011) [CD]

Ferruccio Busoni
Busoni- Claudius Tanski - Klavierwerke (1992)

Dietrich Buxtehude
Buxtehude - Harald Vogel - Complete Organ Works [7CD BOX] (2007)

John Cage
Cage- Steffen Schleiermacher - Complete Piano Music Vol. 1 - The Prepared Piano [3xCD] (1997)

Antonio Casimir Cartellieri
Cartellieri- Klöcker, PCO - Concertos for Clarinet (1996)

Mario Castelnuovo-Tedesco
Castelnuovo-Tedesco- Bungarten - 24 Caprichos de Goya para Guitarra (1996)

Frederic Chopin
Chopin- Hardy Rittner - Complete Etudes (2012) [SACD]
Chopin- Hardy Rittner - Complete Etudes (2012) [CD]

Heinz Chur
Heinz Chur - Noriko Kitano-Klein - Piano Sonatas 6-8 (1994)

Eugen D'Albert
D'Albert- BOB / Blunier - Der Golem: Opera in 3 Acts (2010)

Claude Debussy
Claude Debussy & Maurice Ravel: Orchestral Works - Orchester der BHB / Soustrot (2002)

Michael Denhoff
Michael Denhoff - Player Piano 8: Original Compositions in the Tradition of Nancarrow (2009)

Felix Draeseke
Draeseke- Claudius Tanski / Wuppertal SO - Symphony No.1 & Piano Concerto (1999)

Marcel Dupre
Dupré- Ben van Oosten - Organ Works Vol. 01 (1999)
Dupré- Ben van Oosten - Organ Works Vol. 02 (2001)
Dupré- Ben van Oosten - Organ Works Vol. 03 (2001)
Dupré- Ben van Oosten - Organ Works Vol. 04 (2002)
Dupré- Ben van Oosten - Organ Works Vol. 05 (2003)
Dupré- Ben van Oosten - Organ Works Vol. 06 (2004)
Dupré- Ben van Oosten - Organ Works Vol. 07 (2005)
Dupré- Ben van Oosten - Organ Works Vol. 08 (2007)
Dupré- Ben van Oosten - Organ Works Vol. 09 (2008)
Dupré- Ben van Oosten - Organ Works Vol. 10 (2008)

Antonin Dvorak
Dvorak- BOB / Firmbach / Honickel - Komm, wir fahren nach Amerika (2010)
Dvorak- Leipziger Streichquartett / Zacharias - Piano Quintets op.81 & 97 (2004)

Morton Feldman
Morton Feldman - Steffen Schleiermacher - The Late Piano Works Vol. 1 (2008)
Morton Feldman - Steffen Schleiermacher - The Late Piano Works Vol. 2 (2009)
Morton Feldman - Steffen Schleiermacher - The Late Piano Works Vol. 3 (2009)

Jean Francaix
Jean Francaix - Bläserquintette Nr. 1+2 & L'Heure du Berger (Sextett) (1993)

Alexander Glazunov
Alexander Glazunov - Utrecht String Quartet - String Quartets No. 3 & 5 (2004)

Benjamin Godard
Benjamin Godard - Trio Parnassus - Complete Piano Trios (2010)

Christoph Willibald Gluck
Christoph Willibald Gluck - Il trionfo di Clelia, opera in 3 acts, Wq. 31 (1763) (2012)

Friedrich Hartmann Graf
Friedrich Hartmann Graf - Hünteler, Festetics Quartet - Six Flute Quartets (1994)

Christoph Graupner
Christoph Graupner - Nova Stravaganza / Siegbert Rampe - Orchestral Works Vol. 1 (2002)
Christoph Graupner - Nova Stravaganza / Siegbert Rampe - Orchestral Works Vol. 2 (2004)
Christoph Graupner - Nova Stravaganza / Siegbert Rampe - Orchestral Works Vol. 3 (2010)

Johann Nepomuk Hummel
Hummel- Trio Parnassus - Complete Piano Trios (1989) [2xCD]

Maurica Ravel
Claude Debussy & Maurice Ravel: Orchestral Works - Orchester der BHB / Soustrot (2002)

Ottorino Respighi
Respighi- Wuppertal Symphony Orchestra / Hanson - Orchestral Works (2001)

Franz Schubert
Schubert- Consortium Classicum - Octet F major D 803 (1997)

Robert Schumann
BeethovenQuartett- Beethoven: String Quartet op. 135 / Schumann: String Quartets op. 41 Nos. 1& 2 First Version (2010) [SACD]
BeethovenQuartett- Beethoven: String Quartet op. 135 / Schumann: String Quartets op. 41 Nos. 1& 2 First Version (2010) [CD]
Mozart Piano Quartet- Schumann / Brahms - Piano Quartets (2011)

Various Artists / Various Composers
VA - Inspirations: MDG Classical References (2007)[SACD]
VA - Inspirations: MDG Classical References (2007)[CD]

Performer:

BeethovenQuartet
BeethovenQuartett- Beethoven: String Quartet op. 135 / Schumann: String Quartets op. 41 Nos. 1& 2 First Version (2010) [SACD]
BeethovenQuartett- Beethoven: String Quartet op. 135 / Schumann: String Quartets op. 41 Nos. 1& 2 First Version (2010) [CD]

Ben van Oosten
Ben van Oosten- Dupré - Organ Works Vol. 01 (1999)
Ben van Oosten- Dupré - Organ Works Vol. 02 (2001)
Ben van Oosten- Dupré - Organ Works Vol. 03 (2001)
Ben van Oosten- Dupré - Organ Works Vol. 04 (2002)
Ben van Oosten- Dupré - Organ Works Vol. 05 (2003)
Ben van Oosten- Dupré - Organ Works Vol. 06 (2004)
Ben van Oosten- Dupré - Organ Works Vol. 07 (2005)
Ben van Oosten- Dupré - Organ Works Vol. 08 (2007)
Ben van Oosten- Dupré - Organ Works Vol. 09 (2008)
Ben van Oosten- Dupré - Organ Works Vol. 10 (2008)

Berliner Vokalensemble "Carl Maria von Weber"
Berliner Vokalensemble "Carl Maria von Weber" - Kein schöner Land (1995)
Berliner Vokalensemble "Carl Maria von Weber" - Bella Ciao (1997)

Claudius Tanski
Claudius Tanski- Busoni - Klavierwerke (1992)
Claudius Tanski- Draeseke - Symphony No.1 & Piano Concerto (1999)

Consortium Classicum
Consortium Classicum- Schubert - Octet F major D 803 (1997)

Duo Sonare
Duo Sonare - Mozart, Guiliani & Carulli Played On Historical Guitars (1997)

Ensemble Blumina
Ensemble Blumina - Previn / Francaix / Poulenc: Trios for oboe, bassoon and piano (2013) [SACD]
Ensemble Blumina - Previn / Francaix / Poulenc: Trios for oboe, bassoon and piano (2013) [CD]

Ensemble Lanterly
Ensemble Lanterly - Lüneburg 1647: Das "Weckmann-Manuskript" der Lüneburger Ratsbücherei (1995)

Ensemble Villa Musica
Ensemble Villa Musica - Portrait (1993)

Frank Bungarten
Bungarten- Castelnuovo-Tedesco - 24 Caprichos de Goya para Guitarra (1996)
Frank Bungarten - Cancion y Danza (2004)

Hardy Rittner
Hardy Rittner- Brahms - Early Piano Works Vol.1 (2008) [CD]
Hardy Rittner- Brahms - Early Piano Works Vol.2 (2008) [SACD]
Hardy Rittner- Brahms - Early Piano Works Vol.2 (2008) [CD]
Hardy Rittner- Chopin - Complete Etudes (2012) [SACD]
Hardy Rittner- Chopin - Complete Etudes (2012) [CD]

Mozart Piano Quartet
Mozart Piano Quartet- Mel Bonis - Complete Piano Quartets (2007)
Mozart Piano Quartet- Schumann / Brahms - Piano Quartets (2011)

Musica Alta Ripa
Musica Alta Ripa- Bach - Solo Concertos Vol. 1-4 (1996-1999) [4xCD]

Neues Leipziger Streichquartett
Neues Leipziger Streichquartett- Boris Blacher & Witold Lutoslawski: String Quartets (1994)

Steffen Schleiermacher
Steffen Schleiermacher - John Cage - Complete Piano Music Vol. 1 - The Prepared Piano [3xCD] (1997)

Trio Parnassus
Trio Parnassus- Bargiel- Complete Piano Trios Vol. 1 (1998)
Trio Parnassus- Beethoven - Complete Piano Trios Vol. 1-5 (1994, 2001) [5xCD]
Trio Parnassus- Hummel - Complete Piano Trios (1989) [2xCD]
Trio Parnassus- Benjamin Godard - Complete Piano Trios (2010)

Vokalensemble Drops
Vokalquartett Drops - Drops… von der Rolle: Evergreens & Chansons (1993)
Vokalquartett Drops - Drops… unter der Laterne: Lili Marleen und andere Chansons von Norbert Schulze (1997)
Vokalensemble Drops - Drops… in einer kleinen Konditorei: Lieder und Chansons (1998)

Wolfgang Bauer
Wolfgang Bauer- Brandt / Böhme - Music for Trumpet (2009) [SACD]
Wolfgang Bauer- Brandt / Böhme - Music for Trumpet (2009) [CD]



George Frideric Handel - Collegium Cartusianum - Saul [HWV 53] (1998, MDG "Gold" # 332 0801-2) [RE-UP]


all of my uploads in my blog
________________

NITROFLARE

Music Pt. 1 | | Music Pt. 2
Music Pt. 3 | | Music Pt. 4

Art Pt. 1 | | Art Pt. 2

________________