Subcategories

Hank Crawford - More Soul & The Soul Clinic 1960/1961 (2012) 24-Bit Digitally Remastered

Posted By: hill0
Hank Crawford - More Soul & The Soul Clinic 1960/1961 (2012) 24-Bit Digitally Remastered

Hank Crawford - More Soul & The Soul Clinic 1960/1961 (2012) 24-Bit Digitally Remastered
EAC Rip | FLAC (tracks & cue & log) | 422 MB | MP3 CBR 320 kbps | 167 MB | Artwork(PNG) | 51 MB | 73:06
Genre: Soul Jazz / Swing / Jazz-Funk | Country: USA | Label: Fresh Sound Records| FSR-CD 685

This inspired and talented group under the leadership of altoist/arranger Hank Crawford, is the Ray Charles band, minus Ray. But it is also a striking unit in its own right. The big-little-band sound on these two exciting albums, "More Soul" and "The Soul Clinic," is compellingly arranged and orchestrated, equally arresting on incendiary, swinging up-tempo performances as it is on blues-drenched ballads. And it provides a frame for notably lyrical and melodic soloists.
Hank Crawford - More Soul & The Soul Clinic 1960/1961 (2012) 24-Bit Digitally Remastered

The result is a joyous blend combining order and vitality in equal measure. Crawfordwho also plays piano, when it is heardis revealed as a moving and beautifully singing post-Bird alto player whose highly vocalized horn displays an instinctive understanding of structure and the tension-release qualities of good jazz.

And, while bearing a relationship to what became known as "Soul" music, it is also a reaffirmation of the validity of the original concept of that feeling. Remarkably, given the way that jazz and blues suffused its DNA, the unique voice of this gripping Ray Charles smallband operated only in concert or dance halls, outside the jazz club circuit.
Hank Crawford - More Soul & The Soul Clinic 1960/1961 (2012) 24-Bit Digitally Remastered




Tracklist:

"More Soul" Atlantic S01356
1. Boo's Tune (James Moody) 6:38
2. Angel Eyes (M.Dennis-E.Brent) 6:31
3. Four-Five-Six (Hank Crawford) 5:06
4. The Story (James Moody) 4:40
5. Dat Dere (B.Timmons-O.Brown) 4:50
6. Misty (E.Garner-J.Burke) 5:30
7. Sister Sadie (Horace Silver) 4:36

"The Soul Clinic" Atlantic SD1372
8. Please Send Me Someone to Love (Percy Mayfield) 3:29
9. Easy Living (Robin-Rainger) 5:27
10. Playmates (Hank Crawford) 4:20
11. What a Difference a Day Made (Grever-Adams)5:29
12. Me and My Baby (Horace Silver) 4:19
13. Lorelei's Lament (Hank Crawford) 5:35
14. Blue Stone (Hank Crawford) 6:03

Exact Audio Copy V1.0 beta 2 from 29. April 2011

EAC extraction logfile from 17. September 2012, 6:37

Hank Crawford / More Soul & The Soul Clinic

Used drive : HL-DT-STDVD-RAM GH22NP20 Adapter: 0 ID: 0

Read mode : Secure
Utilize accurate stream : Yes
Defeat audio cache : Yes
Make use of C2 pointers : No

Read offset correction : 102
Overread into Lead-In and Lead-Out : No
Fill up missing offset samples with silence : Yes
Delete leading and trailing silent blocks : No
Null samples used in CRC calculations : Yes
Used interface : Native Win32 interface for Win NT & 2000
Gap handling : Appended to previous track

Used output format : User Defined Encoder
Selected bitrate : 1024 kBit/s
Quality : High
Add ID3 tag : No
Command line compressor : C:\Program Files\Exact Audio Copy\Flac\flac.exe
Additional command line options : -8 -V -T "ARTIST=%artist%" -T "TITLE=%title%" -T "ALBUM=%albumtitle%" -T "DATE=%year%" -T "TRACKNUMBER=%tracknr%" -T "GENRE=%genre%" -T "PERFORMER=%albuminterpret%" -T "COMMENT=EAC V1.0 beta 2, Secure Mode, Test & Copy, Acc


TOC of the extracted CD

Track | Start | Length | Start sector | End sector
––––––––––––––––––––––––––––-
1 | 0:00.00 | 6:42.48 | 0 | 30197
2 | 6:42.48 | 6:35.56 | 30198 | 59878
3 | 13:18.29 | 5:10.21 | 59879 | 83149
4 | 18:28.50 | 4:44.01 | 83150 | 104450
5 | 23:12.51 | 4:54.44 | 104451 | 126544
6 | 28:07.20 | 5:34.41 | 126545 | 151635
7 | 33:41.61 | 4:20.46 | 151636 | 171181
8 | 38:02.32 | 3:32.03 | 171182 | 187084
9 | 41:34.35 | 5:30.05 | 187085 | 211839
10 | 47:04.40 | 4:22.73 | 211840 | 231562
11 | 51:27.38 | 5:32.06 | 231563 | 256468
12 | 56:59.44 | 4:22.58 | 256469 | 276176
13 | 61:22.27 | 5:39.23 | 276177 | 301624
14 | 67:01.50 | 6:05.73 | 301625 | 329072


Track 1

Filename D:\music\rips\Hank Crawford - More Soul & The Soul Clinic - 2012\01 - Boo's Tune.wav

Pre-gap length 0:00:02.00

Peak level 98.1 %
Extraction speed 1.9 X
Track quality 100.0 %
Test CRC FA86963B
Copy CRC FA86963B
Accurately ripped (confidence 1) [45DDADF6] (AR v2)
Copy OK

Track 2

Filename D:\music\rips\Hank Crawford - More Soul & The Soul Clinic - 2012\02 - Angel Eyes.wav

Pre-gap length 0:00:01.00

Peak level 100.0 %
Extraction speed 2.0 X
Track quality 99.9 %
Test CRC A45B8ED3
Copy CRC A45B8ED3
Accurately ripped (confidence 1) [F4BCCF6A] (AR v2)
Copy OK

Track 3

Filename D:\music\rips\Hank Crawford - More Soul & The Soul Clinic - 2012\03 - Four-Five-Six.wav

Pre-gap length 0:00:01.00

Peak level 94.5 %
Extraction speed 2.3 X
Track quality 100.0 %
Test CRC CF5E03E9
Copy CRC CF5E03E9
Accurately ripped (confidence 1) [6589174D] (AR v2)
Copy OK

Track 4

Filename D:\music\rips\Hank Crawford - More Soul & The Soul Clinic - 2012\04 - The Story.wav

Pre-gap length 0:00:01.00

Peak level 94.8 %
Extraction speed 2.5 X
Track quality 100.0 %
Test CRC 1371D0D6
Copy CRC 1371D0D6
Accurately ripped (confidence 1) [386A894E] (AR v2)
Copy OK

Track 5

Filename D:\music\rips\Hank Crawford - More Soul & The Soul Clinic - 2012\05 - Dat Dere.wav

Pre-gap length 0:00:01.00

Peak level 100.0 %
Extraction speed 2.6 X
Track quality 100.0 %
Test CRC B80E6F5D
Copy CRC B80E6F5D
Accurately ripped (confidence 1) [BCB759D9] (AR v2)
Copy OK

Track 6

Filename D:\music\rips\Hank Crawford - More Soul & The Soul Clinic - 2012\06 - Misty.wav

Pre-gap length 0:00:01.00

Peak level 96.0 %
Extraction speed 2.8 X
Track quality 100.0 %
Test CRC C34885EB
Copy CRC C34885EB
Accurately ripped (confidence 1) [5073514F] (AR v2)
Copy OK

Track 7

Filename D:\music\rips\Hank Crawford - More Soul & The Soul Clinic - 2012\07 - Sister Sadie.wav

Pre-gap length 0:00:01.00

Peak level 94.5 %
Extraction speed 2.5 X
Track quality 99.9 %
Test CRC 36415279
Copy CRC 36415279
Accurately ripped (confidence 1) [706E85BF] (AR v2)
Copy OK

Track 8

Filename D:\music\rips\Hank Crawford - More Soul & The Soul Clinic - 2012\08 - Please Send Me Someone For Love.wav

Pre-gap length 0:00:01.00

Peak level 99.9 %
Extraction speed 2.8 X
Track quality 100.0 %
Test CRC 869E0EF7
Copy CRC 869E0EF7
Accurately ripped (confidence 1) [6822335A] (AR v2)
Copy OK

Track 9

Filename D:\music\rips\Hank Crawford - More Soul & The Soul Clinic - 2012\09 - Easy Living.wav

Pre-gap length 0:00:01.49

Peak level 99.9 %
Extraction speed 3.1 X
Track quality 100.0 %
Test CRC 875822C7
Copy CRC 875822C7
Accurately ripped (confidence 1) [CEEFB53C] (AR v2)
Copy OK

Track 10

Filename D:\music\rips\Hank Crawford - More Soul & The Soul Clinic - 2012\10 - Playmates.wav

Pre-gap length 0:00:01.48

Peak level 99.9 %
Extraction speed 3.2 X
Track quality 100.0 %
Test CRC 966CA9E8
Copy CRC 966CA9E8
Accurately ripped (confidence 1) [5F89916C] (AR v2)
Copy OK

Track 11

Filename D:\music\rips\Hank Crawford - More Soul & The Soul Clinic - 2012\11 - What A Difference A Day Made.wav

Pre-gap length 0:00:01.49

Peak level 99.9 %
Extraction speed 3.4 X
Track quality 100.0 %
Test CRC 7490CAC8
Copy CRC 7490CAC8
Accurately ripped (confidence 1) [C576C4E8] (AR v2)
Copy OK

Track 12

Filename D:\music\rips\Hank Crawford - More Soul & The Soul Clinic - 2012\12 - Me And My Baby.wav

Pre-gap length 0:00:01.49

Peak level 99.9 %
Extraction speed 3.4 X
Track quality 100.0 %
Test CRC 28D00D1F
Copy CRC 28D00D1F
Accurately ripped (confidence 1) [854E4392] (AR v2)
Copy OK

Track 13

Filename D:\music\rips\Hank Crawford - More Soul & The Soul Clinic - 2012\13 - Lorelei's Lament.wav

Pre-gap length 0:00:01.49

Peak level 99.9 %
Extraction speed 3.3 X
Track quality 99.9 %
Test CRC 4F8766C1
Copy CRC 4F8766C1
Accurately ripped (confidence 1) [FA32D1CC] (AR v2)
Copy OK

Track 14

Filename D:\music\rips\Hank Crawford - More Soul & The Soul Clinic - 2012\14 - Blue Stone.wav

Pre-gap length 0:00:01.49

Peak level 99.9 %
Extraction speed 3.8 X
Track quality 100.0 %
Test CRC 61A25B1B
Copy CRC 61A25B1B
Accurately ripped (confidence 1) [83755884] (AR v2)
Copy OK


All tracks accurately ripped

No errors occurred

End of status report

==== Log checksum 5996DAA1CEE8AE94B9C76F8F02C29258B7C3B1A90C95A4327CDD9155A6B9A644 ====


Musicians

MORE SOUL
Phil Guilbeau, trumpet;
John Hunt, trumpet, flugelhorn,
Hank Crawford, alto sax, piano arranger (except #4);
David "Fathead" Newman, tenor sax;
Leroy "Hog" Cooper, baritone sax
Edgar Willis, bass;
Milt Turner, drums;
Ray Charles, arranger #4

THE SOUL CLINIC
Phil Guilbeau, trumpet (soloist on #11);
John Hunt, trumpet, flugelhorn;
Hank Crawford, alto sax piano (on #8), arranger;
David "Fathead" Newman, tenor sax;
Leroy "Hog" Cooper, baritone sax
Edgar Willis, bass;
Bruno Carr or Milt Turner (on #11), drums

Hank Crawford - More Soul & The Soul Clinic 1960/1961 (2012) 24-Bit Digitally Remastered


All thanks go to Musicgate
=====