Subcategories

Hannes Minnaar - Rachmaninoff: Piano Sonata No. 1 - Ravel: Sonatine & Miroirs (2011)

Posted By: Goodspeed
Hannes Minnaar - Rachmaninoff: Piano Sonata No. 1 - Ravel: Sonatine & Miroirs (2011)

Hannes Minnaar - Rachmaninoff: Piano Sonata No. 1 - Ravel: Sonatine & Miroirs (2011)
EAC+LOG+CUE | FLAC (image) | 1 CD | Size: 257 MB | Artwork: 92 MB (600dpi) | TT: 1:18:52 min. | 5% recovery | NF/FB
Classical | Et'cetera | Release date: 27-10-2011 | Catalog nr. KTC 1432

The sensational young Dutch pianist Hannes Minnaar, international prize-winner and recipient of a Borletti-Buitoni Trust fellowship but not yet known here, displays his extravagant gifts in this debut disc of Rachmaninov's weighty Sonata No 1 and Ravel's Sonatine and Miroirs. Minnaar's virtuosity needs no comment: we expect that. His musical intelligence, sense of line and structure, delicacy, subtlety of texture and discipline set him apart. His Ravel is muscular and sparkling, his Rachmaninov glowing, meticulous and fervent. He is also a chamber musician, having played with the likes of Mischa Maisky and Janine Jansen as well as his own recently established Van Baerle Trio. Dutch pianist Hannes Minnaar received international acclaim after winning prizes at the Queen Elisabeth Competition (3rd prize, 2010) and the Geneva International Music Competition (2nd prize, 2008). He studied with Jan Wijn at the Amsterdam Conservatory, graduating with the highest distinction in 2009 and took lessons with Alfred Brendel, Willem Brons, Menahem Pressler and Ferenc Rados. In addition, he studied organ with Jacques van Oortmerssen. Watch out for him.

Hannes Minnaar - Rachmaninoff: Piano Sonata No. 1 - Ravel: Sonatine & Miroirs (2011)


Sergei Rachmaninoff (1873-1932)
Piano Sonata no. 1
01 Allegro moderato 13:44
02 Lento 09:14
03 Allegro molto 14:43
Maurice Ravel (1875-1937)
Sonatine
04 Modéré 04:14
05 Mouvement de menuet 03:01
06 Animé 03:58
Miroirs
07 Noctuelles 05:03
08 Oiseaux tristes 03:58
09 Une barque sur l'océan 07:54
10 Alborada del gracioso 07:01
11 La vallée des cloches 05:42

Artist: Hannes Minnaar (piano)

Hannes Minnaar - Rachmaninoff: Piano Sonata No. 1 - Ravel: Sonatine & Miroirs (2011)


Exact Audio Copy V1.0 beta 4 from 7. December 2014

EAC extraction logfile from 20. June 2016, 16:45

Hannes Minnaar / Rachmaninov & Ravel - Sonata1, Sonatine & Miroirs

Used drive : HL-DT-STDVDRAM GHA2N Adapter: 1 ID: 0

Read mode : Secure
Utilize accurate stream : Yes
Defeat audio cache : No
Make use of C2 pointers : No

Read offset correction : 667
Overread into Lead-In and Lead-Out : No
Fill up missing offset samples with silence : Yes
Delete leading and trailing silent blocks : No
Null samples used in CRC calculations : Yes
Used interface : Native Win32 interface for Win NT & 2000

Used output format : User Defined Encoder
Selected bitrate : 768 kBit/s
Quality : High
Add ID3 tag : No
Command line compressor : C:\Program Files (x86)\Exact Audio Copy\FLAC\FLAC.EXE
Additional command line options : -6 -V -T "ARTIST=%artist%" -T "TITLE=%title%" -T "ALBUM=%albumtitle%" -T "DATE=%year%" -T "TRACKNUMBER=%tracknr%" -T "GENRE=%genre%" -T "COMMENT=%comment%" -T "BAND=%albuminterpret%" -T "ALBUMARTIST=%albuminterpret%" -T "COMPOSER=%composer%" %haslyrics%–tag-from-file=LYRICS="%lyricsfile%"%haslyrics% -T "DISCNUMBER=%cdnumber%" -T "TOTALDISCS=%totalcds%" -T "TOTALTRACKS=%numtracks%" %hascover%–picture="%coverfile%"%hascover% %source% -o %dest%


TOC of the extracted CD

Track | Start | Length | Start sector | End sector
––––––––––––––––––––––––––––-
1 | 0:00.00 | 13:44.10 | 0 | 61809
2 | 13:44.10 | 9:14.54 | 61810 | 103413
3 | 22:58.64 | 14:58.63 | 103414 | 170826
4 | 37:57.52 | 4:14.02 | 170827 | 189878
5 | 42:11.54 | 3:01.67 | 189879 | 203520
6 | 45:13.46 | 4:03.51 | 203521 | 221796
7 | 49:17.22 | 5:03.05 | 221797 | 244526
8 | 54:20.27 | 3:58.12 | 244527 | 262388
9 | 58:18.39 | 7:54.41 | 262389 | 297979
10 | 66:13.05 | 7:01.53 | 297980 | 329607
11 | 73:14.58 | 5:42.33 | 329608 | 355290


Range status and errors

Selected range

Filename C:\EACrips\Hannes Minnaar - Rachmaninov & Ravel - Sonata1, Sonatine & Miroirs.wav

Peak level 91.1 %
Extraction speed 3.3 X
Range quality 100.0 %
Test CRC 82FC358F
Copy CRC 82FC358F
Copy OK

No errors occurred


AccurateRip summary

Track 1 accurately ripped (confidence 8) [4908A294] (AR v2)
Track 2 accurately ripped (confidence 8) [8B2CD485] (AR v2)
Track 3 accurately ripped (confidence 8) [10EF02F3] (AR v2)
Track 4 accurately ripped (confidence 8) [8CB47296] (AR v2)
Track 5 accurately ripped (confidence 8) [961A1A31] (AR v2)
Track 6 accurately ripped (confidence 8) [6545EF8F] (AR v2)
Track 7 accurately ripped (confidence 8) [CC734F9A] (AR v2)
Track 8 accurately ripped (confidence 8) [7577D767] (AR v2)
Track 9 accurately ripped (confidence 8) [F0F2BDE8] (AR v2)
Track 10 accurately ripped (confidence 8) [9F37F3B0] (AR v2)
Track 11 accurately ripped (confidence 8) [E974A287] (AR v2)

All tracks accurately ripped

End of status report

–– CUETools DB Plugin V2.1.4

[CTDB TOCID: OqXi1.OmfgjIgWzbHRJltVxCXDQ-] found
Submit result: OqXi1.OmfgjIgWzbHRJltVxCXDQ- has been confirmed
Track | CTDB Status
1 | (3/3) Accurately ripped
2 | (3/3) Accurately ripped
3 | (3/3) Accurately ripped
4 | (3/3) Accurately ripped
5 | (3/3) Accurately ripped
6 | (3/3) Accurately ripped
7 | (3/3) Accurately ripped
8 | (3/3) Accurately ripped
9 | (3/3) Accurately ripped
10 | (3/3) Accurately ripped
11 | (3/3) Accurately ripped


==== Log checksum 126F0B60746E651422948F755C76D1056A64841CD420C0B9F7B8221AC8557678 ====
NitroFlare:
CD
Scans
FileBoom:
CD
Scans