Subcategories

Hanoi Rocks: Collection. 6 Albums Mini LP SHM-CD + 2 DVD (1981-2013)

Posted By: v3122
Hanoi Rocks: Collection. 6 Albums Mini LP SHM-CD + 2 DVD (1981-2013)

Hanoi Rocks: Collection. 6 Albums Mini LP SHM-CD + 2 DVD (1981-2013)
EAC | Flac(Image) + Cue + Log & MP3 CBR 320Kbps
6CD | Victor Entertainment Japan, VICP-70186~91 | ~ 2592 or 1036 Mb | Scans(png) -> 1145 Mb
DVD5+DVD9: NTSC 4:3 (720x480) VBR / PAL 16:9 (720x576) VBR
Dolby AC3, 2 ch / Dolby AC3, 6 ch -> 2.66 + 7.64 Gb
Glam Rock, Hard Rock

Hanoi Rocks was a Finnish rock band formed in 1979. They were the first Finnish band to chart in the UK and they were also popular in Japan. The band broke up in June 1985 after the drummer Nicholas "Razzle" Dingley had died in a car accident during their first US tour in December 1984. Original vocalist Michael Monroe and guitarist Andy McCoy reunited in 2001 with a new line-up of Hanoi Rocks until 2009. Although musically closer to traditional rock n' roll and punk, Hanoi Rocks have been cited as a major influence in the glam metal genre for bands such as Guns N' Roses, Skid Row and Poison.

According to Finnish radio and TV personality Jone Nikula, who was the band's tour manager in the 2000s, Hanoi Rocks's albums have sold between 780,000 and 1,000,000 copies around the world, but mostly in Scandinavia and Japan…

~ wiki
Hanoi Rocks: Collection. 6 Albums Mini LP SHM-CD + 2 DVD (1981-2013):

Hanoi Rocks: Collection. 6 Albums Mini LP SHM-CD + 2 DVD (1981-2013)

Tracklist CD1 - 1981 - Bangkok Shocks Saigon Shakes Hanoi Rocks [Repost]:
2013, JVC Kenwood Group/Victor Entertainment Japan, VICP-70186

01. Tragedy 04:06
02. Village Girl 03:04
03. Stop Cryin' 03:55
04. Don't Never Leave Me 03:59
05. Lost In The City 03:51
06. First Timer 03:04
07. Cheyenne 04:01
08. 11th Street Kids 03:59
09. Walking With My Angel 02:14
10. Pretender 03:35
Bonus Tracks:
11. Cafe Avenue (Original Version) 04:55
12. Rebel On The Run 02:49
13. I Love You (Demo) 02:07

Exact Audio Copy V1.0 beta 3 from 29. August 2011

EAC extraction logfile from 6. January 2014, 18:28

Hanoi Rocks / Bangkok Shocks Saigon Shakes Hanoi Rocks

Used drive : PLEXTOR BD-R PX-B950SA Adapter: 6 ID: 0

Read mode : Secure
Utilize accurate stream : Yes
Defeat audio cache : Yes
Make use of C2 pointers : No

Read offset correction : 6
Overread into Lead-In and Lead-Out : No
Fill up missing offset samples with silence : Yes
Delete leading and trailing silent blocks : No
Null samples used in CRC calculations : Yes
Used interface : Native Win32 interface for Win NT & 2000

Used output format : Internal WAV Routines
Sample format : 44.100 Hz; 16 Bit; Stereo


TOC of the extracted CD

Track | Start | Length | Start sector | End sector
––––––––––––––––––––––––––––-
1 | 0:00.00 | 4:06.00 | 0 | 18449
2 | 4:06.00 | 3:04.43 | 18450 | 32292
3 | 7:10.43 | 3:55.70 | 32293 | 49987
4 | 11:06.38 | 3:59.45 | 49988 | 67957
5 | 15:06.08 | 3:51.15 | 67958 | 85297
6 | 18:57.23 | 3:04.00 | 85298 | 99097
7 | 22:01.23 | 4:01.47 | 99098 | 117219
8 | 26:02.70 | 3:59.35 | 117220 | 135179
9 | 30:02.30 | 2:14.30 | 135180 | 145259
10 | 32:16.60 | 3:35.45 | 145260 | 161429
11 | 35:52.30 | 4:55.20 | 161430 | 183574
12 | 40:47.50 | 2:49.10 | 183575 | 196259
13 | 43:36.60 | 2:07.50 | 196260 | 205834


Range status and errors

Selected range

Filename C:\Users\Meijin\Desktop\ALLexxess\Hanoi Rocks\1981 Bangkok Shocks Saigon Shakes Hanoi Rocks (Mini LP SHM-CD Victor Japan 2013)\Hanoi Rocks - Bangkok Shocks Saigon Shakes Hanoi Rocks.wav

Peak level 98.8 %
Extraction speed 3.1 X
Range quality 100.0 %
Test CRC 39A9A7FB
Copy CRC 39A9A7FB
Copy OK

No errors occurred


AccurateRip summary

Track 1 not present in database
Track 2 not present in database
Track 3 not present in database
Track 4 not present in database
Track 5 not present in database
Track 6 not present in database
Track 7 not present in database
Track 8 not present in database
Track 9 not present in database
Track 10 not present in database
Track 11 not present in database
Track 12 not present in database
Track 13 not present in database

None of the tracks are present in the AccurateRip database

End of status report

==== Log checksum 7B998D9F4686FBDACDDB6F6323110871A14A887C1058B4AC1F794A069CFE6F56 ====


[CUETools log; Date: 28.02.2018 13:17:17; Version: 2.1.5]
[CTDB TOCID: An9V3QgfebnSrNor_dlxAVijcIg-] found.
Track | CTDB Status
1 | (3/3) Accurately ripped
2 | (3/3) Accurately ripped
3 | (3/3) Accurately ripped
4 | (3/3) Accurately ripped
5 | (3/3) Accurately ripped
6 | (3/3) Accurately ripped
7 | (3/3) Accurately ripped
8 | (3/3) Accurately ripped
9 | (3/3) Accurately ripped
10 | (3/3) Accurately ripped
11 | (3/3) Accurately ripped
12 | (3/3) Accurately ripped
13 | (3/3) Accurately ripped
[AccurateRip ID: 0016daf5-00e3520c-b70ab80d] found.
Track [ CRC | V2 ] Status
01 [6d6a6535|56dfd435] (0+2/2) Accurately ripped
02 [027d33a1|e72d24dc] (0+2/2) Accurately ripped
03 [7c5e1439|11020a73] (0+2/2) Accurately ripped
04 [8f987d35|53992962] (0+2/2) Accurately ripped
05 [01fa52bf|d49768e1] (0+2/2) Accurately ripped
06 [0a285495|f897534d] (0+2/2) Accurately ripped
07 [f9402a48|b6a60a19] (0+2/2) Accurately ripped
08 [8acde598|68fcb8ca] (0+2/2) Accurately ripped
09 [70546190|8640b541] (0+2/2) Accurately ripped
10 [dd3ebc16|7af4dd73] (0+2/2) Accurately ripped
11 [7a069a1f|af9a63c3] (0+2/2) Accurately ripped
12 [acda9523|8e20f5f9] (0+2/2) Accurately ripped
13 [035d7b05|db9e65a1] (0+2/2) Accurately ripped

Track Peak [ CRC32 ] [W/O NULL] [ LOG ]
– 98,8 [39A9A7FB] [5D1D56A2] CRC32
01 98,8 [AEF2C823] [77706E4F]
02 98,8 [8C22EC35] [A50206C8]
03 98,8 [A511540F] [87E43B24]
04 98,8 [AC2ABC3F] [056A49F7]
05 98,8 [F4BE7B03] [C37E2A33]
06 98,8 [67DACDDC] [A0D99792]
07 98,8 [6E7A7F74] [47D89876]
08 98,8 [4D5366BE] [876B39F7]
09 98,8 [5A3748D3] [C532681E]
10 98,8 [468A1338] [349AB4F0]
11 87,7 [B2F7855C] [93737A82]
12 93,5 [1635B4DB] [C27FF604]
13 98,8 [F33F78B5] [9AF203D5]


Hanoi Rocks: Collection. 6 Albums Mini LP SHM-CD + 2 DVD (1981-2013)

Tracklist CD2 - 1982 - Oriental Beat [Repost]:
2013, JVC Kenwood Group/Victor Entertainment Japan, VICP-70187

01. Motorvatin' 03:12
02. Don't Follow Me 03:16
03. Visitor 03:13
04. Teenangels Outsiders 03:21
05. Sweet Home Suburbia 04:43
06. M.C. Baby 03:01
07. No Law Or Order 03:40
08. Oriental Beat 03:08
09. Devil Woman 02:54
10. Lightnin' Bar Blues 02:38
11. Fallen Star 02:36
Bonus Tracks:
12. Devil Woman (Original Version) 02:53
13. Do The Duck 02:46
14. Hometown Breakdown (Demo) 04:01
15. Willing To Cross The Ocean (Demo) 04:15

Exact Audio Copy V1.0 beta 3 from 29. August 2011

EAC extraction logfile from 6. January 2014, 13:23

Hanoi Rocks / Oriental Beat

Used drive : PLEXTOR BD-R PX-B950SA Adapter: 6 ID: 0

Read mode : Secure
Utilize accurate stream : Yes
Defeat audio cache : Yes
Make use of C2 pointers : No

Read offset correction : 6
Overread into Lead-In and Lead-Out : No
Fill up missing offset samples with silence : Yes
Delete leading and trailing silent blocks : No
Null samples used in CRC calculations : Yes
Used interface : Native Win32 interface for Win NT & 2000

Used output format : Internal WAV Routines
Sample format : 44.100 Hz; 16 Bit; Stereo


TOC of the extracted CD

Track | Start | Length | Start sector | End sector
––––––––––––––––––––––––––––-
1 | 0:00.00 | 3:12.31 | 0 | 14430
2 | 3:12.31 | 3:16.72 | 14431 | 29202
3 | 6:29.28 | 3:13.35 | 29203 | 43712
4 | 9:42.63 | 3:21.73 | 43713 | 58860
5 | 13:04.61 | 4:43.45 | 58861 | 80130
6 | 17:48.31 | 3:01.22 | 80131 | 93727
7 | 20:49.53 | 3:40.60 | 93728 | 110287
8 | 24:30.38 | 3:08.45 | 110288 | 124432
9 | 27:39.08 | 2:54.48 | 124433 | 137530
10 | 30:33.56 | 2:38.60 | 137531 | 149440
11 | 33:12.41 | 2:36.45 | 149441 | 161185
12 | 35:49.11 | 2:53.10 | 161186 | 174170
13 | 38:42.21 | 2:46.45 | 174171 | 186665
14 | 41:28.66 | 4:01.10 | 186666 | 204750
15 | 45:30.01 | 4:15.45 | 204751 | 223920


Range status and errors

Selected range

Filename C:\Users\Meijin\Desktop\ALLexxess\Hanoi Rocks\1982 Oriental Beat (Mini LP SHM-CD Victor Japan 2013)\Hanoi Rocks - Oriental Beat.wav

Peak level 98.8 %
Extraction speed 7.1 X
Range quality 100.0 %
Test CRC 9C3CE4E3
Copy CRC 9C3CE4E3
Copy OK

No errors occurred


AccurateRip summary

Track 1 not present in database
Track 2 not present in database
Track 3 not present in database
Track 4 not present in database
Track 5 not present in database
Track 6 not present in database
Track 7 not present in database
Track 8 not present in database
Track 9 not present in database
Track 10 not present in database
Track 11 not present in database
Track 12 not present in database
Track 13 not present in database
Track 14 not present in database
Track 15 not present in database

None of the tracks are present in the AccurateRip database

End of status report

==== Log checksum A2631F220FADA6F67A9705BAC3A7DCE6F364FBCD8D8BF1BDDD9430737CFB1494 ====


[CUETools log; Date: 28.02.2018 13:17:49; Version: 2.1.5]
[CTDB TOCID: nqkdTqGJ7JyMUBipzHuTJRtA58A-] found.
Track | CTDB Status
1 | (2/2) Accurately ripped
2 | (2/2) Accurately ripped
3 | (2/2) Accurately ripped
4 | (2/2) Accurately ripped
5 | (2/2) Accurately ripped
6 | (2/2) Accurately ripped
7 | (2/2) Accurately ripped
8 | (2/2) Accurately ripped
9 | (2/2) Accurately ripped
10 | (2/2) Accurately ripped
11 | (2/2) Accurately ripped
12 | (2/2) Accurately ripped
13 | (2/2) Accurately ripped
14 | (2/2) Accurately ripped
15 | (2/2) Accurately ripped
[AccurateRip ID: 001b59c7-01345ff5-c90ba90f] found.
Track [ CRC | V2 ] Status
01 [49090b48|da660b42] (0+2/2) Accurately ripped
02 [f2531dbc|401ca6ac] (0+2/2) Accurately ripped
03 [192741a3|84828d09] (0+2/2) Accurately ripped
04 [2c231b48|85da1c8c] (0+2/2) Accurately ripped
05 [70276829|a5cb0e4e] (0+2/2) Accurately ripped
06 [179b927a|d19659a0] (0+2/2) Accurately ripped
07 [95151b8e|746229d6] (0+2/2) Accurately ripped
08 [e0edf0c2|4f21aac4] (0+2/2) Accurately ripped
09 [176033e9|937962ad] (0+2/2) Accurately ripped
10 [18bfc667|a12bcb71] (0+2/2) Accurately ripped
11 [8e21d4e3|5ddb8a77] (0+2/2) Accurately ripped
12 [2e095685|eb53bb6d] (0+2/2) Accurately ripped
13 [8091a04e|43b49ba6] (0+2/2) Accurately ripped
14 [253e0916|f34a1f1f] (0+2/2) Accurately ripped
15 [87bd88fe|5c6a2d4a] (0+2/2) Accurately ripped

Track Peak [ CRC32 ] [W/O NULL] [ LOG ]
– 98,8 [9C3CE4E3] [F6C1926B] CRC32
01 98,8 [20D598E7] [C09AD5AA]
02 98,8 [39AFF3E5] [283146B1]
03 98,8 [CD8DBD02] [3399D7BB]
04 98,8 [6202BED3] [52439F40]
05 98,8 [B3D4FD48] [F1AA7274]
06 98,8 [E5228D82] [6ED80365]
07 98,8 [4AD760E0] [84C743BD]
08 98,8 [EB7045FF] [15E25AA3]
09 98,8 [E14411F9] [88726303]
10 98,8 [DE9BD771] [C21B9C68]
11 84,4 [2363F05B] [02545E29]
12 84,6 [0620C00E] [A1B9D567]
13 91,2 [2040F9D1] [8EAEAD99]
14 75,9 [372B1DE8] [8D78C851]
15 96,6 [3703A374] [69FB81D3]


Hanoi Rocks: Collection. 6 Albums Mini LP SHM-CD + 2 DVD (1981-2013)

Tracklist CD3 - 1982 - Self Destruction Blues [Repost]:
2013, JVC Kenwood Group/Victor Entertainment Japan, VICP-70188

01. Love's An Injection 03:21
02. I Want You 03:14
03. Cafe Avenue 03:22
04. Nothing New 03:18
05. Kill City 04:26
06. Self Destruction Blues 02:44
07. Beer And A Cigarette 03:21
08. Whispers In The Dark 03:33
09. Taxi Driver 04:11
10. Desperados 03:58
11. Problem Child 02:01
12. Dead By X-Mas 03:01
Bonus Tracks:
13. In Th Year '79 (It's Too Late) 02:16
14. Love's An Injection (Demo) 03:04
15. Black Sabbath (feat. Razzle On Vocals & Michael On Drums) 04:02

Exact Audio Copy V1.0 beta 3 from 29. August 2011

EAC extraction logfile from 6. January 2014, 12:51

Hanoi Rocks / Self Destruction Blues

Used drive : PLEXTOR BD-R PX-B950SA Adapter: 6 ID: 0

Read mode : Secure
Utilize accurate stream : Yes
Defeat audio cache : Yes
Make use of C2 pointers : No

Read offset correction : 6
Overread into Lead-In and Lead-Out : No
Fill up missing offset samples with silence : Yes
Delete leading and trailing silent blocks : No
Null samples used in CRC calculations : Yes
Used interface : Native Win32 interface for Win NT & 2000

Used output format : Internal WAV Routines
Sample format : 44.100 Hz; 16 Bit; Stereo


TOC of the extracted CD

Track | Start | Length | Start sector | End sector
––––––––––––––––––––––––––––-
1 | 0:00.00 | 3:21.35 | 0 | 15109
2 | 3:21.35 | 3:14.13 | 15110 | 29672
3 | 6:35.48 | 3:22.17 | 29673 | 44839
4 | 9:57.65 | 3:18.73 | 44840 | 59762
5 | 13:16.63 | 4:26.12 | 59763 | 79724
6 | 17:43.00 | 2:44.23 | 79725 | 92047
7 | 20:27.23 | 3:21.27 | 92048 | 107149
8 | 23:48.50 | 3:33.43 | 107150 | 123167
9 | 27:22.18 | 4:11.40 | 123168 | 142032
10 | 31:33.58 | 3:58.17 | 142033 | 159899
11 | 35:32.00 | 2:01.45 | 159900 | 169019
12 | 37:33.45 | 3:01.55 | 169020 | 182649
13 | 40:35.25 | 2:16.70 | 182650 | 192919
14 | 42:52.20 | 3:04.35 | 192920 | 206754
15 | 45:56.55 | 4:02.00 | 206755 | 224904


Range status and errors

Selected range

Filename C:\Users\Meijin\Desktop\ALLexxess\Hanoi Rocks\1982 Self Destruction Blues (Mini LP SHM-CD Victor Japan 2013)\Hanoi Rocks - Self Destruction Blues.wav

Peak level 98.8 %
Extraction speed 7.1 X
Range quality 100.0 %
Test CRC 98078346
Copy CRC 98078346
Copy OK

No errors occurred


AccurateRip summary

Track 1 not present in database
Track 2 not present in database
Track 3 not present in database
Track 4 not present in database
Track 5 not present in database
Track 6 not present in database
Track 7 not present in database
Track 8 not present in database
Track 9 not present in database
Track 10 not present in database
Track 11 not present in database
Track 12 not present in database
Track 13 not present in database
Track 14 not present in database
Track 15 not present in database

None of the tracks are present in the AccurateRip database

End of status report

==== Log checksum 5DEF453BE18A334EF4D5EB9129157E51ECF5987B580353F715E4126BD69EFDA7 ====


[CUETools log; Date: 28.02.2018 13:18:18; Version: 2.1.5]
[CTDB TOCID: cRCikTt_hXJKwF_6PR.PVsX5bZo-] found.
Track | CTDB Status
1 | (1/1) Accurately ripped
2 | (1/1) Accurately ripped
3 | (1/1) Accurately ripped
4 | (1/1) Accurately ripped
5 | (1/1) Accurately ripped
6 | (1/1) Accurately ripped
7 | (1/1) Accurately ripped
8 | (1/1) Accurately ripped
9 | (1/1) Accurately ripped
10 | (1/1) Accurately ripped
11 | (1/1) Accurately ripped
12 | (1/1) Accurately ripped
13 | (1/1) Accurately ripped
14 | (1/1) Accurately ripped
15 | (1/1) Accurately ripped
[AccurateRip ID: 001beb1c-013b6002-e10bb60f] found.
Track [ CRC | V2 ] Status
01 [91da1073|26307419] (0+2/2) Accurately ripped
02 [4d1a09c3|f322fe3c] (0+2/2) Accurately ripped
03 [80a079e7|ec0b710f] (0+2/2) Accurately ripped
04 [e37c0fe0|e3b602b6] (0+2/2) Accurately ripped
05 [92b76c16|1277ed55] (0+2/2) Accurately ripped
06 [4129655a|6a39dad1] (0+2/2) Accurately ripped
07 [6c49a00d|4c11f68e] (0+2/2) Accurately ripped
08 [3c8cb3dc|895adc30] (0+2/2) Accurately ripped
09 [f3932e30|4ba49d9d] (0+2/2) Accurately ripped
10 [1ff62dd0|ba875eea] (0+2/2) Accurately ripped
11 [32a7d408|f49ab3ec] (0+2/2) Accurately ripped
12 [7c6a26e8|7a4a292f] (0+2/2) Accurately ripped
13 [1a857587|e52b23dd] (0+2/2) Accurately ripped
14 [9439579f|880ecc47] (0+2/2) Accurately ripped
15 [e148b1d1|aca01384] (0+2/2) Accurately ripped

Track Peak [ CRC32 ] [W/O NULL] [ LOG ]
– 98,8 [98078346] [70CEECC4] CRC32
01 98,8 [8D77B75D] [09E2A5B8]
02 98,8 [2399E45D] [1EB8B761]
03 98,8 [0F137821] [9E56639F]
04 98,8 [1EFE5E1F] [4B9677BD]
05 98,8 [5D8A56BF] [BACCF379]
06 98,8 [86B4C84B] [AC340E01]
07 98,8 [B65676A3] [BC51D0AE]
08 98,8 [84660244] [8B7E5007]
09 98,8 [F80623D6] [E7D08C36]
10 98,8 [3755E9EC] [B735C456]
11 98,8 [7C18968F] [8E89EEA2]
12 98,8 [76636E52] [A70F0B8C]
13 79,2 [38986135] [7FBB1421]
14 89,8 [255B6DCC] [F771E168]
15 97,7 [648B303E] [A1928E0D]


Hanoi Rocks: Collection. 6 Albums Mini LP SHM-CD + 2 DVD (1981-2013)

Tracklist CD4 - 1983 - Back To Mystery City [Repost]:
2013, JVC Kenwood Group/Victor Entertainment Japan, VICP-70189

01. Strange Boys Play Weird Openings 00:42
02. Malibu Beach Nightmare 02:46
03. Mental Beat 05:02
04. Tooting Bec Wreck 06:11
05. Until I Get You 04:37
06. Sailing Down The Tears 04:09
07. Lick Summer Love 04:22
08. Beating Gets Faster 03:51
09. Ice Cream Summer 05:09
10. Back To Mystery City 04:58
Bonus Tracks:
11. Malibu Beach Nightmare (Calypso) 02:05
12. Back To Mystery City (Demo) 04:57
13. Until I Get You (Demo) 03:53
14. Ice Cream Summer (Demo) 04:22

Exact Audio Copy V1.0 beta 3 from 29. August 2011

EAC extraction logfile from 6. January 2014, 12:16

Hanoi Rocks / Back To Mystery City

Used drive : PLEXTOR BD-R PX-B950SA Adapter: 6 ID: 0

Read mode : Secure
Utilize accurate stream : Yes
Defeat audio cache : Yes
Make use of C2 pointers : No

Read offset correction : 6
Overread into Lead-In and Lead-Out : No
Fill up missing offset samples with silence : Yes
Delete leading and trailing silent blocks : No
Null samples used in CRC calculations : Yes
Used interface : Native Win32 interface for Win NT & 2000

Used output format : Internal WAV Routines
Sample format : 44.100 Hz; 16 Bit; Stereo


TOC of the extracted CD

Track | Start | Length | Start sector | End sector
––––––––––––––––––––––––––––-
1 | 0:00.00 | 0:42.65 | 0 | 3214
2 | 0:42.65 | 2:46.55 | 3215 | 15719
3 | 3:29.45 | 5:02.53 | 15720 | 38422
4 | 8:32.23 | 6:11.47 | 38423 | 66294
5 | 14:43.70 | 4:37.03 | 66295 | 87072
6 | 19:20.73 | 4:09.60 | 87073 | 105807
7 | 23:30.58 | 4:22.25 | 105808 | 125482
8 | 27:53.08 | 3:51.37 | 125483 | 142844
9 | 31:44.45 | 5:09.63 | 142845 | 166082
10 | 36:54.33 | 4:58.42 | 166083 | 188474
11 | 41:53.00 | 2:05.40 | 188475 | 197889
12 | 43:58.40 | 4:57.60 | 197890 | 220224
13 | 48:56.25 | 3:53.50 | 220225 | 237749
14 | 52:50.00 | 4:22.30 | 237750 | 257429


Range status and errors

Selected range

Filename C:\Users\Meijin\Desktop\ALLexxess\Hanoi Rocks\1983 Back To Mystery City (Mini LP SHM-CD Victor Japan 2013)\Hanoi Rocks - Back To Mystery City.wav

Peak level 98.8 %
Extraction speed 7.3 X
Range quality 100.0 %
Test CRC 7C650524
Copy CRC 7C650524
Copy OK

No errors occurred


AccurateRip summary

Track 1 not present in database
Track 2 not present in database
Track 3 not present in database
Track 4 not present in database
Track 5 not present in database
Track 6 not present in database
Track 7 not present in database
Track 8 not present in database
Track 9 not present in database
Track 10 not present in database
Track 11 not present in database
Track 12 not present in database
Track 13 not present in database
Track 14 not present in database

None of the tracks are present in the AccurateRip database

End of status report

==== Log checksum F77418DCE734CB4200FFE81F97E06F69F34C8A8D2FD75E983E4B35E12B0C9737 ====


[CUETools log; Date: 28.02.2018 13:18:51; Version: 2.1.5]
[CTDB TOCID: 0_BkJotTD1h.6kIdGeeiMVOVPDE-] found.
Track | CTDB Status
1 | (1/1) Accurately ripped
2 | (1/1) Accurately ripped
3 | (1/1) Accurately ripped
4 | (1/1) Accurately ripped
5 | (1/1) Accurately ripped
6 | (1/1) Accurately ripped
7 | (1/1) Accurately ripped
8 | (1/1) Accurately ripped
9 | (1/1) Accurately ripped
10 | (1/1) Accurately ripped
11 | (1/1) Accurately ripped
12 | (1/1) Accurately ripped
13 | (1/1) Accurately ripped
14 | (1/1) Accurately ripped
[AccurateRip ID: 001c452b-01350903-a90d680e] found.
Track [ CRC | V2 ] Status
01 [dfbb07c1|72dddb11] (0+3/3) Accurately ripped
02 [1dc3ef75|b60ffe12] (0+3/3) Accurately ripped
03 [cd0f2905|576d09ec] (0+3/3) Accurately ripped
04 [05dbf942|3a81e577] (0+3/3) Accurately ripped
05 [4724e52d|1b602fd2] (0+3/3) Accurately ripped
06 [2b6afcf2|7c5342b1] (0+3/3) Accurately ripped
07 [eb0aedda|e3ef9dce] (0+3/3) Accurately ripped
08 [d87aa1b2|0dd4128d] (0+3/3) Accurately ripped
09 [1c6f1031|035fb327] (0+3/3) Accurately ripped
10 [a7dc0188|36e341df] (0+3/3) Accurately ripped
11 [87dd2813|827f55a7] (0+3/3) Accurately ripped
12 [28ed1fcc|67b69efd] (0+3/3) Accurately ripped
13 [9bdd499b|f7e99b59] (0+3/3) Accurately ripped
14 [7100cc8e|c2d139de] (0+3/3) Accurately ripped

Track Peak [ CRC32 ] [W/O NULL] [ LOG ]
– 98,8 [7C650524] [9AE675D0] CRC32
01 98,8 [A26D53CC] [EA466A61]
02 98,8 [382AD2AF] [71EF5E02]
03 98,8 [9AFEA88A] [3E36F2AC]
04 98,8 [29200E79] [82786079]
05 98,8 [D5E278A0] [B1EB9F68]
06 98,8 [9CD7508F] [CF7263E3]
07 98,8 [5C126F59] [1FDC96C4]
08 98,8 [FE103E1E] [7CDBF0F4]
09 98,8 [CCB6D2B0] [2CC1ECDA]
10 98,8 [45710AA5] [5F93C82A]
11 88,3 [44489A1C] [7F45BE2E]
12 97,7 [1BA3C693] [20F6654C]
13 94,4 [429187E0] [D67FFC83]
14 96,6 [1F45C411] [D269DF4B]


Hanoi Rocks: Collection. 6 Albums Mini LP SHM-CD + 2 DVD (1981-2013)

Tracklist CD5 - 1984 - Two Steps From The Move [Repost]:
2013, JVC Kenwood Group/Victor Entertainment Japan, VICP-70190

01. Up Around The Bend 03:09
02. High School 03:54
03. I Can't Get It 04:15
04. Underwater World 05:19
05. Don't You Ever Leave Me 04:06
06. Million Miles Away 04:50
07. Boulevard Of Broken Dreams 04:05
08. Boiler (Me Boiler 'N' Me) 04:25
09. Futurama 03:09
10. Cutting Corners 04:22
Bonus Tracks:
11. Two Steps From The Move (Demo) 02:21
12. Oil And Gasoline 04:44
13. Magic Carpet Ride 04:31
14. Shakes 03:25
15. Don't You Ever Leave Me (12 Inch Version) 04:01
16. Never Get Enough (Demo) 05:37

Exact Audio Copy V1.0 beta 3 from 29. August 2011

EAC extraction logfile from 6. January 2014, 11:40

Hanoi Rocks / Two Steps From The Move

Used drive : PLEXTOR BD-R PX-B950SA Adapter: 6 ID: 0

Read mode : Secure
Utilize accurate stream : Yes
Defeat audio cache : Yes
Make use of C2 pointers : No

Read offset correction : 6
Overread into Lead-In and Lead-Out : No
Fill up missing offset samples with silence : Yes
Delete leading and trailing silent blocks : No
Null samples used in CRC calculations : Yes
Used interface : Native Win32 interface for Win NT & 2000

Used output format : Internal WAV Routines
Sample format : 44.100 Hz; 16 Bit; Stereo


TOC of the extracted CD

Track | Start | Length | Start sector | End sector
––––––––––––––––––––––––––––-
1 | 0:00.00 | 3:09.15 | 0 | 14189
2 | 3:09.15 | 3:54.53 | 14190 | 31792
3 | 7:03.68 | 4:15.15 | 31793 | 50932
4 | 11:19.08 | 5:19.70 | 50933 | 74927
5 | 16:39.03 | 4:06.25 | 74928 | 93402
6 | 20:45.28 | 4:50.32 | 93403 | 115184
7 | 25:35.60 | 4:05.53 | 115185 | 133612
8 | 29:41.38 | 4:25.02 | 133613 | 153489
9 | 34:06.40 | 3:09.20 | 153490 | 167684
10 | 37:15.60 | 4:22.55 | 167685 | 187389
11 | 41:38.40 | 2:21.70 | 187390 | 198034
12 | 44:00.35 | 4:44.30 | 198035 | 219364
13 | 48:44.65 | 4:31.10 | 219365 | 239699
14 | 53:16.00 | 3:25.35 | 239700 | 255109
15 | 56:41.35 | 4:01.60 | 255110 | 273244
16 | 60:43.20 | 5:37.60 | 273245 | 298579


Range status and errors

Selected range

Filename C:\Users\Meijin\Desktop\ALLexxess\Hanoi Rocks\1984 Two Steps From The Move (Mini LP SHM-CD Victor Japan 2013)\Hanoi Rocks - Two Steps From The Move.wav

Peak level 98.8 %
Extraction speed 6.7 X
Range quality 100.0 %
Test CRC A62C606C
Copy CRC A62C606C
Copy OK

No errors occurred


AccurateRip summary

Track 1 not present in database
Track 2 not present in database
Track 3 not present in database
Track 4 not present in database
Track 5 not present in database
Track 6 not present in database
Track 7 not present in database
Track 8 not present in database
Track 9 not present in database
Track 10 not present in database
Track 11 not present in database
Track 12 not present in database
Track 13 not present in database
Track 14 not present in database
Track 15 not present in database
Track 16 not present in database

None of the tracks are present in the AccurateRip database

End of status report

==== Log checksum 8CA4DC44197CE09B1D365772DD6E62B48245E3CF8FE5B2C1776A59B0A79985E1 ====


[CUETools log; Date: 28.02.2018 13:19:20; Version: 2.1.5]
[CTDB TOCID: dJDxZxK1fRSFmPeGH3yTVDaNaC0-] found.
Track | CTDB Status
1 | (3/3) Accurately ripped
2 | (3/3) Accurately ripped
3 | (3/3) Accurately ripped
4 | (3/3) Accurately ripped
5 | (3/3) Accurately ripped
6 | (3/3) Accurately ripped
7 | (3/3) Accurately ripped
8 | (3/3) Accurately ripped
9 | (3/3) Accurately ripped
10 | (3/3) Accurately ripped
11 | (3/3) Accurately ripped
12 | (3/3) Accurately ripped
13 | (3/3) Accurately ripped
14 | (3/3) Accurately ripped
15 | (3/3) Accurately ripped
16 | (3/3) Accurately ripped
[AccurateRip ID: 00263f95-01cb876e-cf0f8d10] found.
Track [ CRC | V2 ] Status
01 [a4f9a0ce|ba56651f] (0+5/5) Accurately ripped
02 [6abdae64|21ffb80f] (0+5/5) Accurately ripped
03 [4503ecf6|540c8fae] (0+5/5) Accurately ripped
04 [cb37027c|9247da2b] (0+5/5) Accurately ripped
05 [f75bc5d5|fa9b41ce] (0+5/5) Accurately ripped
06 [886d2328|54095d15] (0+5/5) Accurately ripped
07 [4e885506|3d677f8d] (0+5/5) Accurately ripped
08 [8ff46cf6|23f2fe83] (0+5/5) Accurately ripped
09 [8f23936c|cf48acc4] (0+5/5) Accurately ripped
10 [e2b0cb5e|ad8cda7c] (0+5/5) Accurately ripped
11 [df2b2170|fc62c3ab] (0+5/5) Accurately ripped
12 [03ec08ac|d6cd9ceb] (0+5/5) Accurately ripped
13 [7fa2b6d0|03b6b090] (0+5/5) Accurately ripped
14 [1da49aa6|8202a986] (0+5/5) Accurately ripped
15 [05086a4f|3c3bfcb1] (0+5/5) Accurately ripped
16 [16a91e00|4fc3675c] (0+5/5) Accurately ripped

Track Peak [ CRC32 ] [W/O NULL] [ LOG ]
– 98,8 [A62C606C] [69A8A9DC] CRC32
01 98,8 [6B7026BF] [8CCE5ACF]
02 98,8 [7BFE4875] [927666B8]
03 98,8 [19976CC8] [6ECD6213]
04 98,8 [35B3F6A8] [7EF185DF]
05 98,8 [35291E40] [83EC8673]
06 98,8 [0AA6D1C1] [48ACD082]
07 98,8 [4EE13EC1] [602C69E3]
08 98,8 [87CCF2A9] [FF7DBDC0]
09 98,8 [CD679E35] [8367E32C]
10 98,8 [A08616C0] [07E6C9DC]
11 95,5 [B19DC15D] [4F4B7BEC]
12 97,7 [B8CCAE5A] [DDB5E723]
13 98,8 [58AD76D9] [F0D0EDDF]
14 94,4 [9F8BDDD6] [50C4B708]
15 97,7 [ACB8588C] [9DD87EF7]
16 71,2 [A719E7DE] [D5B5F0A0]


Hanoi Rocks: Collection. 6 Albums Mini LP SHM-CD + 2 DVD (1981-2013)

Tracklist CD6 - 1986 - Million Miles Away [Repost]:
2013, JVC Kenwood Group/Victor Entertainment Japan, VICP-70181

01. Strange Boys Play Weird Openings 00:42
02. Malibu Beach Nightmare 02:48
03. Ice Cream Summer 05:13
04. Oriental Beat 03:22
05. Don't You Ever Leave Me 04:08
06. Tragedy 04:06
07. Love's An Injection 03:24
08. Underwater World 05:21
09. Two Steps From The Move 02:39
10. Under My Wheels 03:06
11. Up Around The Bend 03:09
12. Million Miles Away 04:52
13. Cheyenne 03:34
Bonus Tracks:
14. Life's Been So Hard (Demo) 05:00
15. Menaced By Nightingales (Demo) 04:14
16. Shame, Shame, Shame (Demo) 04:17
17. Fast Car (Demo) 02:26
18. Heart Attack (Demo) 04:27
19. Rock & Roll (Demo) 04:00
20. Lean On Me (Demo) 05:39

Exact Audio Copy V1.0 beta 3 from 29. August 2011

EAC extraction logfile from 6. January 2014, 10:54

Hanoi Rocks / Million Miles Away

Used drive : PLEXTOR BD-R PX-B950SA Adapter: 6 ID: 0

Read mode : Secure
Utilize accurate stream : Yes
Defeat audio cache : Yes
Make use of C2 pointers : No

Read offset correction : 6
Overread into Lead-In and Lead-Out : No
Fill up missing offset samples with silence : Yes
Delete leading and trailing silent blocks : No
Null samples used in CRC calculations : Yes
Used interface : Native Win32 interface for Win NT & 2000

Used output format : Internal WAV Routines
Sample format : 44.100 Hz; 16 Bit; Stereo


TOC of the extracted CD

Track | Start | Length | Start sector | End sector
––––––––––––––––––––––––––––-
1 | 0:00.00 | 0:42.70 | 0 | 3219
2 | 0:42.70 | 2:48.68 | 3220 | 15887
3 | 3:31.63 | 5:13.40 | 15888 | 39402
4 | 8:45.28 | 3:22.15 | 39403 | 54567
5 | 12:07.43 | 4:08.67 | 54568 | 73234
6 | 16:16.35 | 4:06.03 | 73235 | 91687
7 | 20:22.38 | 3:24.02 | 91688 | 106989
8 | 23:46.40 | 5:21.53 | 106990 | 131117
9 | 29:08.18 | 2:39.02 | 131118 | 143044
10 | 31:47.20 | 3:06.05 | 143045 | 156999
11 | 34:53.25 | 3:09.15 | 157000 | 171189
12 | 38:02.40 | 4:52.18 | 171190 | 193107
13 | 42:54.58 | 3:34.32 | 193108 | 209189
14 | 46:29.15 | 5:00.20 | 209190 | 231709
15 | 51:29.35 | 4:14.55 | 231710 | 250814
16 | 55:44.15 | 4:17.45 | 250815 | 270134
17 | 60:01.60 | 2:26.20 | 270135 | 281104
18 | 62:28.05 | 4:27.60 | 281105 | 301189
19 | 66:55.65 | 4:00.10 | 301190 | 319199
20 | 70:56.00 | 5:39.70 | 319200 | 344694


Range status and errors

Selected range

Filename C:\Users\Meijin\Desktop\ALLexxess\Hanoi Rocks\1986 Million Miles Away (Mini LP SHM-CD Victor Japan 2013)\Hanoi Rocks - Million Miles Away.wav

Peak level 98.8 %
Extraction speed 8.8 X
Range quality 100.0 %
Test CRC 5C03C397
Copy CRC 5C03C397
Copy OK

No errors occurred


AccurateRip summary

Track 1 not present in database
Track 2 not present in database
Track 3 not present in database
Track 4 not present in database
Track 5 not present in database
Track 6 not present in database
Track 7 not present in database
Track 8 not present in database
Track 9 not present in database
Track 10 not present in database
Track 11 not present in database
Track 12 not present in database
Track 13 not present in database
Track 14 not present in database
Track 15 not present in database
Track 16 not present in database
Track 17 not present in database
Track 18 not present in database
Track 19 not present in database
Track 20 not present in database

None of the tracks are present in the AccurateRip database

End of status report

==== Log checksum 984AF4B410821D734468F8C1D6E9D7AB35C74599B80DB3B77DF55F3FB2737824 ====


[CUETools log; Date: 28.02.2018 13:19:54; Version: 2.1.5]
[CTDB TOCID: P_ZLdsCHBaPq6ypWpWbCTCU7ZXU-] found.
Track | CTDB Status
1 | (5/5) Accurately ripped
2 | (5/5) Accurately ripped
3 | (5/5) Accurately ripped
4 | (5/5) Accurately ripped
5 | (5/5) Accurately ripped
6 | (5/5) Accurately ripped
7 | (5/5) Accurately ripped
8 | (5/5) Accurately ripped
9 | (5/5) Accurately ripped
10 | (5/5) Accurately ripped
11 | (5/5) Accurately ripped
12 | (5/5) Accurately ripped
13 | (5/5) Accurately ripped
14 | (5/5) Accurately ripped
15 | (5/5) Accurately ripped
16 | (5/5) Accurately ripped
17 | (5/5) Accurately ripped
18 | (5/5) Accurately ripped
19 | (5/5) Accurately ripped
20 | (5/5) Accurately ripped
[AccurateRip ID: 0033b44d-030635cf-1f11f314] found.
Track [ CRC | V2 ] Status
01 [913683a8|bfbb3fac] (0+4/4) Accurately ripped
02 [cbcf6856|f79382e9] (0+4/4) Accurately ripped
03 [dbd25d0c|6b327ca0] (0+4/4) Accurately ripped
04 [5953183c|912f2bca] (0+4/4) Accurately ripped
05 [6f7e4c8f|f27df70b] (0+4/4) Accurately ripped
06 [f5e4fdbb|b12ad987] (0+4/4) Accurately ripped
07 [61e3db1e|1572aeb2] (0+4/4) Accurately ripped
08 [78043cb4|3c82ab2e] (0+4/4) Accurately ripped
09 [60364cc3|05e6941e] (0+4/4) Accurately ripped
10 [878fc031|1bcf562f] (0+4/4) Accurately ripped
11 [c2f4140f|eeba60d5] (0+4/4) Accurately ripped
12 [1b1caf1d|d6f10b62] (0+4/4) Accurately ripped
13 [dbfc6ae2|64022b0f] (0+4/4) Accurately ripped
14 [ba4610d5|55eb2c91] (0+4/4) Accurately ripped
15 [cc968d36|d9ce04b5] (0+4/4) Accurately ripped
16 [62af1d49|3e7c6a04] (0+4/4) Accurately ripped
17 [3a7c9ebe|a92578ee] (0+4/4) Accurately ripped
18 [06454f7a|c22250f4] (0+4/4) Accurately ripped
19 [2dc8da49|2861a07a] (0+4/4) Accurately ripped
20 [ad042c0c|227bd075] (0+4/4) Accurately ripped

Track Peak [ CRC32 ] [W/O NULL] [ LOG ]
– 98,8 [5C03C397] [1B9420D2] CRC32
01 98,8 [6957A0DA] [C13A0CC4]
02 98,8 [66055204] [35E52478]
03 98,8 [6BA75FEE] [9B71200B]
04 98,8 [D0E3C7D9] [43733ADF]
05 98,8 [B7365D46] [752AFB8B]
06 98,8 [8974690C] [2CBDB74F]
07 98,8 [A117FDB5] [7C6DD5A0]
08 98,8 [00C83F2B] [D2D7B9C9]
09 98,8 [E6CC4B0C] [3662F94F]
10 98,8 [A4E3BDBE] [6948BEE8]
11 98,8 [7E6101F7] [7A2DCDF5]
12 98,8 [5195D0C0] [24AEFAF0]
13 98,8 [7EF9E44D] [49A14FDC]
14 98,8 [E5C9DACE] [5694974F]
15 96,6 [EC9A2455] [31FF33D7]
16 92,2 [22730B42] [746BB325]
17 94,4 [C8B78EAB] [8A7B913B]
18 98,8 [4A3BC38A] [C20400F0]
19 98,8 [827560CD] [B92D666B]
20 97,7 [2B23B2B8] [318EA26D]


Hanoi Rocks: Collection. 6 Albums Mini LP SHM-CD + 2 DVD (1981-2013)

Tracklist DVD1 - 2008 - The Nottingham Tapes:

1.Back To Mystery City
2. Up Around The Bend
3. I Cant Get It, Motorvatin’
4. Mental Bea
5. Boulevard Of Broken Dreams
6.Dont Never Leave Me
7. Tragedy
8. Malibu Beach Nightmare
9. Underwater World
10. Lost In the City
11. I Feel Allrigh
12. Taxi Driver
13. Blitzkrieg Bop

Title: DVD1. 2008 - The Notthingham tapes
Size: 2.47 Gb ( 2 594 492,00 KBytes ) - DVD-5
Enabled regions: 1, 2, 3, 4, 5, 6, 7, 8

VTS_01 :
Play Length: 00:57:39
Video: NTSC 4:3 (720x480) VBR
Audio:
Not specified (Dolby AC3, 2 ch)

VTS_02 :
Play Length: 00:01:25
Video: NTSC 4:3 (720x480) VBR
Audio:
Not specified (Dolby AC3, 2 ch)

VTS_03 :
Play Length: 00:01:24
Video: NTSC 4:3 (720x480) VBR
Audio:
Not specified (Dolby AC3, 2 ch)

VTS_04 :
Play Length: 00:01:26
Video: NTSC 4:3 (720x480) VBR
Audio:
Not specified (Dolby AC3, 2 ch)

VTS_05 :
Play Length: 00:01:26
Video: NTSC 4:3 (720x480) VBR
Audio:
Not specified (Dolby AC3, 2 ch)

VTS_06 :
Play Length: 00:01:44
Video: NTSC 4:3 (720x480) VBR
Audio:
Not specified (Dolby AC3, 2 ch)

VTS_07 :
Play Length: 00:01:27
Video: NTSC 4:3 (720x480) VBR
Audio:
Not specified (Dolby AC3, 2 ch)

VTS_08 :
Play Length: 00:00:07
Video: NTSC 4:3 (720x480) VBR
Audio:
Not specified (Dolby AC3, 2 ch)


Hanoi Rocks: Collection. 6 Albums Mini LP SHM-CD + 2 DVD (1981-2013)

Hanoi Rocks: Collection. 6 Albums Mini LP SHM-CD + 2 DVD (1981-2013)

* * *

Hanoi Rocks: Collection. 6 Albums Mini LP SHM-CD + 2 DVD (1981-2013)

Tracklist DVD2 - Buried Alive:

1. Tragedy
2. Motorvatin'
3. Boulevard Of Broken Dreams
4. Street Poetry
5. Café Avenue
6. Obscured
7. Hybermobile
8. Fashion
9. Love's An Injection
10. Whatcha Want
11. Problem Child
12. Mental Beat
13. Underwater World
14. Power Of Persuasion
15. A Day Late, A Dollar Short
16. I Can't Get It
17. Back To Mystery City
18. Until I Get You
19. Beer & Cigarette
20. Worldshaker
21. Don't You Ever Leave Me
22. 11th Street Kids
23. Malibu Beach
24. High School
25. Travellin' Band
26. Taxi Driver
27. Lost In The City
28. People Like Me
29. Delirious
30. Oriental Beat
31. Million Miles Away
32. Up Around The Bend

Title: DVD2. 2009 - Buried Alive
Size: 7.11 Gb ( 7 458 852,00 KBytes ) - DVD-9
Enabled regions: 1, 2, 3, 4, 5, 6, 7, 8

VTS_01 :
Play Length: 02:18:45
Video: PAL 16:9 (720x576) VBR, Auto Letterboxed
Audio:
English (Dolby AC3, 6 ch)
English (Dolby AC3, 2 ch)

VTS_02 :
Play Length: 00:12:16
Video: PAL 16:9 (720x576) VBR, Auto Letterboxed
Audio:
English (Dolby AC3, 2 ch)
Subtitles:
Not specified
English

VTS_03 :
Play Length: 00:00:23
Video: PAL 16:9 (720x576) VBR, Auto Letterboxed
Subtitles:
English


Hanoi Rocks: Collection. 6 Albums Mini LP SHM-CD + 2 DVD (1981-2013)

Hanoi Rocks: Collection. 6 Albums Mini LP SHM-CD + 2 DVD (1981-2013)

All thanks go to ALLexxess, Alvin-H & triolan64

Download Hanoi Rocks: Collection. 6 Albums Mini LP SHM-CD + 2 DVD (1981-2013):