Subcategories

Hans-Joachim Rotzsch, Gewandhausorchester Leipzig - Bach: Geistliche Kantaten (Sacred Cantatas 11CD) (2008)

Posted By: ArlegZ
Hans-Joachim Rotzsch, Gewandhausorchester Leipzig - Bach: Geistliche Kantaten (Sacred Cantatas 11CD) (2008)

Hans-Joachim Rotzsch, Gewandhausorchester Leipzig - Bach: Geistliche Kantaten (Sacred Cantatas 11CD) (2008)
Classical | EAC | Flac+Cue+Log+Scans | 11CD | 1.08 GB
Released: May 6, 2008 | Label: Berlin Classics

Immer wieder schicken sich Dirigenten aus der HIP-Szene an, Gesamtaufnahmen des erhaltenen Kantatenwerkes Johann Sebstian Bachs vorzulegen. Neben solchen, schnell die Aufmerksamkeit auf sich ziehenden Produktionen, die in der Regel aus dem Ausland stammen, gerät es immer mehr in Vergessenheit, dass es auch in Deutschland eine lebendige Bach-Tradition gibt und gab.
Schön ist es daher, dass Berlin Classics nun die Bachschen Kantaten (enthalten ist daneben auch das "Magnificat") herausgibt, die der Thomanerchor unter dem einstigen Thomaskantor Hans-Joachim Rotzsch zwischen 1979 und 1984 eingespielt hat. Enthalten sind die folgenden Werke:

CD 1: "Magnificat" D-Dur BWV 243, BWV 10: "Meine Seele erhebt den Herren" also das lateinische und das "deutsche" Magnificat)

CD 2: BWV 172 "Erschallet, ihr Lieder", BWV 68 "Also hat Gott die Welt geliebt", BWV 1 "Wie schön leuchtet der Morgenstern"

CD 3: BWV 4 "Christ lag in Todesbanden", BWV 134 "Ein Herz, das seinen Jesum lebend weiß"

CD 4: BWV 137 "Lobe den Herren, den mächtigen König der Ehren", BWV 21 "Ich hatte viel Bekümmernis"

CD 5: BWV 173a "Durchlauchtster Leopold", BWV 173 "Erhöhtes Fleisch und Blut", BWV 26 "Ach wie flüchtig, ach wie nichtig"

CD 6: BWV 29 "Wir danken dir, Gott, wir danken dir", BWV 119 "Preise, Jerusalem, den Herrn"

CD 7: BWV 106 "Gottes Zeit ist die allerbeste Zeit" (Actus tragicus), BWV 31 "Der Himmel lacht, die Erde jubilieret", BWV 66 "Erfreut euch, ihr Herzen"

CD 8: BWV 140 "Wachet auf, ruft uns die Stimme", BWV 61 "Nun komm, der Heiden Heiland", BWV 36 "Schingt freudig euch empor"

CD 9: BWV 110 "Unser Mund sein voll Lachens", BWV 40 "Dazu ist erschienen der Sohn Gottes", BWV 71 "Gott ist mein König"

CD 10: BWV 79 "Gott, der Herr, ist Sonn und Schild", BWV 80 "Ein feste Burg ist unser Gott", BWV 192 "Nun danket alle Gott", BWV 50 "Nun ist das Heil und die Kraft"

CD 11: "Lass, Fürstin, lass noch einen Strahl" (Trauerode)

Es ist zu erkennen, dass die hier enthaltene Auswahl alle größeren Feste des Kirchenjahres abdeckt. Somit ist die Box eine gute Anschaffung für denjenigen, der bei derlei Gelegenheiten gern eine Kantate Bachs hören möchte, ohne sich dafür eine hochpreisige Gesamtaufnahme kaufen zu müssen. Daneben sind viele der Einspielungen auch noch sehr gut anzuhören. So liegt hier die für mich beseelteste Aufnahme von BWV 137 vor, die berühmten Reformationskantaten BWV 79 & BWV 80 gelingen ganz hervorragend und BWV 140 habe ich bisher auch noch nicht schöner gehört. Sicher, dass ist alles weit entfernt davon, einen Anspruch auf historische Korrektheit erheben zu können. Dennoch wird hier sehr schöner, sehr beseelter Bach musiziert. Rotzsch hat nicht nur seine Thomaner sehr gut unter Kontrolle, sondern auch das - wie immer - exquisit musizierende Neue Bachische Collegium Musicum aus Leipzig. Hinzu treten als Solisten glänzende Bach-Interpreten, wie z.B. Arleen Augér, Mitsuko Shirai, Doris Soffel, Ortrud Wenkel, Peter Schreier, Siegfried Lorenz, Theo Adam und andere. Ein sehr informatives, 91 Seiten umfassendes Booklet, das neben Informationen zu den einzelnen Werken auch die gesamten Texte bringt, rundet diese sehr schöne Box ab.
Amazon.de


Performer:
Hermann-Christian Polster, Siegfried Lorenz, Theo Adam
Orchestra: Gewandhausorchester Leipzig, Neues Bachische Collegium Musicum, Neues Bachisches Collegium Musicum Leipzig, New Bach Collegium Musicum Leipzig
Conductor: Hans-Joachim Rotzsch


Tracklist:
CD1:
01 Magnificat D-Dur BWV 243. Chorus: Magnificat
02 Arie (S): Et exultavit spiritus meus
03 Arie (S): Quia respexit humilitatem
04 Chorus: Omnes generationes
05 Arie (B): Quia fecit mihi magna
06 Duett (A, T): Et misericordia eius
07 Chorus: Fecit potentiam
08 Arie (T): Deposuit potentes
09 Arie (A): Esurientes implevit bonis
10 Terzett (S I & II, A): Suscepit Israel puerum suum
11 Chorus: Sicut locutus est
12 Chorus: Gloria patri/Sicut erat in principio
13 Meine Seel erhebt den Herrn BWV 10. Chorus: Meine Seel
14 Aria (S): Herr, der du stark und machtig bist
15 Recitativo (T): Des Hochsten Gut und Treu
16 Aria (B): Gewaltige stosst Gott vom Stuhl
17 Duett (A, T): Er denket der Barmherzigkeit
18 Recitativo (T): Was Gott den Vatern alter Zeiten
19 Choral: Lob und Preis sei Gott
CD2:
01 Erschallet, ihr Lieder BWV 172. Chorus: Erschallet
02 Recitative (B): Wer mich liebet, der wird mein Wort halten
03 Aria (B): Heiligste Dreieinigkeit
04 Aria (T): O Seelenparadies
05 Aria. Duet (S, A): Komm, lass mich nicht langer warten
06 Chorale: Von Gott kommt mir ein Freudenschen
07 Chorus: Erchallet, ihr Lieder, erklinget, ihr Saiten!
08 Also hat Gott die Welt geliebt BWV 68. Chorale: Also hat Gott
09 Aria (S): Mein glaubiges Herze
10 Recitative (B): Ich bin mit Petro nicht vermessen
11 Aria (B): Du bist geboren mir zugute
12 Chorus: Wer an ihn glaubet, der wird nicht gerichtet
13 Wie schon leuchtet der Morgenstern BWV 1. Chorale: Wie schon
14 Recitative (T): Du wahrer Gottes und Marien Sohn
15 Aria (S): Erfullet, ihr himmlischen gottlichen Flammen
16 Recitative (B): Ein irdscher Glanz, ein leiblich Licht
17 Aria (T): Unser Mund und Ton der Saiten
18 Chorale: Wie bin ich doch so herzlich froh
CD3:
01 Christ lag in Todesbanden BWV 4. Sinfonia
02 Verse 1 (Chor): Christ lag in Todesbanden
03 Verse 2 (Soprane, Alte): Den Tod niemand zwingen kunnt
04 Verse 3 (Tenore): Jesus Christus, Gottes Sohn
05 Verse 4 (Chor): Es war ein wunderlicher Krieg
06 Verse 5 (Basse): Hier ist das rechte Osterlamm
07 Verse 6 (Soprane, Tenore): So feiern wir das hohe Fest
08 Verse 7 (Chor): Wir essen und leben wohl
09 Ein Herz, das seinen Jesum lebend weiss BWV 134. Recitative (T, A): Ein Herz
10 Aria (T): Auf, Glaubige, singet die lieblichen Lieder
11 Recitative (T, A): Wohl dir, Gott hat an dich gedacht
12 Aria (A, T): Wir danken und preisen
13 Recitative (T, A): Doch wurde selbst den Dank
14 Chorus: Erschallet, ihr Himmel, erfreue dich, Erde
CD4:
01 Lobe den Herren, den mдchtigen Konig der Ehren BWV 137. Chorus: Lobe
02 Aria (A): Lobe den Herren, der alles so herrlich regieret
03 Aria (S, B): Lobe den Herren, der kunstlich und fein dich bereiter
04 Aria (T): Lobe den Herren, der deinen Stand sichtbar gesegnet
05 Choral: Lobe den Herren, was in mir ist, lobe den Namen
06 Ich hatte viel Bekummernis BWV 21. Sinfonia
07 Chorus: Ich hatte viel Bekummernis
08 Aria (S): Seufzer, Tranen, Kummer, Not
09 Recitativo (T): Wie hast du dich, mein Gott
10 Aria (T): Bache von gesalznen Zahren
11 Chorus: Was betrubst du dich, meine Seele
12 Recitativo (S, B): Ach Jesu, meine Ruh
13 Aria. Duet (S, B): Komm, mein Jesu, und erquicke
14 Chorus and Chorale: Sei nun wieder zufrieden, meine Seele
15 Aria (T): Erfreue dich, Seele, erfreue dich, Herze
16 Chorus: Das Lamm, das erwurget ist
CD5:
01 Durchlauchtster Leopold BWV 173a. Recitativo (S): Durchlauchtster Leopold
02 Aria (S): Guldner Sonnen frohe Stunden
03 Aria (B): Leopolds Vortrefflichkeiten
04 Aria. Duetto (S, B): Unter seinem Purpursaum
05 Recitativo (S, B): Durchlauchtigster, den Anhalt Vater nennt
06 Aria (S): So schau dies holden Tages Licht
07 Aria (B): Dein Name gleich der Sonnen geh
08 Aria. Duetto (S, B): Nimm auch, grosser Furst, uns auf
09 Erhohtes Fleisch und Blut BWV 173. Recitativo: Erhohtes Fleisch und Blut
10 Aria (T): Ein geheiligtes Gemute
11 Aria (A): Gott will, o ihr Menschenkinder
12 Aria. Duetto (S, B): So hat Gott die Welt geliebt
13 Recitativo. Duetto (S, T): Unendlichster, den man doch Vater nennt
14 Chorus: Ruhre, Hochster, unsern Geist
15 Ach wie fluchtig, ach wie nichtig BWV 26. Chorus: Ach wie fluchtig
16 Aria (T): So schnell ein rauschend Wasser schiesst
17 Recitativo (A): Die Freude wird zur Traurigkeit
18 Aria (B): An irdische Schatze das Herze zu hangen
19 Recitativo (S): Die hochste Herrlichkeit und Pracht
20 Choral: Ach wie fluchtig, ach wie nichtig
CD6:
01 Wir danken dir, Gott, wir danken dir BWV 29. Sinfonia
02 Chorus: Wir danken dir, Gorr, wir danken dir
03 Aria (T): Halleluja, Stark und Macht
04 Recitativo (B): Gottlob! es geht uns wohl!
05 Aria (S): Gedenk an uns mit deiner Liebe
06 Recitativo (A, Chor): Vergiss es ferner nicht
07 Aria (A): Halleluja, Stark und Macht
08 Choral: Sei Lob und Preis mit Ehren
09 Preise, Jerusalem, den Herrn BWV 119. Chorus: Preise, Jerusalem
10 Recitativo (T): Gesegnet Land! gluckselge Stadt!
11 Aria (T): Wohl dir, du Volk der Linden
12 Recitativo (B): So herrlich stehst du, liebe Stadt!
13 Aria (A): Die Obrigkeit ist Gottes Gabe
14 Recitativo (S): Nun! wir erkennen es und bringen dir
15 Chorus: Der Herr hat Guts an uns getan
16 Recitativo (A): Zuletzt! Da du uns, Herr
17 Choral: Hilf deinem Volk, Herr Jesu Christ
CD7:
01 Gottes Zeit ist die allerbeste Zeit BWV 106. Sonatina
02 Chorus: Gottes Zeit ist die allerbeste Zeit
03 Arioso (T): Ach, Herr, lehre uns bedenken
04 Arioso (B): Bestelle dein Haus
05 Chorus: Es ist der alte Bund
06 Aria (A): In deine Hande befehle ich meinen Geist
07 Arioso & Choral (B, Chor: alt): Heute wirst du mir mir im Paradies sein
08 Chorus: Glorie, Lob, Ehr und Herrlichkeit"
09 Der Himmel lacht, die Erde jubilierte BWV 31. Sonata
10 Chorus: Der Himmel lacht, die Erde jubilierte
11 Recitativo (B): Erwunschter Tag! Sei, Seele, wieder froh
12 Aria (B): Furst des Lebens! starker Streiter
13 Recitativo (T): So stehe denn, du Gott ergebne Seele
14 Aria (T): Adam muss in uns verwesen
15 Recitativo (S): Weil denn das Haupt sein Glied
16 Aria (S): Letzte Stunde, brich herein
17 Choral: So fahr ich hin zu Jesu Christ
18 Erfreuet euch, ihr Herzen BWV 66. Chorus: Erfreuet euch
19 Recitativo (B): Es bricht das Grab und damit unsere Not
20 Aria (B): Lasset dem Hochsten ein Danklied erschallen
21 Recitativo а 2 (A, T): Bei Jesu Leben freudig sein
22 Aria. Duetto (A, T): Ich furchte zwar des Grabes Finsternissen
23 Choral: Alleluja
CD8:
01 Wachet auf, ruft uns die Stimme BWV 140. Choral: Wachet auf
02 Recitative (T): Er kommt, er kommt
03 Aria. Duet (S, B): Wenn kommst du, mein Heil?
04 Chorale (T): Zion hort die Wachter singen
05 Recitative (B): So geh herein zu mir
06 Aria. Duet (S, B): Mein Freund ist mein/Und ich bin dein
07 Chorale: Gloria sei dir gesungen
08 Nun komm, der Heiden Heiland BWV 61. Ouverture (Chorus): Nun komm
09 Recitative (T): Der Heiland ist gekommen
10 Aria (T): Komm, Jesu, komm zu deiner Kirche
11 Recitative (B): Siehe, ich stehe vor der Tur
12 Aria (S): Offne dich, mein ganzes Herze
13 Chorus: Amen! Komm, du schone Freudenkrone
14 Schwingt freudig euch empor BWV 36. Chorus: Schwingt freudig
15 Chorale (S, A): Nun komm, der Heiden Heiland
16 Aria (T): Die Liebe zieht mit sanften Schritten
17 Chorale: Zwingt die Saiten in Cythara
18 Aria (B): Willkommen, werter Schatz!
19 Chorale (T): Der du bist dem Vater gleich
20 Aria (S): Auch mit gedampften, schwachen Stimmen
21 Chorale: Lob sei Gott, dem Vater ton
CD9:
01 Unser Mund sei voll Lachens BWV 110. Chorus: Unser Mund
02 Aria (T): Ihr Gedanken und ihr Sinnen
03 Recitative (B): Dir, Herr, ist niemand gleich
04 Aria (A): Ach Herr, was ist ein Menschenkind
05 Duet (S, T): Ehre sei Gott in der Hohe
06 Aria (B): Wacht auf, ihr Adern und ihr Glieder
07 Chorale: Allelujal Gelobt sei Gott
08 Dazu ist erschienen der Sohn Gottes BWV 40. Chorus: Dazu ist erschienen
09 Recitative (T): Das Wort ward Fleisch
10 Chorale: Die Sund macht Leid
11 Aria (B): Hollische Schlange, wird dir nicht bange
12 Recitative (A): Die Schlange, so im Paradies
13 Chorale: Schuttle deinen Kopf und sprich
14 Aria (T): Christenkinder, freuet euch
15 Chorale: Jesu, nimm dich deiner Glieder
16 Gott ist mein Konig BWV 71. Tutti: Gott ist mein Konig
17 Aria (T) and Chorale (S): Ich bin nun achtzig Jahr
18 Chorus: Dein Alter sei wie deine Jugend
19 Arioso (B): Tag und Nacht ist dein
20 Aria (A): Durch machtige Kraft
21 Chorus: Du wollest dem Feinde nicht geben
22 Titti: Das neue Regiment
CD10:
01 Gott, der Herr, ist Sonn und Schild BWV 79. Chorus: Gott, der Herr
02 Aria (A): Gott ist unsre Sonn und Schild!
03 Chorale: Nun danket alle Gott
04 Recitative (B): Gottlob, wir wissen den rechten Weg
05 Aria (S, B): Gott, ach Gott, verlass die Deinen nimmermehr!
06 Chorale: Erhalt uns in der Wahrheit
07 Ein feste Burg ist unser Gott BWV 80. Chorale: Ein feste Burg ist unser Gott
08 Aria (B): Alles, was von Gott geboren
09 Recitative (B): Erwage doch, Kind Gottes
10 Aria (S): Komm in mein Herzenshaus
11 Chorale: Und wenn die Welt voll Teufel war
12 Recitative (T): So stehe denn
13 Duet (A, T): Wie selig sind doch die, die Gott im Munde tragen
14 Chorale: Das Wort sie sollen lassen stahn
15 Nun danket alle Gott BWV 192. Chorus. Verse I: Nun danket alle Gott
16 Verse II (S, B): Der ewig reiche Gott
17 Verse III (Choir): Lob, Ehr und Preis sei Gott
18 Nun ist das Heil und die Kraft BWV 50. Chorus: Nun ist das Heil
CD11:
01 Lass Furstin, lass noch einen Strahl BWV 198. Chorus: Lass Furstin!
02 Recitativo (S): Dein Sachsen, dein besturztes Meissen
03 Aria (S): Verstummt! verstummt, ihr holden Saiten
04 Recitativo (A): Der Glocken bebendes Geton
05 Aria (A): Wie starb die Heldin so vergnugt!
06 Recitativo (T): Ihr Leben liess die Kunst zu sterben
07 Chorus: An dir, du Furbild grosser Frauen
08 Aria (T): Der Ewigkeit saphirnes Haus
09 Recitativo (B): Was Wunder ists?
10 Chorus: Doch Konigin!


Exact Audio Copy V0.99 prebeta 5 from 4. May 2009

EAC extraction logfile from 9. January 2011, 23:31

Hans-Joachim Rotzsch - Thomanerchor Leipzig / Bach - Magnificat D-Dur, BWV 243; Kantate BWV 10

Used drive : PIONEER DVD-RW DVR-218L Adapter: 1 ID: 0

Read mode : Secure
Utilize accurate stream : Yes
Defeat audio cache : Yes
Make use of C2 pointers : No

Read offset correction : 6
Overread into Lead-In and Lead-Out : No
Fill up missing offset samples with silence : Yes
Delete leading and trailing silent blocks : No
Null samples used in CRC calculations : Yes
Used interface : Native Win32 interface for Win NT & 2000

Used output format : User Defined Encoder
Selected bitrate : 768 kBit/s
Quality : High
Add ID3 tag : No
Command line compressor : C:\Program Files\Exact Audio Copy\FLAC\FLAC.EXE
Additional command line options : -T "DATE=%y" -T "GENRE=%m" -8 -V %s


TOC of the extracted CD

Track | Start | Length | Start sector | End sector
––––––––––––––––––––––––––––-
1 | 0:00.00 | 3:20.70 | 0 | 15069
2 | 3:20.70 | 2:33.22 | 15070 | 26566
3 | 5:54.17 | 2:56.23 | 26567 | 39789
4 | 8:50.40 | 1:33.50 | 39790 | 46814
5 | 10:24.15 | 1:58.00 | 46815 | 55664
6 | 12:22.15 | 4:02.12 | 55665 | 73826
7 | 16:24.27 | 2:05.58 | 73827 | 83259
8 | 18:30.10 | 2:07.50 | 83260 | 92834
9 | 20:37.60 | 2:58.25 | 92835 | 106209
10 | 23:36.10 | 2:00.47 | 106210 | 115256
11 | 25:36.57 | 1:46.33 | 115257 | 123239
12 | 27:23.15 | 2:13.42 | 123240 | 133256
13 | 29:36.57 | 4:01.08 | 133257 | 151339
14 | 33:37.65 | 7:11.60 | 151340 | 183724
15 | 40:49.50 | 1:23.02 | 183725 | 189951
16 | 42:12.52 | 3:00.05 | 189952 | 203456
17 | 45:12.57 | 2:29.73 | 203457 | 214704
18 | 47:42.55 | 2:21.05 | 214705 | 225284
19 | 50:03.60 | 1:08.67 | 225285 | 230451


Range status and errors

Selected range

Filename C:\Bach - Magnificat D-Dur, BWV 243; Kantate BWV 10.wav

Peak level 99.9 %
Range quality 100.0 %
Test CRC 3AC01C11
Copy CRC 3AC01C11
Copy OK

No errors occurred


AccurateRip summary

Track 1 accurately ripped (confidence 3) [39AA5298]
Track 2 accurately ripped (confidence 3) [FEAFE700]
Track 3 accurately ripped (confidence 3) [071766E8]
Track 4 accurately ripped (confidence 3) [ADFEB37D]
Track 5 accurately ripped (confidence 3) [786291C2]
Track 6 accurately ripped (confidence 3) [428FCE09]
Track 7 accurately ripped (confidence 3) [73230E06]
Track 8 accurately ripped (confidence 3) [887A3534]
Track 9 accurately ripped (confidence 3) [956F1BE8]
Track 10 accurately ripped (confidence 3) [94714F57]
Track 11 accurately ripped (confidence 3) [C57C8F8B]
Track 12 accurately ripped (confidence 3) [7C5FEBC9]
Track 13 accurately ripped (confidence 3) [9E72A562]
Track 14 accurately ripped (confidence 3) [0F5779AF]
Track 15 accurately ripped (confidence 3) [DE9032E9]
Track 16 accurately ripped (confidence 3) [3892E4F3]
Track 17 accurately ripped (confidence 3) [939FB1F5]
Track 18 accurately ripped (confidence 3) [CC7734CA]
Track 19 accurately ripped (confidence 3) [98BD6AAA]

All tracks accurately ripped

End of status report


Exact Audio Copy V0.99 prebeta 5 from 4. May 2009

EAC extraction logfile from 12. January 2011, 0:26

Hans-Joachim Rotzsch - Thomanerchor Leipzig / Bach - Kantaten BWV 172, 68, 1

Used drive : PIONEER DVD-RW DVR-218L Adapter: 1 ID: 0

Read mode : Secure
Utilize accurate stream : Yes
Defeat audio cache : Yes
Make use of C2 pointers : No

Read offset correction : 6
Overread into Lead-In and Lead-Out : No
Fill up missing offset samples with silence : Yes
Delete leading and trailing silent blocks : No
Null samples used in CRC calculations : Yes
Used interface : Native Win32 interface for Win NT & 2000

Used output format : User Defined Encoder
Selected bitrate : 768 kBit/s
Quality : High
Add ID3 tag : No
Command line compressor : C:\Program Files\Exact Audio Copy\FLAC\FLAC.EXE
Additional command line options : -T "DATE=%y" -T "GENRE=%m" -8 -V %s


TOC of the extracted CD

Track | Start | Length | Start sector | End sector
––––––––––––––––––––––––––––-
1 | 0:00.00 | 4:19.00 | 0 | 19424
2 | 4:19.00 | 0:51.07 | 19425 | 23256
3 | 5:10.07 | 2:14.13 | 23257 | 33319
4 | 7:24.20 | 4:42.27 | 33320 | 54496
5 | 12:06.47 | 4:11.15 | 54497 | 73336
6 | 16:17.62 | 1:23.55 | 73337 | 79616
7 | 17:41.42 | 4:24.23 | 79617 | 99439
8 | 22:05.65 | 4:36.10 | 99440 | 120149
9 | 26:42.00 | 4:00.65 | 120150 | 138214
10 | 30:42.65 | 0:45.42 | 138215 | 141631
11 | 31:28.32 | 3:54.25 | 141632 | 159206
12 | 35:22.57 | 2:57.73 | 159207 | 172554
13 | 38:20.55 | 7:06.65 | 172555 | 204569
14 | 45:27.45 | 0:57.57 | 204570 | 208901
15 | 46:25.27 | 4:45.15 | 208902 | 230291
16 | 51:10.42 | 1:03.38 | 230292 | 235054
17 | 52:14.05 | 6:15.00 | 235055 | 263179
18 | 58:29.05 | 1:24.62 | 263180 | 269541


Range status and errors

Selected range

Filename C:\Bach - Kantaten BWV 172, 68, 1.wav

Peak level 98.8 %
Range quality 100.0 %
Test CRC 0110BC03
Copy CRC 0110BC03
Copy OK

No errors occurred


AccurateRip summary

Track 1 accurately ripped (confidence 2) [50665439]
Track 2 accurately ripped (confidence 2) [84966752]
Track 3 accurately ripped (confidence 2) [9FA2EEEA]
Track 4 accurately ripped (confidence 2) [6DD9F9BE]
Track 5 accurately ripped (confidence 2) [5A0B65C8]
Track 6 accurately ripped (confidence 2) [918BA737]
Track 7 accurately ripped (confidence 2) [977C0535]
Track 8 accurately ripped (confidence 2) [1059FE4C]
Track 9 accurately ripped (confidence 2) [96E65CEE]
Track 10 accurately ripped (confidence 2) [286D6E73]
Track 11 accurately ripped (confidence 2) [C849EA7B]
Track 12 accurately ripped (confidence 2) [112EEE08]
Track 13 accurately ripped (confidence 2) [B4464495]
Track 14 accurately ripped (confidence 2) [41EC30AE]
Track 15 accurately ripped (confidence 2) [BF78F76F]
Track 16 accurately ripped (confidence 2) [D26D8267]
Track 17 accurately ripped (confidence 2) [D503F2CF]
Track 18 accurately ripped (confidence 2) [D47369F9]

All tracks accurately ripped

End of status report


Exact Audio Copy V0.99 prebeta 5 from 4. May 2009

EAC extraction logfile from 12. January 2011, 11:55

Hans-Joachim Rotzsch - Thomanerchor Leipzig / Bach - Kantaten BWV 4, 134

Used drive : PIONEER DVD-RW DVR-218L Adapter: 1 ID: 0

Read mode : Secure
Utilize accurate stream : Yes
Defeat audio cache : Yes
Make use of C2 pointers : No

Read offset correction : 6
Overread into Lead-In and Lead-Out : No
Fill up missing offset samples with silence : Yes
Delete leading and trailing silent blocks : No
Null samples used in CRC calculations : Yes
Used interface : Native Win32 interface for Win NT & 2000

Used output format : User Defined Encoder
Selected bitrate : 768 kBit/s
Quality : High
Add ID3 tag : No
Command line compressor : C:\Program Files\Exact Audio Copy\FLAC\FLAC.EXE
Additional command line options : -T "DATE=%y" -T "GENRE=%m" -8 -V %s


TOC of the extracted CD

Track | Start | Length | Start sector | End sector
––––––––––––––––––––––––––––-
1 | 0:00.00 | 1:09.15 | 0 | 5189
2 | 1:09.15 | 4:24.67 | 5190 | 25056
3 | 5:34.07 | 3:12.03 | 25057 | 39459
4 | 8:46.10 | 2:02.72 | 39460 | 48681
5 | 10:49.07 | 2:29.50 | 48682 | 59906
6 | 13:18.57 | 3:20.05 | 59907 | 74911
7 | 16:38.62 | 2:11.33 | 74912 | 84769
8 | 18:50.20 | 1:14.62 | 84770 | 90381
9 | 20:05.07 | 0:47.43 | 90382 | 93949
10 | 20:52.50 | 6:52.15 | 93950 | 124864
11 | 27:44.65 | 2:54.45 | 124865 | 137959
12 | 30:39.35 | 9:43.72 | 137960 | 181756
13 | 40:23.32 | 2:09.58 | 181757 | 191489
14 | 42:33.15 | 8:41.07 | 191490 | 230571


Range status and errors

Selected range

Filename C:\Bach - Kantaten BWV 4, 134.wav

Peak level 99.9 %
Range quality 100.0 %
Test CRC B7BA4F5E
Copy CRC B7BA4F5E
Copy OK

No errors occurred


AccurateRip summary

Track 1 accurately ripped (confidence 2) [A3346644]
Track 2 accurately ripped (confidence 2) [4EF6C585]
Track 3 accurately ripped (confidence 2) [6BF3F1AF]
Track 4 accurately ripped (confidence 2) [9F0242D7]
Track 5 accurately ripped (confidence 2) [1EC5F598]
Track 6 accurately ripped (confidence 2) [6E5B4FFA]
Track 7 accurately ripped (confidence 2) [6D75FA38]
Track 8 accurately ripped (confidence 2) [E377AA20]
Track 9 accurately ripped (confidence 2) [9C7ACD22]
Track 10 accurately ripped (confidence 2) [8E1EACC7]
Track 11 accurately ripped (confidence 2) [B2453863]
Track 12 accurately ripped (confidence 2) [241E6E46]
Track 13 accurately ripped (confidence 2) [3B195131]
Track 14 accurately ripped (confidence 2) [72F0CA10]

All tracks accurately ripped

End of status report


Exact Audio Copy V0.99 prebeta 5 from 4. May 2009

EAC extraction logfile from 12. January 2011, 15:20

Hans-Joachim Rotzsch - Thomanerchor Leipzig / Bach - Kantaten BWV 137, 21

Used drive : PIONEER DVD-RW DVR-218L Adapter: 1 ID: 0

Read mode : Secure
Utilize accurate stream : Yes
Defeat audio cache : Yes
Make use of C2 pointers : No

Read offset correction : 6
Overread into Lead-In and Lead-Out : No
Fill up missing offset samples with silence : Yes
Delete leading and trailing silent blocks : No
Null samples used in CRC calculations : Yes
Used interface : Native Win32 interface for Win NT & 2000

Used output format : User Defined Encoder
Selected bitrate : 768 kBit/s
Quality : High
Add ID3 tag : No
Command line compressor : C:\Program Files\Exact Audio Copy\FLAC\FLAC.EXE
Additional command line options : -T "DATE=%y" -T "GENRE=%m" -8 -V %s


TOC of the extracted CD

Track | Start | Length | Start sector | End sector
––––––––––––––––––––––––––––-
1 | 0:00.00 | 3:33.45 | 0 | 16019
2 | 3:33.45 | 4:01.60 | 16020 | 34154
3 | 7:35.30 | 3:56.42 | 34155 | 51896
4 | 11:31.72 | 2:43.68 | 51897 | 64189
5 | 14:15.65 | 0:59.12 | 64190 | 68626
6 | 15:15.02 | 3:01.35 | 68627 | 82236
7 | 18:16.37 | 3:51.55 | 82237 | 99616
8 | 22:08.17 | 4:20.48 | 99617 | 119164
9 | 26:28.65 | 1:34.05 | 119165 | 126219
10 | 28:02.70 | 4:56.27 | 126220 | 148446
11 | 32:59.22 | 3:33.45 | 148447 | 164466
12 | 36:32.67 | 1:37.10 | 164467 | 171751
13 | 38:10.02 | 5:03.08 | 171752 | 194484
14 | 43:13.10 | 5:12.25 | 194485 | 217909
15 | 48:25.35 | 2:56.17 | 217910 | 231126
16 | 51:21.52 | 3:34.68 | 231127 | 247244


Range status and errors

Selected range

Filename C:\Bach - Kantaten BWV 137, 21.wav

Peak level 98.0 %
Range quality 100.0 %
Test CRC 97812B66
Copy CRC 97812B66
Copy OK

No errors occurred


AccurateRip summary

Track 1 accurately ripped (confidence 4) [9B8840B6]
Track 2 accurately ripped (confidence 4) [7CA678F6]
Track 3 accurately ripped (confidence 4) [6CDA21C9]
Track 4 accurately ripped (confidence 4) [1631DB45]
Track 5 accurately ripped (confidence 4) [2DF6A868]
Track 6 accurately ripped (confidence 4) [1BC45DB5]
Track 7 accurately ripped (confidence 4) [EF142A06]
Track 8 accurately ripped (confidence 4) [F43B3ADB]
Track 9 accurately ripped (confidence 4) [08810D31]
Track 10 accurately ripped (confidence 4) [7804689F]
Track 11 accurately ripped (confidence 4) [BB0F5854]
Track 12 accurately ripped (confidence 4) [60E50CB5]
Track 13 accurately ripped (confidence 4) [358A1F56]
Track 14 accurately ripped (confidence 4) [7856D49F]
Track 15 accurately ripped (confidence 4) [B71B33DE]
Track 16 accurately ripped (confidence 4) [2F08C13C]

All tracks accurately ripped

End of status report


Exact Audio Copy V0.99 prebeta 5 from 4. May 2009

EAC extraction logfile from 12. January 2011, 19:36

Hans-Joachim Rotzsch - Gewandhausorchester Leipzig,Thomanerchor Leipzig / Bach - Kantaten BWV 173a, 173, 26

Used drive : PIONEER DVD-RW DVR-218L Adapter: 1 ID: 0

Read mode : Secure
Utilize accurate stream : Yes
Defeat audio cache : Yes
Make use of C2 pointers : No

Read offset correction : 6
Overread into Lead-In and Lead-Out : No
Fill up missing offset samples with silence : Yes
Delete leading and trailing silent blocks : No
Null samples used in CRC calculations : Yes
Used interface : Native Win32 interface for Win NT & 2000

Used output format : User Defined Encoder
Selected bitrate : 768 kBit/s
Quality : High
Add ID3 tag : No
Command line compressor : C:\Program Files\Exact Audio Copy\FLAC\FLAC.EXE
Additional command line options : -T "DATE=%y" -T "GENRE=%m" -8 -V %s


TOC of the extracted CD

Track | Start | Length | Start sector | End sector
––––––––––––––––––––––––––––-
1 | 0:00.00 | 0:43.50 | 0 | 3274
2 | 0:43.50 | 4:41.55 | 3275 | 24404
3 | 5:25.30 | 2:01.67 | 24405 | 33546
4 | 7:27.22 | 4:19.05 | 33547 | 52976
5 | 11:46.27 | 1:17.20 | 52977 | 58771
6 | 13:03.47 | 4:15.43 | 58772 | 77939
7 | 17:19.15 | 3:13.10 | 77940 | 92424
8 | 20:32.25 | 3:05.02 | 92425 | 106301
9 | 23:37.27 | 0:50.45 | 106302 | 110096
10 | 24:27.72 | 4:22.00 | 110097 | 129746
11 | 28:49.72 | 2:09.30 | 129747 | 139451
12 | 30:59.27 | 4:28.25 | 139452 | 159576
13 | 35:27.52 | 1:30.68 | 159577 | 166394
14 | 36:58.45 | 3:06.15 | 166395 | 180359
15 | 40:04.60 | 3:09.45 | 180360 | 194579
16 | 43:14.30 | 6:51.50 | 194580 | 225454
17 | 50:06.05 | 0:56.67 | 225455 | 229721
18 | 51:02.72 | 4:25.05 | 229722 | 249601
19 | 55:28.02 | 0:55.23 | 249602 | 253749
20 | 56:23.25 | 0:45.50 | 253750 | 257174


Range status and errors

Selected range

Filename C:\Bach - Kantaten BWV 173a, 173, 26.wav

Peak level 98.3 %
Range quality 100.0 %
Test CRC A911F757
Copy CRC A911F757
Copy OK

No errors occurred


AccurateRip summary

Track 1 accurately ripped (confidence 2) [C1B7DEFF]
Track 2 accurately ripped (confidence 2) [24182F94]
Track 3 accurately ripped (confidence 2) [761B4FA0]
Track 4 accurately ripped (confidence 2) [980BA3AD]
Track 5 accurately ripped (confidence 2) [CE57C856]
Track 6 accurately ripped (confidence 2) [F95CF42F]
Track 7 accurately ripped (confidence 2) [F7B205B7]
Track 8 accurately ripped (confidence 2) [CB821F91]
Track 9 accurately ripped (confidence 2) [84C4AF60]
Track 10 accurately ripped (confidence 2) [6733F06E]
Track 11 accurately ripped (confidence 2) [F1BECF35]
Track 12 accurately ripped (confidence 2) [5B1CFDF3]
Track 13 accurately ripped (confidence 2) [CB9A4FF4]
Track 14 accurately ripped (confidence 2) [B40645ED]
Track 15 accurately ripped (confidence 2) [99461BD6]
Track 16 accurately ripped (confidence 2) [669D26B3]
Track 17 accurately ripped (confidence 2) [201ABED2]
Track 18 accurately ripped (confidence 2) [B81D1DD2]
Track 19 accurately ripped (confidence 2) [ECEAB60C]
Track 20 accurately ripped (confidence 2) [96E9B59E]

All tracks accurately ripped

End of status report


Exact Audio Copy V0.99 prebeta 5 from 4. May 2009

EAC extraction logfile from 12. January 2011, 21:02

Hans-Joachim Rotzsch - Gewandhausorchester Leipzig,Thomanerchor Leipzig / Bach - Kantaten BWV 29, 119

Used drive : PIONEER DVD-RW DVR-218L Adapter: 1 ID: 0

Read mode : Secure
Utilize accurate stream : Yes
Defeat audio cache : Yes
Make use of C2 pointers : No

Read offset correction : 6
Overread into Lead-In and Lead-Out : No
Fill up missing offset samples with silence : Yes
Delete leading and trailing silent blocks : No
Null samples used in CRC calculations : Yes
Used interface : Native Win32 interface for Win NT & 2000

Used output format : User Defined Encoder
Selected bitrate : 768 kBit/s
Quality : High
Add ID3 tag : No
Command line compressor : C:\Program Files\Exact Audio Copy\FLAC\FLAC.EXE
Additional command line options : -T "DATE=%y" -T "GENRE=%m" -8 -V %s


TOC of the extracted CD

Track | Start | Length | Start sector | End sector
––––––––––––––––––––––––––––-
1 | 0:00.00 | 4:16.57 | 0 | 19256
2 | 4:16.57 | 2:48.55 | 19257 | 31911
3 | 7:05.37 | 6:27.60 | 31912 | 60996
4 | 13:33.22 | 1:15.20 | 60997 | 66641
5 | 14:48.42 | 5:52.30 | 66642 | 93071
6 | 20:40.72 | 0:35.23 | 93072 | 95719
7 | 21:16.20 | 2:05.12 | 95720 | 105106
8 | 23:21.32 | 2:06.10 | 105107 | 114566
9 | 25:27.42 | 6:27.03 | 114567 | 143594
10 | 31:54.45 | 1:35.37 | 143595 | 150756
11 | 33:30.07 | 4:25.27 | 150757 | 170658
12 | 37:55.34 | 2:09.28 | 170659 | 180361
13 | 40:04.62 | 3:49.08 | 180362 | 197544
14 | 43:53.70 | 0:55.65 | 197545 | 201734
15 | 44:49.60 | 6:43.07 | 201735 | 231966
16 | 51:32.67 | 0:48.53 | 231967 | 235619
17 | 52:21.45 | 1:00.32 | 235620 | 240151


Range status and errors

Selected range

Filename C:\Bach - Kantaten BWV 29, 119.wav

Peak level 98.4 %
Range quality 100.0 %
Test CRC 02035B49
Copy CRC 02035B49
Copy OK

No errors occurred


AccurateRip summary

Track 1 accurately ripped (confidence 2) [DBA692CB]
Track 2 accurately ripped (confidence 2) [B38FC053]
Track 3 accurately ripped (confidence 2) [48236128]
Track 4 accurately ripped (confidence 2) [1767A6D4]
Track 5 accurately ripped (confidence 2) [44377ED6]
Track 6 accurately ripped (confidence 2) [871E37F9]
Track 7 accurately ripped (confidence 2) [95FECD4D]
Track 8 accurately ripped (confidence 2) [F144D766]
Track 9 accurately ripped (confidence 2) [36F3FE8B]
Track 10 accurately ripped (confidence 2) [714AACF5]
Track 11 accurately ripped (confidence 2) [F2043368]
Track 12 accurately ripped (confidence 2) [6E64FF4B]
Track 13 accurately ripped (confidence 2) [18F06E7D]
Track 14 accurately ripped (confidence 2) [7531B4AD]
Track 15 accurately ripped (confidence 2) [E76C7A7E]
Track 16 accurately ripped (confidence 2) [70BF5B92]
Track 17 accurately ripped (confidence 2) [F81105A5]

All tracks accurately ripped

End of status report


Exact Audio Copy V0.99 prebeta 5 from 4. May 2009

EAC extraction logfile from 13. January 2011, 0:13

Hans-Joachim Rotzsch - Gewandhausorchester Leipzig,Thomanerchor Leipzig / Bach - Kantaten BWV 106, 31, 66

Used drive : PIONEER DVD-RW DVR-218L Adapter: 1 ID: 0

Read mode : Secure
Utilize accurate stream : Yes
Defeat audio cache : Yes
Make use of C2 pointers : No

Read offset correction : 6
Overread into Lead-In and Lead-Out : No
Fill up missing offset samples with silence : Yes
Delete leading and trailing silent blocks : No
Null samples used in CRC calculations : Yes
Used interface : Native Win32 interface for Win NT & 2000

Used output format : User Defined Encoder
Selected bitrate : 768 kBit/s
Quality : High
Add ID3 tag : No
Command line compressor : C:\Program Files\Exact Audio Copy\FLAC\FLAC.EXE
Additional command line options : -T "DATE=%y" -T "GENRE=%m" -8 -V %s


TOC of the extracted CD

Track | Start | Length | Start sector | End sector
––––––––––––––––––––––––––––-
1 | 0:00.00 | 2:32.05 | 0 | 11404
2 | 2:32.05 | 2:11.60 | 11405 | 21289
3 | 4:43.65 | 2:29.42 | 21290 | 32506
4 | 7:13.32 | 1:25.48 | 32507 | 38929
5 | 8:39.05 | 3:43.17 | 38930 | 55671
6 | 12:22.22 | 2:40.13 | 55672 | 67684
7 | 15:02.35 | 4:31.32 | 67685 | 88041
8 | 19:33.67 | 3:32.00 | 88042 | 103941
9 | 23:05.67 | 2:39.65 | 103942 | 115931
10 | 25:45.57 | 4:00.35 | 115932 | 133966
11 | 29:46.17 | 2:17.38 | 133967 | 144279
12 | 32:03.55 | 2:58.00 | 144280 | 157629
13 | 35:01.55 | 1:16.15 | 157630 | 163344
14 | 36:17.70 | 2:26.25 | 163345 | 174319
15 | 38:44.20 | 0:59.67 | 174320 | 178811
16 | 39:44.12 | 4:53.63 | 178812 | 200849
17 | 44:38.00 | 1:18.05 | 200850 | 206704
18 | 45:56.05 | 10:06.40 | 206705 | 252194
19 | 56:02.45 | 0:37.57 | 252195 | 255026
20 | 56:40.27 | 7:16.40 | 255027 | 287766
21 | 63:56.67 | 4:18.15 | 287767 | 307131
22 | 68:15.07 | 8:31.28 | 307132 | 345484
23 | 76:46.35 | 0:49.05 | 345485 | 349164


Range status and errors

Selected range

Filename C:\Bach - Kantaten BWV 106, 31, 66.wav

Peak level 98.0 %
Range quality 99.9 %
Test CRC 9D4F239E
Copy CRC 9D4F239E
Copy OK

No errors occurred


AccurateRip summary

Track 1 accurately ripped (confidence 2) [197518E3]
Track 2 accurately ripped (confidence 2) [A1AAC830]
Track 3 accurately ripped (confidence 2) [3A67AA1F]
Track 4 accurately ripped (confidence 2) [3213851E]
Track 5 accurately ripped (confidence 2) [CE6EEEC9]
Track 6 accurately ripped (confidence 2) [0783DEEE]
Track 7 accurately ripped (confidence 2) [6A6CF945]
Track 8 accurately ripped (confidence 2) [FF9572C6]
Track 9 accurately ripped (confidence 2) [C9696E5E]
Track 10 accurately ripped (confidence 2) [CA9A5123]
Track 11 accurately ripped (confidence 2) [CDA656BA]
Track 12 accurately ripped (confidence 2) [11311D38]
Track 13 accurately ripped (confidence 2) [E93B8644]
Track 14 accurately ripped (confidence 2) [7693B397]
Track 15 accurately ripped (confidence 2) [CAD74F53]
Track 16 accurately ripped (confidence 2) [1A11175A]
Track 17 accurately ripped (confidence 2) [26AAB9CF]
Track 18 accurately ripped (confidence 2) [7CC43E6C]
Track 19 accurately ripped (confidence 2) [162072BA]
Track 20 accurately ripped (confidence 2) [F11FF443]
Track 21 accurately ripped (confidence 2) [CAA715C2]
Track 22 accurately ripped (confidence 2) [FE2550C2]
Track 23 accurately ripped (confidence 2) [A22BA2F1]

All tracks accurately ripped

End of status report

Exact Audio Copy V0.99 prebeta 5 from 4. May 2009

EAC extraction logfile from 13. January 2011, 22:01

Hans-Joachim Rotzsch - Neus Bachisches Collegium Musicum,Thomanerchor Leipzig / Bach - Kantaten BWV 140, 61, 36

Used drive : PIONEER DVD-RW DVR-218L Adapter: 1 ID: 0

Read mode : Secure
Utilize accurate stream : Yes
Defeat audio cache : Yes
Make use of C2 pointers : No

Read offset correction : 6
Overread into Lead-In and Lead-Out : No
Fill up missing offset samples with silence : Yes
Delete leading and trailing silent blocks : No
Null samples used in CRC calculations : Yes
Used interface : Native Win32 interface for Win NT & 2000

Used output format : User Defined Encoder
Selected bitrate : 768 kBit/s
Quality : High
Add ID3 tag : No
Command line compressor : C:\Program Files\Exact Audio Copy\FLAC\FLAC.EXE
Additional command line options : -T "DATE=%y" -T "GENRE=%m" -8 -V %s


TOC of the extracted CD

Track | Start | Length | Start sector | End sector
––––––––––––––––––––––––––––-
1 | 0:00.00 | 7:27.32 | 0 | 33556
2 | 7:27.32 | 0:53.50 | 33557 | 37581
3 | 8:21.07 | 6:08.00 | 37582 | 65181
4 | 14:29.07 | 4:03.63 | 65182 | 83469
5 | 18:32.70 | 1:33.10 | 83470 | 90454
6 | 20:06.05 | 6:28.35 | 90455 | 119589
7 | 26:34.40 | 1:45.37 | 119590 | 127501
8 | 28:20.02 | 3:13.33 | 127502 | 142009
9 | 31:33.35 | 1:42.40 | 142010 | 149699
10 | 33:16.00 | 4:10.17 | 149700 | 168466
11 | 37:26.17 | 1:04.50 | 168467 | 173316
12 | 38:30.67 | 4:22.38 | 173317 | 193004
13 | 42:53.30 | 1:00.22 | 193005 | 197526
14 | 43:53.52 | 4:00.25 | 197527 | 215551
15 | 47:54.02 | 4:23.53 | 215552 | 235329
16 | 52:17.55 | 5:38.40 | 235330 | 260719
17 | 57:56.20 | 1:20.27 | 260720 | 266746
18 | 59:16.47 | 3:46.65 | 266747 | 283761
19 | 63:03.37 | 2:09.50 | 283762 | 293486
20 | 65:13.12 | 8:40.10 | 293487 | 332496
21 | 73:53.22 | 0:38.18 | 332497 | 335364


Range status and errors

Selected range

Filename C:\Bach - Kantaten BWV 140, 61, 36.wav

Peak level 98.0 %
Range quality 100.0 %
Test CRC 07FD2D34
Copy CRC 07FD2D34
Copy OK

No errors occurred


AccurateRip summary

Track 1 accurately ripped (confidence 2) [FFAC91C4]
Track 2 accurately ripped (confidence 2) [3E3332EE]
Track 3 accurately ripped (confidence 2) [B8225647]
Track 4 accurately ripped (confidence 2) [3562ABDE]
Track 5 accurately ripped (confidence 2) [A85B85D4]
Track 6 accurately ripped (confidence 2) [AAE4700B]
Track 7 accurately ripped (confidence 2) [BEAA4391]
Track 8 accurately ripped (confidence 2) [CB2352A1]
Track 9 accurately ripped (confidence 2) [6921616D]
Track 10 accurately ripped (confidence 2) [D2B3663C]
Track 11 accurately ripped (confidence 2) [8CC0690E]
Track 12 accurately ripped (confidence 2) [5F7B88E6]
Track 13 accurately ripped (confidence 2) [E3039D3A]
Track 14 accurately ripped (confidence 2) [420A8D2B]
Track 15 accurately ripped (confidence 2) [0F0DF9A2]
Track 16 accurately ripped (confidence 2) [66E71711]
Track 17 accurately ripped (confidence 2) [E8AA6513]
Track 18 accurately ripped (confidence 2) [D9F264F7]
Track 19 accurately ripped (confidence 2) [D1F01BF2]
Track 20 accurately ripped (confidence 2) [AA9D3F70]
Track 21 accurately ripped (confidence 2) [9DF74EB4]

All tracks accurately ripped

End of status report


Exact Audio Copy V0.99 prebeta 5 from 4. May 2009

EAC extraction logfile from 14. January 2011, 0:46

Hans-Joachim Rotzsch - Neus Bachisches Collegium Musicum,Thomanerchor Leipzig / Bach - Kantaten BWV 110, 40, 71

Used drive : PIONEER DVD-RW DVR-218L Adapter: 1 ID: 0

Read mode : Secure
Utilize accurate stream : Yes
Defeat audio cache : Yes
Make use of C2 pointers : No

Read offset correction : 6
Overread into Lead-In and Lead-Out : No
Fill up missing offset samples with silence : Yes
Delete leading and trailing silent blocks : No
Null samples used in CRC calculations : Yes
Used interface : Native Win32 interface for Win NT & 2000

Used output format : User Defined Encoder
Selected bitrate : 768 kBit/s
Quality : High
Add ID3 tag : No
Command line compressor : C:\Program Files\Exact Audio Copy\FLAC\FLAC.EXE
Additional command line options : -T "DATE=%y" -T "GENRE=%m" -8 -V %s


TOC of the extracted CD

Track | Start | Length | Start sector | End sector
––––––––––––––––––––––––––––-
1 | 0:00.00 | 6:34.37 | 0 | 29586
2 | 6:34.37 | 3:42.48 | 29587 | 46284
3 | 10:17.10 | 0:32.60 | 46285 | 48744
4 | 10:49.70 | 4:08.20 | 48745 | 67364
5 | 14:58.15 | 3:39.32 | 67365 | 83821
6 | 18:37.47 | 4:19.18 | 83822 | 103264
7 | 22:56.65 | 0:54.37 | 103265 | 107351
8 | 23:51.27 | 4:11.38 | 107352 | 126214
9 | 28:02.65 | 1:26.57 | 126215 | 132721
10 | 29:29.47 | 0:53.58 | 132722 | 136754
11 | 30:23.30 | 2:18.62 | 136755 | 147166
12 | 32:42.17 | 1:07.58 | 147167 | 152249
13 | 33:50.00 | 1:02.20 | 152250 | 156919
14 | 34:52.20 | 4:08.25 | 156920 | 175544
15 | 39:00.45 | 1:22.05 | 175545 | 181699
16 | 40:22.50 | 2:01.55 | 181700 | 190829
17 | 42:24.30 | 3:57.00 | 190830 | 208604
18 | 46:21.30 | 2:02.55 | 208605 | 217809
19 | 48:24.10 | 3:20.10 | 217810 | 232819
20 | 51:44.20 | 1:19.07 | 232820 | 238751
21 | 53:03.27 | 2:53.20 | 238752 | 251746
22 | 55:56.47 | 3:33.00 | 251747 | 267721


Range status and errors

Selected range

Filename C:\Bach - Kantaten BWV 110, 40, 71.wav

Peak level 98.0 %
Range quality 100.0 %
Test CRC 27BA28B0
Copy CRC 27BA28B0
Copy OK

No errors occurred


AccurateRip summary

Track 1 accurately ripped (confidence 3) [72E4C1AD]
Track 2 accurately ripped (confidence 3) [7EF3987F]
Track 3 accurately ripped (confidence 3) [D1825920]
Track 4 accurately ripped (confidence 3) [70AB85D0]
Track 5 accurately ripped (confidence 3) [07F897CC]
Track 6 accurately ripped (confidence 3) [D529B430]
Track 7 accurately ripped (confidence 3) [A005BF52]
Track 8 accurately ripped (confidence 3) [8D55A1CF]
Track 9 accurately ripped (confidence 2) [CF5F5DFA]
Track 10 accurately ripped (confidence 2) [32423C77]
Track 11 accurately ripped (confidence 2) [E878181B]
Track 12 accurately ripped (confidence 2) [D8731B73]
Track 13 accurately ripped (confidence 3) [AE20EBBE]
Track 14 accurately ripped (confidence 2) [4CCFF0E7]
Track 15 accurately ripped (confidence 2) [66801029]
Track 16 accurately ripped (confidence 2) [BDE93446]
Track 17 accurately ripped (confidence 2) [F7F97AF8]
Track 18 accurately ripped (confidence 2) [86F07571]
Track 19 accurately ripped (confidence 2) [FE183745]
Track 20 accurately ripped (confidence 2) [C67CFBE1]
Track 21 accurately ripped (confidence 2) [5FC45DD4]
Track 22 accurately ripped (confidence 2) [2014D82F]

All tracks accurately ripped

End of status report

Exact Audio Copy V0.99 prebeta 5 from 4. May 2009

EAC extraction logfile from 14. January 2011, 12:37

Hans-Joachim Rotzsch - Neus Bachisches Collegium Musicum,Thomanerchor Leipzig / Bach - Kantaten BWV 79, 80, 192, 50

Used drive : PIONEER DVD-RW DVR-218L Adapter: 1 ID: 0

Read mode : Secure
Utilize accurate stream : Yes
Defeat audio cache : Yes
Make use of C2 pointers : No

Read offset correction : 6
Overread into Lead-In and Lead-Out : No
Fill up missing offset samples with silence : Yes
Delete leading and trailing silent blocks : No
Null samples used in CRC calculations : Yes
Used interface : Native Win32 interface for Win NT & 2000

Used output format : User Defined Encoder
Selected bitrate : 768 kBit/s
Quality : High
Add ID3 tag : No
Command line compressor : C:\Program Files\Exact Audio Copy\FLAC\FLAC.EXE
Additional command line options : -T "DATE=%y" -T "GENRE=%m" -8 -V %s


TOC of the extracted CD

Track | Start | Length | Start sector | End sector
––––––––––––––––––––––––––––-
1 | 0:00.00 | 4:45.20 | 0 | 21394
2 | 4:45.20 | 3:42.30 | 21395 | 38074
3 | 8:27.50 | 1:58.30 | 38075 | 46954
4 | 10:26.05 | 1:00.15 | 46955 | 51469
5 | 11:26.20 | 3:29.40 | 51470 | 67184
6 | 14:55.60 | 0:46.35 | 67185 | 70669
7 | 15:42.20 | 5:55.32 | 70670 | 97326
8 | 21:37.52 | 4:01.03 | 97327 | 115404
9 | 25:38.55 | 1:58.25 | 115405 | 124279
10 | 27:37.05 | 3:29.45 | 124280 | 139999
11 | 31:06.50 | 3:50.50 | 140000 | 157299
12 | 34:57.25 | 1:24.62 | 157300 | 163661
13 | 36:22.12 | 4:02.73 | 163662 | 181884
14 | 40:25.10 | 1:19.50 | 181885 | 187859
15 | 41:44.60 | 6:26.07 | 187860 | 216816
16 | 48:10.67 | 3:21.10 | 216817 | 231901
17 | 51:32.02 | 3:16.15 | 231902 | 246616
18 | 54:48.17 | 3:53.65 | 246617 | 264156


Range status and errors

Selected range

Filename C:\Bach - Kantaten BWV 79, 80, 192, 50.wav

Peak level 98.0 %
Range quality 100.0 %
Test CRC 88A90B20
Copy CRC 88A90B20
Copy OK

No errors occurred


AccurateRip summary

Track 1 accurately ripped (confidence 2) [C1A89032]
Track 2 accurately ripped (confidence 2) [02DFDCDD]
Track 3 accurately ripped (confidence 2) [20EA46FC]
Track 4 accurately ripped (confidence 2) [999A61AB]
Track 5 accurately ripped (confidence 2) [DC2247DC]
Track 6 accurately ripped (confidence 2) [FAEF7B52]
Track 7 accurately ripped (confidence 2) [427156E8]
Track 8 accurately ripped (confidence 2) [5DD96FDB]
Track 9 accurately ripped (confidence 2) [E019D439]
Track 10 accurately ripped (confidence 2) [EB8536E4]
Track 11 accurately ripped (confidence 2) [FBC9CEB0]
Track 12 accurately ripped (confidence 2) [F92B77BB]
Track 13 accurately ripped (confidence 2) [2123F2F5]
Track 14 accurately ripped (confidence 2) [B5119B9F]
Track 15 accurately ripped (confidence 2) [A2A6F3E8]
Track 16 accurately ripped (confidence 2) [865AAA22]
Track 17 accurately ripped (confidence 2) [1706D301]
Track 18 accurately ripped (confidence 2) [05249DEC]

All tracks accurately ripped

End of status report


Exact Audio Copy V0.99 prebeta 5 from 4. May 2009

EAC extraction logfile from 16. January 2011, 15:40

Hans-Joachim Rotzsch - Gewandhausorchester Leipzig,Thomanerchor Leipzig / Bach - Kantate BWV 198

Used drive : PIONEER DVD-RW DVR-218L Adapter: 1 ID: 0

Read mode : Secure
Utilize accurate stream : Yes
Defeat audio cache : Yes
Make use of C2 pointers : No

Read offset correction : 6
Overread into Lead-In and Lead-Out : No
Fill up missing offset samples with silence : Yes
Delete leading and trailing silent blocks : No
Null samples used in CRC calculations : Yes
Used interface : Native Win32 interface for Win NT & 2000

Used output format : User Defined Encoder
Selected bitrate : 768 kBit/s
Quality : High
Add ID3 tag : No
Command line compressor : C:\Program Files\Exact Audio Copy\FLAC\FLAC.EXE
Additional command line options : -T "DATE=%y" -T "GENRE=%m" -8 -V %s


TOC of the extracted CD

Track | Start | Length | Start sector | End sector
––––––––––––––––––––––––––––-
1 | 0:00.00 | 7:01.00 | 0 | 31574
2 | 7:01.00 | 1:46.72 | 31575 | 39596
3 | 8:47.72 | 3:58.53 | 39597 | 57499
4 | 12:46.50 | 1:06.60 | 57500 | 62509
5 | 13:53.35 | 7:36.17 | 62510 | 96726
6 | 21:29.52 | 1:19.60 | 96727 | 102711
7 | 22:49.37 | 2:34.25 | 102712 | 114286
8 | 25:23.62 | 4:54.00 | 114287 | 136336
9 | 30:17.62 | 2:36.38 | 136337 | 148074
10 | 32:54.25 | 7:10.30 | 148075 | 180354


Range status and errors

Selected range

Filename C:\Bach - Kantate BWV 198.wav

Peak level 98.3 %
Range quality 100.0 %
Test CRC 7B8726E8
Copy CRC 7B8726E8
Copy OK

No errors occurred


AccurateRip summary

Track 1 accurately ripped (confidence 2) [B49EFEDD]
Track 2 accurately ripped (confidence 2) [C4BEE8D9]
Track 3 accurately ripped (confidence 2) [E8A0096A]
Track 4 accurately ripped (confidence 2) [76A52E89]
Track 5 accurately ripped (confidence 2) [23CD1BF5]
Track 6 accurately ripped (confidence 2) [E10EDA91]
Track 7 accurately ripped (confidence 2) [28AC7A97]
Track 8 accurately ripped (confidence 2) [803399F6]
Track 9 accurately ripped (confidence 2) [A863CE11]
Track 10 accurately ripped (confidence 2) [894F6071]

All tracks accurately ripped

End of status report