Subcategories

Harry Manfredini - Friday the 13th: Parts I-VI (2012) Limited Edition 6 CD Box Set

Posted By: Efgrapha
Harry Manfredini - Friday the 13th: Parts I-VI (2012) Limited Edition 6 CD Box Set

Harry Manfredini - Friday the 13th: Parts I-VI (2012) Limited Edition 6 CD Box Set
EAC | FLAC (Tracks) + cue.+log ~ 1.47 Gb | Mp3, CBR320 kbps ~ 699 Mb | Scans ~ 245 Mb
Genre: Soundtrack, Score | Label: La-La Land Records | # LLLCD 1183 | Time: 05:03:40

La-La Land Records presents FRIDAY THE 13TH: PARTS I-VI: LIMITED EDITION, a 6-CD BOX SET of acclaimed composer Harry Manfredini's (HOUSE I-IV, SWAMP THING, JASON X, DEEPSTAR SIX) original scores to the Paramount Pictures iconic feature films FRIDAY THE 13TH: PARTS I-VI. This comprehensive box set showcases some of the most chilling, daring and skillfully orchestrated film music ever composed for the genre. The remastered scores for the first six FRIDAY THE 13TH films are presented here - featuring more than 5 full hours of music, much of it previously not available in any official format and most of it exclusive to this special release. Also included - a 40-Page booklet, packed with exclusive liner notes by film music writer Brian Satterwhite that drag you deeper into the music of Camp Crystal Lake and the composer who empowered the unstoppable horror that dwells there, Jason Voorhees. Both the booklet and the six CDs are housed in a frightfully attractive hard-cover slipcase. This is a limited edition of 1300 units.

Produced by Harry Manfredini, Neil S. Bulk, and MV Gerhard and mastered by James Nelson, the music from the original six FRIDAY films is finally here for fright fans and film music enthusiasts alike!

Elements once thought lost were located at Paramount Pictures and at the composer's home. Parts 1 -5 were pulled from Paramount's original music stems, assembled by Neil S Bulk and mastered by James Nelson under composer Harry Manfredini's supervision. Part 6 will sound the best of all. Luckily, those original tapes were still in the composer's possession. He and James Nelson remixed and mastered directly from his original source.

For those of you wondering about Parts 3 and 4, we decided the best representation of these scores is to include ALL the music featured in both films, including those cues recycled from Parts 1 and 2. The original music editor did such a great job stitching together all these tiny cues into longer cues that he essentially created an entirely NEW score for these films.

~ Harry Manfredini Website
~ Harry Manfredini at Wiki

Friday the 13th (franchise) at Wiki



Harry Manfredini - Friday the 13th: Parts I-VI (2012) Limited Edition 6 CD Box Set


Tracklist CD1:

01. Overlay of Evil / Main Title (03:32)
02. Banjo Travelin' (01:11)
03. Alice Goes to the Lake (Parts 1 and 2) (00:35)
04. Back Up to Annie Alone (01:33)
05. Mrs. V. Watches (01:08)
06. Ralph in the Pantry (01:29)
07. Don't Smoke in Bed (01:02)
08. Not Tonight, I've Got a Headache (02:51)
09. Brenda in Lights (04:33)
10. The Bed Axe (01:57)
11. Alice Runs to Cabin (05:04)
12. Mrs. V. Comes Clean (05:57)
13. Alice Runs to Light (02:08)
14. The Last Fight / The Chop to the End (01:25)
15. The Boat to the Water - Closing Theme 1 / Jason in the Lake (02:25)
16. Closing Theme (02:41)
17. Sail Away Tiny Sparrow (04:10)


Exact Audio Copy V1.0 beta 3 from 29. August 2011

EAC extraction logfile from 7. March 2012, 19:25

Harry Manfredini / Friday the 13th (Disc 1)

Used drive : PLEXTOR DVDR PX-L890SA Adapter: 1 ID: 1

Read mode : Secure
Utilize accurate stream : Yes
Defeat audio cache : Yes
Make use of C2 pointers : No

Read offset correction : 6
Overread into Lead-In and Lead-Out : No
Fill up missing offset samples with silence : Yes
Delete leading and trailing silent blocks : No
Null samples used in CRC calculations : Yes
Used interface : Installed external ASPI interface
Gap handling : Appended to previous track

Used output format : User Defined Encoder
Selected bitrate : 1024 kBit/s
Quality : High
Add ID3 tag : No
Command line compressor : C:\Program Files\Exact Audio Copy\Flac\flac.exe
Additional command line options : -V -8 -T "Genre=%genre%" -T "Artist=%artist%" -T "Title=%title%" -T "Album=%albumtitle%" -T "Date=%year%" -T "Tracknumber=%tracknr%" -T "Comment=%comment%" %source%


TOC of the extracted CD

Track | Start | Length | Start sector | End sector
––––––––––––––––––––––––––––-
1 | 0:00.00 | 3:32.73 | 0 | 15972
2 | 3:32.73 | 1:11.55 | 15973 | 21352
3 | 4:44.53 | 0:35.60 | 21353 | 24037
4 | 5:20.38 | 1:33.68 | 24038 | 31080
5 | 6:54.31 | 1:08.44 | 31081 | 36224
6 | 8:03.00 | 1:29.65 | 36225 | 42964
7 | 9:32.65 | 1:02.13 | 42965 | 47627
8 | 10:35.03 | 2:51.65 | 47628 | 60517
9 | 13:26.68 | 4:33.18 | 60518 | 81010
10 | 18:00.11 | 1:57.51 | 81011 | 89836
11 | 19:57.62 | 5:04.07 | 89837 | 112643
12 | 25:01.69 | 5:57.25 | 112644 | 139443
13 | 30:59.19 | 2:08.56 | 139444 | 149099
14 | 33:08.00 | 1:25.71 | 149100 | 155545
15 | 34:33.71 | 2:25.74 | 155546 | 166494
16 | 36:59.70 | 2:41.55 | 166495 | 178624
17 | 39:41.50 | 4:10.56 | 178625 | 197430


Track 1

Filename F:\torrent\Friday the 13th_Harry Manfredini_6_CD BOX SET\CD1\01 Overlay of Evil , Main Title.wav

Pre-gap length 0:00:02.00

Peak level 94.1 %
Extraction speed 5.1 X
Track quality 100.0 %
Test CRC 377F8504
Copy CRC 377F8504
Accurately ripped (confidence 2) [C42B3A42] (AR v1)
Copy OK

Track 2

Filename F:\torrent\Friday the 13th_Harry Manfredini_6_CD BOX SET\CD1\02 Banjo Travelin'.wav

Pre-gap length 0:00:02.00

Peak level 71.5 %
Extraction speed 3.1 X
Track quality 99.8 %
Test CRC 29CD7D2B
Copy CRC 29CD7D2B
Accurately ripped (confidence 2) [42B0DCF8] (AR v1)
Copy OK

Track 3

Filename F:\torrent\Friday the 13th_Harry Manfredini_6_CD BOX SET\CD1\03 Alice Goes to the Lake (Parts 1 and 2).wav

Pre-gap length 0:00:02.00

Peak level 41.1 %
Extraction speed 3.1 X
Track quality 100.0 %
Test CRC 4FA94862
Copy CRC 4FA94862
Accurately ripped (confidence 2) [AF340230] (AR v1)
Copy OK

Track 4

Filename F:\torrent\Friday the 13th_Harry Manfredini_6_CD BOX SET\CD1\04 Back Up to Annie Alone.wav

Pre-gap length 0:00:02.00

Peak level 86.5 %
Extraction speed 3.7 X
Track quality 99.8 %
Test CRC AE6134CD
Copy CRC AE6134CD
Accurately ripped (confidence 2) [C5242DD4] (AR v1)
Copy OK

Track 5

Filename F:\torrent\Friday the 13th_Harry Manfredini_6_CD BOX SET\CD1\05 Mrs. V. Watches.wav

Pre-gap length 0:00:02.00

Peak level 89.8 %
Extraction speed 4.4 X
Track quality 100.0 %
Test CRC B5484F96
Copy CRC B5484F96
Accurately ripped (confidence 2) [A8C39809] (AR v1)
Copy OK

Track 6

Filename F:\torrent\Friday the 13th_Harry Manfredini_6_CD BOX SET\CD1\06 Ralph in the Pantry.wav

Pre-gap length 0:00:02.00

Peak level 89.6 %
Extraction speed 5.0 X
Track quality 100.0 %
Test CRC D7070CAE
Copy CRC D7070CAE
Accurately ripped (confidence 2) [2CAA81F4] (AR v1)
Copy OK

Track 7

Filename F:\torrent\Friday the 13th_Harry Manfredini_6_CD BOX SET\CD1\07 Don't Smoke in Bed.wav

Pre-gap length 0:00:02.00

Peak level 94.8 %
Extraction speed 4.4 X
Track quality 100.0 %
Test CRC 90227E46
Copy CRC 90227E46
Accurately ripped (confidence 2) [E742D680] (AR v1)
Copy OK

Track 8

Filename F:\torrent\Friday the 13th_Harry Manfredini_6_CD BOX SET\CD1\08 Not Tonight, I've Got a Headache.wav

Pre-gap length 0:00:02.00

Peak level 90.3 %
Extraction speed 6.2 X
Track quality 100.0 %
Test CRC EB1BB397
Copy CRC EB1BB397
Accurately ripped (confidence 2) [D00C886D] (AR v1)
Copy OK

Track 9

Filename F:\torrent\Friday the 13th_Harry Manfredini_6_CD BOX SET\CD1\09 Brenda in Lights.wav

Pre-gap length 0:00:02.00

Peak level 94.7 %
Extraction speed 6.2 X
Track quality 99.9 %
Test CRC 3BC67E52
Copy CRC 3BC67E52
Accurately ripped (confidence 2) [01E1DD32] (AR v1)
Copy OK

Track 10

Filename F:\torrent\Friday the 13th_Harry Manfredini_6_CD BOX SET\CD1\10 The Bed Axe.wav

Pre-gap length 0:00:02.00

Peak level 76.3 %
Extraction speed 6.3 X
Track quality 100.0 %
Test CRC 1BE228CA
Copy CRC 1BE228CA
Accurately ripped (confidence 2) [13E74799] (AR v1)
Copy OK

Track 11

Filename F:\torrent\Friday the 13th_Harry Manfredini_6_CD BOX SET\CD1\11 Alice Runs to Cabin.wav

Pre-gap length 0:00:02.00

Peak level 98.8 %
Extraction speed 7.0 X
Track quality 99.9 %
Test CRC 28BABEBA
Copy CRC 28BABEBA
Accurately ripped (confidence 2) [18E9C524] (AR v1)
Copy OK

Track 12

Filename F:\torrent\Friday the 13th_Harry Manfredini_6_CD BOX SET\CD1\12 Mrs. V. Comes Clean.wav

Pre-gap length 0:00:02.00

Peak level 86.8 %
Extraction speed 8.4 X
Track quality 100.0 %
Test CRC 40E3FFFE
Copy CRC 40E3FFFE
Accurately ripped (confidence 2) [472C1700] (AR v1)
Copy OK

Track 13

Filename F:\torrent\Friday the 13th_Harry Manfredini_6_CD BOX SET\CD1\13 Alice Runs to Light.wav

Pre-gap length 0:00:02.00

Peak level 92.5 %
Extraction speed 7.5 X
Track quality 100.0 %
Test CRC 3BD605E3
Copy CRC 3BD605E3
Accurately ripped (confidence 2) [91857A51] (AR v1)
Copy OK

Track 14

Filename F:\torrent\Friday the 13th_Harry Manfredini_6_CD BOX SET\CD1\14 The Last Fight , The Chop to the End.wav

Pre-gap length 0:00:02.00

Peak level 84.0 %
Extraction speed 6.9 X
Track quality 100.0 %
Test CRC B25D93F9
Copy CRC B25D93F9
Accurately ripped (confidence 2) [EC69E0E9] (AR v1)
Copy OK

Track 15

Filename F:\torrent\Friday the 13th_Harry Manfredini_6_CD BOX SET\CD1\15 The Boat to the Water - Closing Theme 1 , Jason in the Lake.wav

Pre-gap length 0:00:02.00

Peak level 96.8 %
Extraction speed 8.0 X
Track quality 100.0 %
Test CRC 49D41B57
Copy CRC 49D41B57
Accurately ripped (confidence 2) [00A6C264] (AR v1)
Copy OK

Track 16

Filename F:\torrent\Friday the 13th_Harry Manfredini_6_CD BOX SET\CD1\16 Closing Theme.wav

Pre-gap length 0:00:02.00

Peak level 88.6 %
Extraction speed 8.3 X
Track quality 100.0 %
Test CRC 94A1495A
Copy CRC 94A1495A
Accurately ripped (confidence 2) [9F18A3D8] (AR v1)
Copy OK

Track 17

Filename F:\torrent\Friday the 13th_Harry Manfredini_6_CD BOX SET\CD1\17 Sail Away Tiny Sparrow.wav

Pre-gap length 0:00:05.00

Peak level 85.6 %
Extraction speed 9.2 X
Track quality 100.0 %
Test CRC 5CCE1B7E
Copy CRC 5CCE1B7E
Accurately ripped (confidence 2) [4D574D3B] (AR v1)
Copy OK


All tracks accurately ripped

No errors occurred

End of status report

==== Log checksum 2CF64A549272C1D313F1D8C9EE045AAA764177B5CDA5D7D03DA182D1A702FEF7 ====

foobar2000 1.2 / Dynamic Range Meter 1.1.1
log date: 2013-04-24 12:54:51

––––––––––––––––––––––––––––––––––––––––
Analyzed: Harry Manfredini / Friday the 13th (Disc 1)
––––––––––––––––––––––––––––––––––––––––

DR Peak RMS Duration Track
––––––––––––––––––––––––––––––––––––––––
DR14 -0.53 dB -18.91 dB 3:33 01-Overlay of Evil / Main Title
DR12 -2.91 dB -16.79 dB 1:12 02-Banjo Travelin'
DR11 -7.71 dB -24.69 dB 0:36 03-Alice Goes to the Lake (Parts 1 and 2)
DR14 -1.25 dB -18.84 dB 1:34 04-Back Up to Annie Alone
DR14 -0.93 dB -21.23 dB 1:09 05-Mrs. V. Watches
DR11 -0.95 dB -26.17 dB 1:30 06-Ralph in the Pantry
DR11 -0.46 dB -18.21 dB 1:02 07-Don't Smoke in Bed
DR14 -0.88 dB -21.22 dB 2:52 08-Not Tonight, I've Got a Headache
DR16 -0.47 dB -21.31 dB 4:33 09-Brenda in Lights
DR15 -2.35 dB -22.32 dB 1:58 10-The Bed Axe
DR16 -0.10 dB -20.35 dB 5:04 11-Alice Runs to Cabin
DR15 -1.23 dB -20.31 dB 5:57 12-Mrs. V. Comes Clean
DR15 -0.67 dB -21.00 dB 2:09 13-Alice Runs to Light
DR12 -1.51 dB -16.51 dB 1:26 14-The Last Fight / The Chop to the End
DR12 -0.27 dB -16.63 dB 2:26 15-The Boat to the Water - Closing Theme 1 / Jason in the Lake
DR12 -1.04 dB -17.23 dB 2:42 16-Closing Theme
DR10 -1.35 dB -13.50 dB 4:11 17-Sail Away Tiny Sparrow
––––––––––––––––––––––––––––––––––––––––

Number of tracks: 17
Official DR value: DR13

Samplerate: 44100 Hz
Channels: 2
Bits per sample: 16
Bitrate: 752 kbps
Codec: FLAC
================================================================================




Harry Manfredini - Friday the 13th: Parts I-VI (2012) Limited Edition 6 CD Box Set


Tracklist CD2:

01. Flashback (05:33)
02. Alice Hangs Up (01:58)
03. Keep a Cool Head (AKA Main Title) (02:10)
04. Hand at Tree / Prowler (02:01)
05. Ralph Gets Cursed (01:37)
06. Terry Looks for Muffin (00:52)
07. Jeff and Sandy Are Watched (00:54)
08. The Chase / Sheriff Visits Villa Jason (02:52)
09. Terry in Lake / Dolly In, Scott Out (02:32)
10. Vickie is Watched / Jason at Door (02:31)
11. Vickie Goes Up (00:46)
12. Jason and Paul Meet (01:24)
13. Ragtop and Running Ragged (03:53)
14. Ginny Under the Bed (03:59)
15. Ginny Visits Villa Jason (05:32)
16. Who's at the Door (01:57)
17. Return To Chez Jason / Titles (02:26)


Exact Audio Copy V1.0 beta 3 from 29. August 2011

EAC extraction logfile from 7. March 2012, 16:25

Harry Manfredini / Friday the 13th (Disc 2)

Used drive : PLEXTOR DVDR PX-L890SA Adapter: 1 ID: 1

Read mode : Secure
Utilize accurate stream : Yes
Defeat audio cache : Yes
Make use of C2 pointers : No

Read offset correction : 6
Overread into Lead-In and Lead-Out : No
Fill up missing offset samples with silence : Yes
Delete leading and trailing silent blocks : No
Null samples used in CRC calculations : Yes
Used interface : Installed external ASPI interface
Gap handling : Appended to previous track

Used output format : User Defined Encoder
Selected bitrate : 1024 kBit/s
Quality : High
Add ID3 tag : No
Command line compressor : C:\Program Files\Exact Audio Copy\Flac\flac.exe
Additional command line options : -V -8 -T "Genre=%genre%" -T "Artist=%artist%" -T "Title=%title%" -T "Album=%albumtitle%" -T "Date=%year%" -T "Tracknumber=%tracknr%" -T "Comment=%comment%" %source%


TOC of the extracted CD

Track | Start | Length | Start sector | End sector
––––––––––––––––––––––––––––-
1 | 0:00.00 | 5:33.29 | 0 | 25003
2 | 5:33.29 | 1:58.50 | 25004 | 33903
3 | 7:32.04 | 2:10.52 | 33904 | 43705
4 | 9:42.56 | 2:01.30 | 43706 | 52810
5 | 11:44.11 | 1:37.34 | 52811 | 60119
6 | 13:21.45 | 0:52.71 | 60120 | 64090
7 | 14:14.41 | 0:54.34 | 64091 | 68174
8 | 15:09.00 | 2:52.17 | 68175 | 81091
9 | 18:01.17 | 2:32.01 | 81092 | 92492
10 | 20:33.18 | 2:31.08 | 92493 | 103825
11 | 23:04.26 | 0:46.71 | 103826 | 107346
12 | 23:51.22 | 1:24.07 | 107347 | 113653
13 | 25:15.29 | 3:53.29 | 113654 | 131157
14 | 29:08.58 | 3:59.12 | 131158 | 149094
15 | 33:07.70 | 5:32.14 | 149095 | 174008
16 | 38:40.09 | 1:57.63 | 174009 | 182846
17 | 40:37.72 | 2:26.23 | 182847 | 193819


Track 1

Filename F:\torrent\Friday the 13th_Harry Manfredini_6_CD BOX SET\CD2\01 Flashback.wav

Pre-gap length 0:00:02.00

Peak level 99.8 %
Extraction speed 5.5 X
Track quality 100.0 %
Test CRC FCEE1CE7
Copy CRC FCEE1CE7
Accurately ripped (confidence 2) [6AF9FF93] (AR v1)
Copy OK

Track 2

Filename F:\torrent\Friday the 13th_Harry Manfredini_6_CD BOX SET\CD2\02 Alice Hangs Up.wav

Pre-gap length 0:00:02.00

Peak level 91.3 %
Extraction speed 5.1 X
Track quality 100.0 %
Test CRC 4262400C
Copy CRC 4262400C
Accurately ripped (confidence 2) [8698D64A] (AR v1)
Copy OK

Track 3

Filename F:\torrent\Friday the 13th_Harry Manfredini_6_CD BOX SET\CD2\03 Keep a Cool Head (AKA Main Title).wav

Pre-gap length 0:00:02.00

Peak level 99.4 %
Extraction speed 5.5 X
Track quality 100.0 %
Test CRC 389956DC
Copy CRC 389956DC
Accurately ripped (confidence 2) [F400F53B] (AR v1)
Copy OK

Track 4

Filename F:\torrent\Friday the 13th_Harry Manfredini_6_CD BOX SET\CD2\04 Hand at Tree , Prowler.wav

Pre-gap length 0:00:02.00

Peak level 65.6 %
Extraction speed 5.5 X
Track quality 100.0 %
Test CRC 278A9A58
Copy CRC 278A9A58
Accurately ripped (confidence 2) [F6691AEC] (AR v1)
Copy OK

Track 5

Filename F:\torrent\Friday the 13th_Harry Manfredini_6_CD BOX SET\CD2\05 Ralph Gets Cursed.wav

Pre-gap length 0:00:02.00

Peak level 84.5 %
Extraction speed 5.4 X
Track quality 100.0 %
Test CRC 3307FEA9
Copy CRC 3307FEA9
Accurately ripped (confidence 2) [46FDF08A] (AR v1)
Copy OK

Track 6

Filename F:\torrent\Friday the 13th_Harry Manfredini_6_CD BOX SET\CD2\06 Terry Looks for Muffin.wav

Pre-gap length 0:00:02.00

Peak level 33.1 %
Extraction speed 4.5 X
Track quality 100.0 %
Test CRC 364A82D4
Copy CRC 364A82D4
Accurately ripped (confidence 2) [03C73F34] (AR v1)
Copy OK

Track 7

Filename F:\torrent\Friday the 13th_Harry Manfredini_6_CD BOX SET\CD2\07 Jeff and Sandy Are Watched.wav

Pre-gap length 0:00:02.00

Peak level 83.6 %
Extraction speed 3.3 X
Track quality 99.8 %
Test CRC E28AA328
Copy CRC E28AA328
Accurately ripped (confidence 2) [32B7B9C5] (AR v1)
Copy OK

Track 8

Filename F:\torrent\Friday the 13th_Harry Manfredini_6_CD BOX SET\CD2\08 The Chase , Sheriff Visits Villa Jason.wav

Pre-gap length 0:00:02.00

Peak level 93.7 %
Extraction speed 6.6 X
Track quality 100.0 %
Test CRC 36927F16
Copy CRC 36927F16
Accurately ripped (confidence 2) [DC7C3E55] (AR v1)
Copy OK

Track 9

Filename F:\torrent\Friday the 13th_Harry Manfredini_6_CD BOX SET\CD2\09 Terry in Lake , Dolly In, Scott Out.wav

Pre-gap length 0:00:02.00

Peak level 94.5 %
Extraction speed 6.7 X
Track quality 100.0 %
Test CRC 0964F145
Copy CRC 0964F145
Accurately ripped (confidence 2) [D82B56D3] (AR v1)
Copy OK

Track 10

Filename F:\torrent\Friday the 13th_Harry Manfredini_6_CD BOX SET\CD2\10 Vickie is Watched , Jason at Door.wav

Pre-gap length 0:00:02.00

Peak level 99.1 %
Extraction speed 6.9 X
Track quality 100.0 %
Test CRC DB776999
Copy CRC DB776999
Accurately ripped (confidence 2) [40568A48] (AR v1)
Copy OK

Track 11

Filename F:\torrent\Friday the 13th_Harry Manfredini_6_CD BOX SET\CD2\11 Vickie Goes Up.wav

Pre-gap length 0:00:02.00

Peak level 61.8 %
Extraction speed 4.8 X
Track quality 100.0 %
Test CRC C1A5F283
Copy CRC C1A5F283
Accurately ripped (confidence 2) [C3AE7E03] (AR v1)
Copy OK

Track 12

Filename F:\torrent\Friday the 13th_Harry Manfredini_6_CD BOX SET\CD2\12 Jason and Paul Meet.wav

Pre-gap length 0:00:02.00

Peak level 95.6 %
Extraction speed 6.2 X
Track quality 100.0 %
Test CRC 57F26618
Copy CRC 57F26618
Accurately ripped (confidence 2) [8C0CC5C4] (AR v1)
Copy OK

Track 13

Filename F:\torrent\Friday the 13th_Harry Manfredini_6_CD BOX SET\CD2\13 Ragtop and Running Ragged.wav

Pre-gap length 0:00:02.00

Peak level 99.6 %
Extraction speed 7.0 X
Track quality 99.9 %
Test CRC 22CC5D08
Copy CRC 22CC5D08
Accurately ripped (confidence 2) [49BD8CCA] (AR v1)
Copy OK

Track 14

Filename F:\torrent\Friday the 13th_Harry Manfredini_6_CD BOX SET\CD2\14 Ginny Under the Bed.wav

Pre-gap length 0:00:02.00

Peak level 97.9 %
Extraction speed 8.3 X
Track quality 100.0 %
Test CRC 3947374C
Copy CRC 3947374C
Accurately ripped (confidence 2) [C92B63A7] (AR v1)
Copy OK

Track 15

Filename F:\torrent\Friday the 13th_Harry Manfredini_6_CD BOX SET\CD2\15 Ginny Visits Villa Jason.wav

Pre-gap length 0:00:02.00

Peak level 96.6 %
Extraction speed 9.0 X
Track quality 100.0 %
Test CRC 1365E965
Copy CRC 1365E965
Accurately ripped (confidence 2) [D62A1B83] (AR v1)
Copy OK

Track 16

Filename F:\torrent\Friday the 13th_Harry Manfredini_6_CD BOX SET\CD2\16 Who's at the Door.wav

Pre-gap length 0:00:02.00

Peak level 99.3 %
Extraction speed 6.3 X
Track quality 99.9 %
Test CRC 44122011
Copy CRC 44122011
Accurately ripped (confidence 2) [9580DFE3] (AR v1)
Copy OK

Track 17

Filename F:\torrent\Friday the 13th_Harry Manfredini_6_CD BOX SET\CD2\17 Return To Chez Jason , Titles.wav

Pre-gap length 0:00:02.00

Peak level 98.2 %
Extraction speed 8.4 X
Track quality 100.0 %
Test CRC 27276767
Copy CRC 27276767
Accurately ripped (confidence 2) [713B8A9A] (AR v1)
Copy OK


All tracks accurately ripped

No errors occurred

End of status report

==== Log checksum 62DC6600B54615EF3DB837A69A626E36C12FBF71BB437E4C1BA0C2B381A269E4 ====

foobar2000 1.2 / Dynamic Range Meter 1.1.1
log date: 2013-04-24 12:55:03

––––––––––––––––––––––––––––––––––––––––
Analyzed: Harry Manfredini / Friday the 13th (Disc 2)
––––––––––––––––––––––––––––––––––––––––

DR Peak RMS Duration Track
––––––––––––––––––––––––––––––––––––––––
DR14 -0.01 dB -20.07 dB 5:33 01-Flashback
DR18 -0.78 dB -24.51 dB 1:59 02-Alice Hangs Up
DR14 -0.05 dB -17.64 dB 2:11 03-Keep a Cool Head (AKA Main Title)
DR11 -3.65 dB -17.93 dB 2:01 04-Hand at Tree / Prowler
DR13 -1.46 dB -20.93 dB 1:37 05-Ralph Gets Cursed
DR10 -9.60 dB -25.11 dB 0:53 06-Terry Looks for Muffin
DR15 -1.55 dB -23.02 dB 0:54 07-Jeff and Sandy Are Watched
DR15 -0.56 dB -19.80 dB 2:52 08-The Chase / Sheriff Visits Villa Jason
DR15 -0.49 dB -25.26 dB 2:32 09-Terry in Lake / Dolly In, Scott Out
DR14 -0.08 dB -20.75 dB 2:31 10-Vickie is Watched / Jason at Door
DR13 -4.17 dB -21.41 dB 0:47 11-Vickie Goes Up
DR16 -0.38 dB -22.29 dB 1:24 12-Jason and Paul Meet
DR13 -0.03 dB -19.42 dB 3:53 13-Ragtop and Running Ragged
DR15 -0.18 dB -19.43 dB 3:59 14-Ginny Under the Bed
DR15 -0.30 dB -19.65 dB 5:32 15-Ginny Visits Villa Jason
DR12 -0.05 dB -17.20 dB 1:58 16-Who's at the Door
DR13 -0.15 dB -17.62 dB 2:26 17-Return To Chez Jason / Titles
––––––––––––––––––––––––––––––––––––––––

Number of tracks: 17
Official DR value: DR14

Samplerate: 44100 Hz
Channels: 2
Bits per sample: 16
Bitrate: 591 kbps
Codec: FLAC
================================================================================




Harry Manfredini - Friday the 13th: Parts I-VI (2012) Limited Edition 6 CD Box Set


Tracklist CD3:

01. Part 2 Flashback (04:21)
02. Theme from Friday the 13th Part 3 (04:27)
03. The General Store (01:36)
04. The Meat Cleaver (02:59)
05. Arriving at the Barn / Fake Axe (01:32)
06. Let's Go for a Swim (00:51)
07. Who's Up There? (01:54)
08. In the Barn (01:50)
09. The Pipe Wrench (00:41)
10. In the Bedroom (01:21)
11. Flashback to Meeting Jason (01:22)
12. Chuck Walks to Outhouse (01:32)
13. The Lake Dock (01:27)
14. Shelly Goes to the Barn (01:17)
15. Wallet in the Lake (01:09)
16. Debbie Takes a Shower (00:43)
17. Walking on Hands (01:10)
18. The Fuse Box (03:35)
19. Chili Bites the Big One (00:48)
20. Nobody Home (00:33)
21. The Eyes Have It (02:31)
22. Jason Down Stairs to Barn (07:10)
23. Jason Hung (03:33)
24. Jason Grabs Rope (02:04)
25. Hallucinating (01:15)
26. Jason Dead in Barn / End Credit Title (03:38)


Exact Audio Copy V1.0 beta 3 from 29. August 2011

EAC extraction logfile from 7. March 2012, 20:03

Harry Manfredini / Friday the 13th (Disc 3)

Used drive : PLEXTOR DVDR PX-L890SA Adapter: 1 ID: 1

Read mode : Secure
Utilize accurate stream : Yes
Defeat audio cache : Yes
Make use of C2 pointers : No

Read offset correction : 6
Overread into Lead-In and Lead-Out : No
Fill up missing offset samples with silence : Yes
Delete leading and trailing silent blocks : No
Null samples used in CRC calculations : Yes
Used interface : Installed external ASPI interface
Gap handling : Appended to previous track

Used output format : User Defined Encoder
Selected bitrate : 1024 kBit/s
Quality : High
Add ID3 tag : No
Command line compressor : C:\Program Files\Exact Audio Copy\Flac\flac.exe
Additional command line options : -V -8 -T "Genre=%genre%" -T "Artist=%artist%" -T "Title=%title%" -T "Album=%albumtitle%" -T "Date=%year%" -T "Tracknumber=%tracknr%" -T "Comment=%comment%" %source%


TOC of the extracted CD

Track | Start | Length | Start sector | End sector
––––––––––––––––––––––––––––-
1 | 0:00.00 | 4:21.32 | 0 | 19606
2 | 4:21.32 | 4:27.49 | 19607 | 39680
3 | 8:49.06 | 1:36.27 | 39681 | 46907
4 | 10:25.33 | 2:59.16 | 46908 | 60348
5 | 13:24.49 | 1:32.12 | 60349 | 67260
6 | 14:56.61 | 0:51.33 | 67261 | 71118
7 | 15:48.19 | 1:54.47 | 71119 | 79715
8 | 17:42.66 | 1:50.26 | 79716 | 87991
9 | 19:33.17 | 0:41.42 | 87992 | 91108
10 | 20:14.59 | 1:21.29 | 91109 | 97212
11 | 21:36.13 | 1:22.48 | 97213 | 103410
12 | 22:58.61 | 1:32.30 | 103411 | 110340
13 | 24:31.16 | 1:27.29 | 110341 | 116894
14 | 25:58.45 | 1:17.02 | 116895 | 122671
15 | 27:15.47 | 1:09.23 | 122672 | 127869
16 | 28:24.70 | 0:43.63 | 127870 | 131157
17 | 29:08.58 | 1:10.08 | 131158 | 136415
18 | 30:18.66 | 3:35.31 | 136416 | 152571
19 | 33:54.22 | 0:48.74 | 152572 | 156245
20 | 34:43.21 | 0:33.31 | 156246 | 158751
21 | 35:16.52 | 2:31.55 | 158752 | 170131
22 | 37:48.32 | 7:10.43 | 170132 | 202424
23 | 44:59.00 | 3:33.70 | 202425 | 218469
24 | 48:32.70 | 2:04.38 | 218470 | 227807
25 | 50:37.33 | 1:15.43 | 227808 | 233475
26 | 51:53.01 | 3:38.64 | 233476 | 249889


Track 1

Filename F:\torrent\Friday the 13th_Harry Manfredini_6_CD BOX SET\CD3\01 Part 2 Flashback.wav

Pre-gap length 0:00:02.00

Peak level 96.6 %
Extraction speed 5.3 X
Track quality 100.0 %
Test CRC 99E2E1C0
Copy CRC 99E2E1C0
Accurately ripped (confidence 2) [BF61AE80] (AR v1)
Copy OK

Track 2

Filename F:\torrent\Friday the 13th_Harry Manfredini_6_CD BOX SET\CD3\02 Theme from Friday the 13th Part 3.wav

Pre-gap length 0:00:02.00

Peak level 95.2 %
Extraction speed 5.9 X
Track quality 100.0 %
Test CRC 4B3AA9AE
Copy CRC 4B3AA9AE
Accurately ripped (confidence 2) [3B8CCB34] (AR v1)
Copy OK

Track 3

Filename F:\torrent\Friday the 13th_Harry Manfredini_6_CD BOX SET\CD3\03 The General Store.wav

Pre-gap length 0:00:02.00

Peak level 96.7 %
Extraction speed 5.1 X
Track quality 100.0 %
Test CRC 16832C9B
Copy CRC 16832C9B
Accurately ripped (confidence 2) [5C007CB7] (AR v1)
Copy OK

Track 4

Filename F:\torrent\Friday the 13th_Harry Manfredini_6_CD BOX SET\CD3\04 The Meat Cleaver.wav

Pre-gap length 0:00:02.00

Peak level 94.0 %
Extraction speed 6.2 X
Track quality 100.0 %
Test CRC DED1C741
Copy CRC DED1C741
Accurately ripped (confidence 2) [3C70EE1E] (AR v1)
Copy OK

Track 5

Filename F:\torrent\Friday the 13th_Harry Manfredini_6_CD BOX SET\CD3\05 Arriving at the Barn , Fake Axe.wav

Pre-gap length 0:00:02.00

Peak level 97.1 %
Extraction speed 5.5 X
Track quality 100.0 %
Test CRC 50E0BDC0
Copy CRC 50E0BDC0
Accurately ripped (confidence 2) [E9169B61] (AR v1)
Copy OK

Track 6

Filename F:\torrent\Friday the 13th_Harry Manfredini_6_CD BOX SET\CD3\06 Let's Go for a Swim.wav

Pre-gap length 0:00:02.00

Peak level 42.2 %
Extraction speed 3.2 X
Track quality 99.7 %
Test CRC 27F10E78
Copy CRC 27F10E78
Accurately ripped (confidence 2) [DC06A5AA] (AR v1)
Copy OK

Track 7

Filename F:\torrent\Friday the 13th_Harry Manfredini_6_CD BOX SET\CD3\07 Who's Up There.wav

Pre-gap length 0:00:02.00

Peak level 73.7 %
Extraction speed 6.0 X
Track quality 100.0 %
Test CRC DD64D0BE
Copy CRC DD64D0BE
Accurately ripped (confidence 2) [E9763043] (AR v1)
Copy OK

Track 8

Filename F:\torrent\Friday the 13th_Harry Manfredini_6_CD BOX SET\CD3\08 In the Barn.wav

Pre-gap length 0:00:02.00

Peak level 84.5 %
Extraction speed 6.2 X
Track quality 100.0 %
Test CRC C3A4A8AD
Copy CRC C3A4A8AD
Accurately ripped (confidence 2) [868B4C13] (AR v1)
Copy OK

Track 9

Filename F:\torrent\Friday the 13th_Harry Manfredini_6_CD BOX SET\CD3\09 The Pipe Wrench.wav

Pre-gap length 0:00:02.00

Peak level 98.0 %
Extraction speed 4.4 X
Track quality 100.0 %
Test CRC 2A412846
Copy CRC 2A412846
Accurately ripped (confidence 2) [41770D57] (AR v1)
Copy OK

Track 10

Filename F:\torrent\Friday the 13th_Harry Manfredini_6_CD BOX SET\CD3\10 In the Bedroom.wav

Pre-gap length 0:00:02.00

Peak level 18.4 %
Extraction speed 5.8 X
Track quality 100.0 %
Test CRC 83461879
Copy CRC 83461879
Accurately ripped (confidence 2) [501C9494] (AR v1)
Copy OK

Track 11

Filename F:\torrent\Friday the 13th_Harry Manfredini_6_CD BOX SET\CD3\11 Flashback to Meeting Jason.wav

Pre-gap length 0:00:02.00

Peak level 97.4 %
Extraction speed 4.5 X
Track quality 99.8 %
Test CRC F71F222D
Copy CRC F71F222D
Accurately ripped (confidence 2) [A2F1B7D7] (AR v1)
Copy OK

Track 12

Filename F:\torrent\Friday the 13th_Harry Manfredini_6_CD BOX SET\CD3\12 Chuck Walks to Outhouse.wav

Pre-gap length 0:00:02.00

Peak level 95.9 %
Extraction speed 6.3 X
Track quality 100.0 %
Test CRC 389B470C
Copy CRC 389B470C
Accurately ripped (confidence 2) [7E8DE7DE] (AR v1)
Copy OK

Track 13

Filename F:\torrent\Friday the 13th_Harry Manfredini_6_CD BOX SET\CD3\13 The Lake Dock.wav

Pre-gap length 0:00:02.00

Peak level 86.8 %
Extraction speed 6.2 X
Track quality 100.0 %
Test CRC 56185BB2
Copy CRC 56185BB2
Accurately ripped (confidence 2) [55439BDF] (AR v1)
Copy OK

Track 14

Filename F:\torrent\Friday the 13th_Harry Manfredini_6_CD BOX SET\CD3\14 Shelly Goes to the Barn.wav

Pre-gap length 0:00:02.00

Peak level 95.2 %
Extraction speed 4.6 X
Track quality 99.8 %
Test CRC 753FB61C
Copy CRC 753FB61C
Accurately ripped (confidence 2) [5B2C6BF5] (AR v1)
Copy OK

Track 15

Filename F:\torrent\Friday the 13th_Harry Manfredini_6_CD BOX SET\CD3\15 Wallet in the Lake.wav

Pre-gap length 0:00:02.00

Peak level 82.9 %
Extraction speed 5.9 X
Track quality 100.0 %
Test CRC 576BFF65
Copy CRC 576BFF65
Accurately ripped (confidence 2) [E64355F2] (AR v1)
Copy OK

Track 16

Filename F:\torrent\Friday the 13th_Harry Manfredini_6_CD BOX SET\CD3\16 Debbie Takes a Shower.wav

Pre-gap length 0:00:02.00

Peak level 55.3 %
Extraction speed 3.4 X
Track quality 99.7 %
Test CRC E667D2D4
Copy CRC E667D2D4
Accurately ripped (confidence 2) [CBD56D2A] (AR v1)
Copy OK

Track 17

Filename F:\torrent\Friday the 13th_Harry Manfredini_6_CD BOX SET\CD3\17 Walking on Hands.wav

Pre-gap length 0:00:02.00

Peak level 74.9 %
Extraction speed 6.1 X
Track quality 100.0 %
Test CRC 2F4C74D5
Copy CRC 2F4C74D5
Accurately ripped (confidence 2) [6BC45F7B] (AR v1)
Copy OK

Track 18

Filename F:\torrent\Friday the 13th_Harry Manfredini_6_CD BOX SET\CD3\18 The Fuse Box.wav

Pre-gap length 0:00:02.00

Peak level 97.3 %
Extraction speed 8.1 X
Track quality 100.0 %
Test CRC D7445A4A
Copy CRC D7445A4A
Accurately ripped (confidence 2) [4125D23A] (AR v1)
Copy OK

Track 19

Filename F:\torrent\Friday the 13th_Harry Manfredini_6_CD BOX SET\CD3\19 Chili Bites the Big One.wav

Pre-gap length 0:00:02.00

Peak level 32.2 %
Extraction speed 5.5 X
Track quality 100.0 %
Test CRC E80AF6BD
Copy CRC E80AF6BD
Accurately ripped (confidence 2) [E88A8AC5] (AR v1)
Copy OK

Track 20

Filename F:\torrent\Friday the 13th_Harry Manfredini_6_CD BOX SET\CD3\20 Nobody Home.wav

Pre-gap length 0:00:02.00

Peak level 17.4 %
Extraction speed 4.7 X
Track quality 100.0 %
Test CRC BE4EC267
Copy CRC BE4EC267
Accurately ripped (confidence 2) [A10DEBA1] (AR v1)
Copy OK

Track 21

Filename F:\torrent\Friday the 13th_Harry Manfredini_6_CD BOX SET\CD3\21 The Eyes Have It.wav

Pre-gap length 0:00:02.00

Peak level 83.6 %
Extraction speed 6.8 X
Track quality 99.9 %
Test CRC 51D68D02
Copy CRC 51D68D02
Accurately ripped (confidence 2) [151A8A3C] (AR v1)
Copy OK

Track 22

Filename F:\torrent\Friday the 13th_Harry Manfredini_6_CD BOX SET\CD3\22 Jason Down Stairs to Barn.wav

Pre-gap length 0:00:02.00

Peak level 93.9 %
Extraction speed 8.9 X
Track quality 99.9 %
Test CRC 5A832C70
Copy CRC 5A832C70
Track not present in AccurateRip database
Copy OK

Track 23

Filename F:\torrent\Friday the 13th_Harry Manfredini_6_CD BOX SET\CD3\23 Jason Hung.wav

Pre-gap length 0:00:02.00

Peak level 93.8 %
Extraction speed 9.3 X
Track quality 100.0 %
Test CRC 9DEC09A9
Copy CRC 9DEC09A9
Track not present in AccurateRip database
Copy OK

Track 24

Filename F:\torrent\Friday the 13th_Harry Manfredini_6_CD BOX SET\CD3\24 Jason Grabs Rope.wav

Pre-gap length 0:00:02.00

Peak level 89.7 %
Extraction speed 7.0 X
Track quality 99.9 %
Test CRC F4E99E79
Copy CRC F4E99E79
Track not present in AccurateRip database
Copy OK

Track 25

Filename F:\torrent\Friday the 13th_Harry Manfredini_6_CD BOX SET\CD3\25 Hallucinating.wav

Pre-gap length 0:00:02.00

Peak level 86.2 %
Extraction speed 7.4 X
Track quality 100.0 %
Test CRC F2FA7BE0
Copy CRC F2FA7BE0
Track not present in AccurateRip database
Copy OK

Track 26

Filename F:\torrent\Friday the 13th_Harry Manfredini_6_CD BOX SET\CD3\26 Jason Dead in Barn , End Credit Title.wav

Pre-gap length 0:00:02.00

Peak level 80.7 %
Extraction speed 9.8 X
Track quality 100.0 %
Test CRC 7580ECB2
Copy CRC 7580ECB2
Track not present in AccurateRip database
Copy OK


21 трек(и) скопированы точно
5 трек(и) не содержатся в базе AccurateRip

Some tracks could not be verified as accurate

No errors occurred

End of status report

==== Log checksum 02D0CA6DEB910AB35D5A819EEE5AAC8EF35E81F544ED8FF7508DEFD99ADD781C ====

foobar2000 1.2 / Dynamic Range Meter 1.1.1
log date: 2013-04-24 12:55:20

––––––––––––––––––––––––––––––––––––––––
Analyzed: Harry Manfredini / Friday the 13th (Disc 3)
––––––––––––––––––––––––––––––––––––––––

DR Peak RMS Duration Track
––––––––––––––––––––––––––––––––––––––––
DR15 -0.30 dB -19.77 dB 4:21 01-Part 2 Flashback
DR11 -0.42 dB -15.33 dB 4:28 02-Theme from Friday the 13th Part 3
DR16 -0.28 dB -21.39 dB 1:36 03-The General Store
DR14 -0.53 dB -20.15 dB 2:59 04-The Meat Cleaver
DR15 -0.25 dB -21.38 dB 1:32 05-Arriving at the Barn / Fake Axe
DR10 -7.49 dB -25.83 dB 0:51 06-Let's Go for a Swim
DR16 -2.65 dB -26.05 dB 1:55 07-Who's Up There?
DR12 -1.45 dB -18.85 dB 1:50 08-In the Barn
DR14 -0.17 dB -19.51 dB 0:42 09-The Pipe Wrench
DR10 -14.67 dB -30.06 dB 1:21 10-In the Bedroom
DR15 -0.23 dB -19.47 dB 1:23 11-Flashback to Meeting Jason
DR15 -0.36 dB -24.07 dB 1:32 12-Chuck Walks to Outhouse
DR16 -1.22 dB -22.01 dB 1:27 13-The Lake Dock
DR14 -0.42 dB -25.52 dB 1:17 14-Shelly Goes to the Barn
DR11 -1.62 dB -19.12 dB 1:09 15-Wallet in the Lake
DR10 -5.13 dB -21.17 dB 0:44 16-Debbie Takes a Shower
DR12 -2.51 dB -20.98 dB 1:10 17-Walking on Hands
DR13 -0.24 dB -18.27 dB 3:35 18-The Fuse Box
DR9 -9.84 dB -25.14 dB 0:49 19-Chili Bites the Big One
DR8 -15.15 dB -28.31 dB 0:33 20-Nobody Home
DR14 -1.55 dB -22.49 dB 2:32 21-The Eyes Have It
DR15 -0.54 dB -19.24 dB 7:11 22-Jason Down Stairs to Barn
DR15 -0.55 dB -19.26 dB 3:34 23-Jason Hung
DR15 -0.94 dB -20.09 dB 2:05 24-Jason Grabs Rope
DR11 -1.29 dB -17.77 dB 1:16 25-Hallucinating
DR13 -1.86 dB -17.33 dB 3:39 26-Jason Dead in Barn / End Credit Title
––––––––––––––––––––––––––––––––––––––––

Number of tracks: 26
Official DR value: DR13

Samplerate: 44100 Hz
Channels: 2
Bits per sample: 16
Bitrate: 753 kbps
Codec: FLAC
================================================================================




Harry Manfredini - Friday the 13th: Parts I-VI (2012) Limited Edition 6 CD Box Set


Tracklist CD4:

01. What Boy Ma'am? / Main Titles (04:43)
02. Helicopter (03:41)
03. The Morgue (01:39)
04. Hacksaw to Throat (01:08)
05. Squeezing the Banana (01:28)
06. Dock Prank (02:16)
07. Stalled Car (00:39)
08. Tommy's Room (00:39)
09. Midnight Skinny Dip (02:15)
10. Paul Gets the Point (04:01)
11. Mom Looks for Kids (01:52)
12. Lights Out (01:59)
13. Jimmy is Screwed / Tina Thrown / Ted Watches Movie (01:36)
14. Lights! Camera! Hacktion! (01:28)
15. You Give Me Cleaver (01:51)
16. Trish and Rob (02:44)
17. Tommy Reads / Trish Pleads / Rob and Trish Meet Jason (07:12)
18. La Muerte De Jason (11:00)


Exact Audio Copy V1.0 beta 3 from 29. August 2011

EAC extraction logfile from 8. March 2012, 22:41

Henry Mancini / Friday the 13th: The Final Chapter (Disc 4)

Used drive : PLEXTOR DVDR PX-L890SA Adapter: 1 ID: 1

Read mode : Secure
Utilize accurate stream : Yes
Defeat audio cache : Yes
Make use of C2 pointers : No

Read offset correction : 6
Overread into Lead-In and Lead-Out : No
Fill up missing offset samples with silence : Yes
Delete leading and trailing silent blocks : No
Null samples used in CRC calculations : Yes
Used interface : Installed external ASPI interface
Gap handling : Appended to previous track

Used output format : User Defined Encoder
Selected bitrate : 1024 kBit/s
Quality : High
Add ID3 tag : No
Command line compressor : C:\Program Files\Exact Audio Copy\Flac\flac.exe
Additional command line options : -V -8 -T "Genre=%genre%" -T "Artist=%artist%" -T "Title=%title%" -T "Album=%albumtitle%" -T "Date=%year%" -T "Tracknumber=%tracknr%" -T "Comment=%comment%" %source%


TOC of the extracted CD

Track | Start | Length | Start sector | End sector
––––––––––––––––––––––––––––-
1 | 0:00.00 | 4:43.18 | 0 | 21242
2 | 4:43.18 | 3:41.12 | 21243 | 37829
3 | 8:24.30 | 1:39.57 | 37830 | 45311
4 | 10:04.12 | 1:08.56 | 45312 | 50467
5 | 11:12.68 | 1:28.71 | 50468 | 57138
6 | 12:41.64 | 2:16.08 | 57139 | 67346
7 | 14:57.72 | 0:39.24 | 67347 | 70295
8 | 15:37.21 | 0:39.45 | 70296 | 73265
9 | 16:16.66 | 2:15.74 | 73266 | 83464
10 | 18:32.65 | 4:01.13 | 83465 | 101552
11 | 22:34.03 | 1:52.45 | 101553 | 109997
12 | 24:26.48 | 1:59.22 | 109998 | 118944
13 | 26:25.70 | 1:36.29 | 118945 | 126173
14 | 28:02.24 | 1:28.57 | 126174 | 132830
15 | 29:31.06 | 1:51.73 | 132831 | 141228
16 | 31:23.04 | 2:44.01 | 141229 | 153529
17 | 34:07.05 | 7:12.65 | 153530 | 185994
18 | 41:19.70 | 11:00.37 | 185995 | 235531


Track 1

Filename F:\torrent\Friday the 13th_Harry Manfredini_6_CD BOX SET\CD4\01 What Boy Ma'am , Main Titles.wav

Pre-gap length 0:00:02.00

Peak level 98.8 %
Extraction speed 5.4 X
Track quality 100.0 %
Test CRC F7C3E2E3
Copy CRC F7C3E2E3
Accurately ripped (confidence 2) [D3FD01F4] (AR v1)
Copy OK

Track 2

Filename F:\torrent\Friday the 13th_Harry Manfredini_6_CD BOX SET\CD4\02 Helicopter.wav

Pre-gap length 0:00:02.00

Peak level 96.2 %
Extraction speed 5.8 X
Track quality 100.0 %
Test CRC D9D662C3
Copy CRC D9D662C3
Accurately ripped (confidence 2) [194DBCC4] (AR v1)
Copy OK

Track 3

Filename F:\torrent\Friday the 13th_Harry Manfredini_6_CD BOX SET\CD4\03 The Morgue.wav

Pre-gap length 0:00:02.00

Peak level 86.5 %
Extraction speed 5.2 X
Track quality 100.0 %
Test CRC 35A3F7AF
Copy CRC 35A3F7AF
Accurately ripped (confidence 2) [3581ECC0] (AR v1)
Copy OK

Track 4

Filename F:\torrent\Friday the 13th_Harry Manfredini_6_CD BOX SET\CD4\04 Hacksaw to Throat.wav

Pre-gap length 0:00:02.00

Peak level 88.4 %
Extraction speed 4.6 X
Track quality 100.0 %
Test CRC 3D93F18D
Copy CRC 3D93F18D
Accurately ripped (confidence 2) [CDF6800D] (AR v1)
Copy OK

Track 5

Filename F:\torrent\Friday the 13th_Harry Manfredini_6_CD BOX SET\CD4\05 Squeezing the Banana.wav

Pre-gap length 0:00:02.00

Peak level 96.0 %
Extraction speed 4.1 X
Track quality 99.8 %
Test CRC 0891569D
Copy CRC 0891569D
Accurately ripped (confidence 2) [1E88F2D9] (AR v1)
Copy OK

Track 6

Filename F:\torrent\Friday the 13th_Harry Manfredini_6_CD BOX SET\CD4\06 Dock Prank.wav

Pre-gap length 0:00:02.00

Peak level 95.4 %
Extraction speed 5.0 X
Track quality 99.9 %
Test CRC A65B343F
Copy CRC A65B343F
Accurately ripped (confidence 2) [42EE1535] (AR v1)
Copy OK

Track 7

Filename F:\torrent\Friday the 13th_Harry Manfredini_6_CD BOX SET\CD4\07 Stalled Car.wav

Pre-gap length 0:00:02.00

Peak level 95.9 %
Extraction speed 4.0 X
Track quality 100.0 %
Test CRC D17237CF
Copy CRC D17237CF
Accurately ripped (confidence 2) [FD529B5D] (AR v1)
Copy OK

Track 8

Filename F:\torrent\Friday the 13th_Harry Manfredini_6_CD BOX SET\CD4\08 Tommy's Room.wav

Pre-gap length 0:00:02.00

Peak level 88.0 %
Extraction speed 4.1 X
Track quality 100.0 %
Test CRC 5ADBEAF3
Copy CRC 5ADBEAF3
Accurately ripped (confidence 2) [3039AA63] (AR v1)
Copy OK

Track 9

Filename F:\torrent\Friday the 13th_Harry Manfredini_6_CD BOX SET\CD4\09 Midnight Skinny Dip.wav

Pre-gap length 0:00:02.00

Peak level 42.6 %
Extraction speed 6.4 X
Track quality 100.0 %
Test CRC 1A70F62A
Copy CRC 1A70F62A
Accurately ripped (confidence 2) [D12464FB] (AR v1)
Copy OK

Track 10

Filename F:\torrent\Friday the 13th_Harry Manfredini_6_CD BOX SET\CD4\10 Paul Gets the Point.wav

Pre-gap length 0:00:02.00

Peak level 98.8 %
Extraction speed 7.4 X
Track quality 100.0 %
Test CRC 7DAD2774
Copy CRC 7DAD2774
Accurately ripped (confidence 2) [7A33B5CE] (AR v1)
Copy OK

Track 11

Filename F:\torrent\Friday the 13th_Harry Manfredini_6_CD BOX SET\CD4\11 Mom Looks for Kids.wav

Pre-gap length 0:00:02.00

Peak level 94.3 %
Extraction speed 6.7 X
Track quality 100.0 %
Test CRC 44918535
Copy CRC 44918535
Accurately ripped (confidence 2) [43FCFD25] (AR v1)
Copy OK

Track 12

Filename F:\torrent\Friday the 13th_Harry Manfredini_6_CD BOX SET\CD4\12 Lights Out.wav

Pre-gap length 0:00:02.00

Peak level 82.2 %
Extraction speed 6.9 X
Track quality 100.0 %
Test CRC 92EAA1A2
Copy CRC 92EAA1A2
Accurately ripped (confidence 2) [3E029AE2] (AR v1)
Copy OK

Track 13

Filename F:\torrent\Friday the 13th_Harry Manfredini_6_CD BOX SET\CD4\13 Jimmy is Screwed , Tina Thrown , Ted Watches Movie.wav

Pre-gap length 0:00:02.00

Peak level 95.8 %
Extraction speed 6.6 X
Track quality 100.0 %
Test CRC FAE9BE31
Copy CRC FAE9BE31
Accurately ripped (confidence 2) [3A27DB2A] (AR v1)
Copy OK

Track 14

Filename F:\torrent\Friday the 13th_Harry Manfredini_6_CD BOX SET\CD4\14 Lights! Camera! Hacktion!.wav

Pre-gap length 0:00:02.00

Peak level 92.4 %
Extraction speed 6.6 X
Track quality 100.0 %
Test CRC 77019F5F
Copy CRC 77019F5F
Accurately ripped (confidence 2) [91DB5B6C] (AR v1)
Copy OK

Track 15

Filename F:\torrent\Friday the 13th_Harry Manfredini_6_CD BOX SET\CD4\15 You Give Me Cleaver.wav

Pre-gap length 0:00:02.00

Peak level 98.4 %
Extraction speed 7.2 X
Track quality 100.0 %
Test CRC C79B2154
Copy CRC C79B2154
Accurately ripped (confidence 2) [DBCF0428] (AR v1)
Copy OK

Track 16

Filename F:\torrent\Friday the 13th_Harry Manfredini_6_CD BOX SET\CD4\16 Trish and Rob.wav

Pre-gap length 0:00:02.00

Peak level 85.2 %
Extraction speed 6.7 X
Track quality 99.9 %
Test CRC 22F9415B
Copy CRC 22F9415B
Accurately ripped (confidence 2) [1EC6EA0C] (AR v1)
Copy OK

Track 17

Filename F:\torrent\Friday the 13th_Harry Manfredini_6_CD BOX SET\CD4\17 Tommy Reads , Trish Pleads , Rob and Trish Meet Jason.wav

Pre-gap length 0:00:02.00

Peak level 96.5 %
Extraction speed 9.3 X
Track quality 100.0 %
Test CRC 50CCED16
Copy CRC 50CCED16
Accurately ripped (confidence 2) [7A6D87AB] (AR v1)
Copy OK

Track 18

Filename F:\torrent\Friday the 13th_Harry Manfredini_6_CD BOX SET\CD4\18 La Muerte De Jason.wav

Pre-gap length 0:00:02.00

Peak level 99.3 %
Extraction speed 10.3 X
Track quality 100.0 %
Test CRC 50CB8122
Copy CRC 50CB8122
Accurately ripped (confidence 2) [DE8A2A14] (AR v1)
Copy OK


All tracks accurately ripped

No errors occurred

End of status report

==== Log checksum 7FA8143BC6E0C5C57BC584399C7CCD2A6C6E0D2DB4638B82E307A575F42CC957 ====

foobar2000 1.2 / Dynamic Range Meter 1.1.1
log date: 2013-04-24 13:46:52

––––––––––––––––––––––––––––––––––––––––
Analyzed: Harry Manfredini / Friday the 13th: The Final Chapter (Disc 4)
––––––––––––––––––––––––––––––––––––––––

DR Peak RMS Duration Track
––––––––––––––––––––––––––––––––––––––––
DR14 -0.10 dB -18.87 dB 4:43 01-What Boy Ma'am? / Main Titles
DR13 -0.33 dB -24.68 dB 3:41 02-Helicopter
DR18 -1.25 dB -24.46 dB 1:40 03-The Morgue
DR17 -1.07 dB -24.79 dB 1:09 04-Hacksaw to Throat
DR17 -0.35 dB -23.35 dB 1:29 05-Squeezing the Banana
DR18 -0.40 dB -24.31 dB 2:16 06-Dock Prank
DR9 -0.36 dB -24.87 dB 0:39 07-Stalled Car
DR6 -1.11 dB -26.94 dB 0:40 08-Tommy's Room
DR10 -7.41 dB -23.38 dB 2:16 09-Midnight Skinny Dip
DR16 -0.10 dB -21.39 dB 4:01 10-Paul Gets the Point
DR18 -0.50 dB -24.50 dB 1:53 11-Mom Looks for Kids
DR11 -1.69 dB -17.79 dB 1:59 12-Lights Out
DR16 -0.37 dB -21.01 dB 1:36 13-Jimmy is Screwed / Tina Thrown / Ted Watches Movie
DR16 -0.68 dB -21.59 dB 1:29 14-Lights! Camera! Hacktion!
DR15 -0.14 dB -20.18 dB 1:52 15-You Give Me Cleaver
DR13 -1.38 dB -20.14 dB 2:44 16-Trish and Rob
DR15 -0.31 dB -20.48 dB 7:13 17-Tommy Reads / Trish Pleads / Rob and Trish Meet Jason
DR14 -0.06 dB -19.48 dB 11:00 18-La Muerte De Jason
––––––––––––––––––––––––––––––––––––––––

Number of tracks: 18
Official DR value: DR14

Samplerate: 44100 Hz
Channels: 2
Bits per sample: 16
Bitrate: 751 kbps
Codec: FLAC
================================================================================




Harry Manfredini - Friday the 13th: Parts I-VI (2012) Limited Edition 6 CD Box Set


Tracklist CD5:

01. Graveyard (04:57)
02. Main Titles (02:11)
03. Tommy Alone (00:54)
04. Tommy Scares Reggie / Tommy Watches (00:49)
05. Vic Chops / Roy Reacts (01:31)
06. Peter in the Woods (00:46)
07. Flare (00:28)
08. Vinnie's Front Seat / Jason in the Mirror (01:19)
09. Tommy and Mask / Lana in the Diner (00:50)
10. Billy's Head (00:16)
11. Tommy at Window (01:16)
12. Eyes (01:31)
13. Drive to Demon's / Tommy Meets Jr / Anita and Demon (04:30)
14. Junior's Head / Jake's Head (00:50)
15. Robin Covers Reggie (01:30)
16. Robin and Jake (00:30)
17. Bodies (00:53)
18. Pam and Reggie Meet Jason (06:32)
19. Reggie is Caught / Pam Attacks (04:11)
20. Pam and Jason (01:07)
21. Tommy's Dream (02:22)
22. Jason's Final Visit (01:11)
23. The Window / Tommy at Door / End Titles (03:22)
24. Heavy Metal (03:25)
25. Punk Funk (01:03)


Exact Audio Copy V1.0 beta 3 from 29. August 2011

EAC extraction logfile from 8. March 2012, 12:06

Harry Manfredini / Friday the 13th: A New Beginning (Disc 5)

Used drive : PLEXTOR DVDR PX-L890SA Adapter: 1 ID: 1

Read mode : Secure
Utilize accurate stream : Yes
Defeat audio cache : Yes
Make use of C2 pointers : No

Read offset correction : 6
Overread into Lead-In and Lead-Out : No
Fill up missing offset samples with silence : Yes
Delete leading and trailing silent blocks : No
Null samples used in CRC calculations : Yes
Used interface : Installed external ASPI interface
Gap handling : Appended to previous track

Used output format : User Defined Encoder
Selected bitrate : 1024 kBit/s
Quality : High
Add ID3 tag : No
Command line compressor : C:\Program Files\Exact Audio Copy\Flac\flac.exe
Additional command line options : -V -8 -T "Genre=%genre%" -T "Artist=%artist%" -T "Title=%title%" -T "Album=%albumtitle%" -T "Date=%year%" -T "Tracknumber=%tracknr%" -T "Comment=%comment%" %source%


TOC of the extracted CD

Track | Start | Length | Start sector | End sector
––––––––––––––––––––––––––––-
1 | 0:00.00 | 4:57.47 | 0 | 22321
2 | 4:57.47 | 2:11.43 | 22322 | 32189
3 | 7:09.15 | 0:54.53 | 32190 | 36292
4 | 8:03.68 | 0:49.69 | 36293 | 40036
5 | 8:53.62 | 1:31.15 | 40037 | 46876
6 | 10:25.02 | 0:46.69 | 46877 | 50395
7 | 11:11.71 | 0:28.73 | 50396 | 52568
8 | 11:40.69 | 1:19.65 | 52569 | 58558
9 | 13:00.59 | 0:50.48 | 58559 | 62356
10 | 13:51.32 | 0:16.22 | 62357 | 63578
11 | 14:07.54 | 1:16.66 | 63579 | 69344
12 | 15:24.45 | 1:31.08 | 69345 | 76177
13 | 16:55.53 | 4:30.61 | 76178 | 96488
14 | 21:26.39 | 0:50.13 | 96489 | 100251
15 | 22:16.52 | 1:30.55 | 100252 | 107056
16 | 23:47.32 | 0:30.57 | 107057 | 109363
17 | 24:18.14 | 0:53.09 | 109364 | 113347
18 | 25:11.23 | 6:32.66 | 113348 | 142813
19 | 31:44.14 | 4:11.73 | 142814 | 161711
20 | 35:56.12 | 1:07.13 | 161712 | 166749
21 | 37:03.25 | 2:22.57 | 166750 | 177456
22 | 39:26.07 | 1:11.18 | 177457 | 182799
23 | 40:37.25 | 3:22.65 | 182800 | 198014
24 | 44:00.15 | 3:25.11 | 198015 | 213400
25 | 47:25.26 | 1:03.02 | 213401 | 218127


Track 1

Filename F:\torrent\Friday the 13th_Harry Manfredini_6_CD BOX SET\CD5\01 Graveyard.wav

Pre-gap length 0:00:02.00

Peak level 99.8 %
Extraction speed 5.4 X
Track quality 100.0 %
Test CRC B2B59873
Copy CRC B2B59873
Accurately ripped (confidence 2) [5EDEDC16] (AR v1)
Copy OK

Track 2

Filename F:\torrent\Friday the 13th_Harry Manfredini_6_CD BOX SET\CD5\02 Main Titles.wav

Pre-gap length 0:00:02.00

Peak level 96.3 %
Extraction speed 5.2 X
Track quality 100.0 %
Test CRC 15E81012
Copy CRC 15E81012
Accurately ripped (confidence 2) [0500B38A] (AR v1)
Copy OK

Track 3

Filename F:\torrent\Friday the 13th_Harry Manfredini_6_CD BOX SET\CD5\03 Tommy Alone.wav

Pre-gap length 0:00:02.00

Peak level 43.9 %
Extraction speed 4.0 X
Track quality 100.0 %
Test CRC 2E9B0F63
Copy CRC 2E9B0F63
Accurately ripped (confidence 2) [A7F26D70] (AR v1)
Copy OK

Track 4

Filename F:\torrent\Friday the 13th_Harry Manfredini_6_CD BOX SET\CD5\04 Tommy Scares Reggie , Tommy Watches.wav

Pre-gap length 0:00:02.00

Peak level 91.7 %
Extraction speed 4.0 X
Track quality 100.0 %
Test CRC 6110772D
Copy CRC 6110772D
Accurately ripped (confidence 2) [39EC8F07] (AR v1)
Copy OK

Track 5

Filename F:\torrent\Friday the 13th_Harry Manfredini_6_CD BOX SET\CD5\05 Vic Chops , Roy Reacts.wav

Pre-gap length 0:00:02.00

Peak level 77.8 %
Extraction speed 5.1 X
Track quality 100.0 %
Test CRC 75DDF6D1
Copy CRC 75DDF6D1
Accurately ripped (confidence 2) [99CC0CD6] (AR v1)
Copy OK

Track 6

Filename F:\torrent\Friday the 13th_Harry Manfredini_6_CD BOX SET\CD5\06 Peter in the Woods.wav

Pre-gap length 0:00:02.00

Peak level 78.1 %
Extraction speed 4.0 X
Track quality 100.0 %
Test CRC 1A8F2CEA
Copy CRC 1A8F2CEA
Accurately ripped (confidence 2) [F26612A5] (AR v1)
Copy OK

Track 7

Filename F:\torrent\Friday the 13th_Harry Manfredini_6_CD BOX SET\CD5\07 Flare.wav

Pre-gap length 0:00:02.00

Peak level 75.5 %
Extraction speed 3.2 X
Track quality 100.0 %
Test CRC 568C90F0
Copy CRC 568C90F0
Accurately ripped (confidence 2) [600D1C19] (AR v1)
Copy OK

Track 8

Filename F:\torrent\Friday the 13th_Harry Manfredini_6_CD BOX SET\CD5\08 Vinnie's Front Seat , Jason in the Mirror.wav

Pre-gap length 0:00:02.00

Peak level 93.3 %
Extraction speed 5.2 X
Track quality 100.0 %
Test CRC AD5211F1
Copy CRC AD5211F1
Accurately ripped (confidence 2) [A566A50A] (AR v1)
Copy OK

Track 9

Filename F:\torrent\Friday the 13th_Harry Manfredini_6_CD BOX SET\CD5\09 Tommy and Mask , Lana in the Diner.wav

Pre-gap length 0:00:02.00

Peak level 82.4 %
Extraction speed 4.4 X
Track quality 100.0 %
Test CRC 87F73C3F
Copy CRC 87F73C3F
Accurately ripped (confidence 2) [3D370B62] (AR v1)
Copy OK

Track 10

Filename F:\torrent\Friday the 13th_Harry Manfredini_6_CD BOX SET\CD5\10 Billy's Head.wav

Pre-gap length 0:00:02.00

Peak level 96.7 %
Extraction speed 2.2 X
Track quality 100.0 %
Test CRC 5BA0462D
Copy CRC 5BA0462D
Accurately ripped (confidence 2) [FDEEB3B3] (AR v1)
Copy OK

Track 11

Filename F:\torrent\Friday the 13th_Harry Manfredini_6_CD BOX SET\CD5\11 Tommy at Window.wav

Pre-gap length 0:00:02.00

Peak level 96.1 %
Extraction speed 5.2 X
Track quality 100.0 %
Test CRC 76B7634D
Copy CRC 76B7634D
Accurately ripped (confidence 2) [6511FE1F] (AR v1)
Copy OK

Track 12

Filename F:\torrent\Friday the 13th_Harry Manfredini_6_CD BOX SET\CD5\12 Eyes.wav

Pre-gap length 0:00:02.00

Peak level 98.3 %
Extraction speed 5.6 X
Track quality 100.0 %
Test CRC 1049BBA1
Copy CRC 1049BBA1
Accurately ripped (confidence 2) [815CFE44] (AR v1)
Copy OK

Track 13

Filename F:\torrent\Friday the 13th_Harry Manfredini_6_CD BOX SET\CD5\13 Drive to Demon's , Tommy Meets Jr , Anita and Demon.wav

Pre-gap length 0:00:02.00

Peak level 97.4 %
Extraction speed 7.3 X
Track quality 100.0 %
Test CRC 08848BC4
Copy CRC 08848BC4
Accurately ripped (confidence 2) [B75ADAF6] (AR v1)
Copy OK

Track 14

Filename F:\torrent\Friday the 13th_Harry Manfredini_6_CD BOX SET\CD5\14 Junior's Head , Jake's Head.wav

Pre-gap length 0:00:02.00

Peak level 87.6 %
Extraction speed 5.0 X
Track quality 100.0 %
Test CRC 99B96F4D
Copy CRC 99B96F4D
Accurately ripped (confidence 2) [B5E83ADC] (AR v1)
Copy OK

Track 15

Filename F:\torrent\Friday the 13th_Harry Manfredini_6_CD BOX SET\CD5\15 Robin Covers Reggie.wav

Pre-gap length 0:00:02.00

Peak level 53.6 %
Extraction speed 6.2 X
Track quality 100.0 %
Test CRC 37F790FC
Copy CRC 37F790FC
Accurately ripped (confidence 2) [562CB3A1] (AR v1)
Copy OK

Track 16

Filename F:\torrent\Friday the 13th_Harry Manfredini_6_CD BOX SET\CD5\16 Robin and Jake.wav

Pre-gap length 0:00:02.00

Peak level 99.4 %
Extraction speed 3.9 X
Track quality 100.0 %
Test CRC 50BF6EE7
Copy CRC 50BF6EE7
Accurately ripped (confidence 2) [EBA4AB72] (AR v1)
Copy OK

Track 17

Filename F:\torrent\Friday the 13th_Harry Manfredini_6_CD BOX SET\CD5\17 Bodies.wav

Pre-gap length 0:00:02.00

Peak level 97.3 %
Extraction speed 3.7 X
Track quality 99.7 %
Test CRC 7F1E1DE5
Copy CRC 7F1E1DE5
Accurately ripped (confidence 2) [E0E62DD3] (AR v1)
Copy OK

Track 18

Filename F:\torrent\Friday the 13th_Harry Manfredini_6_CD BOX SET\CD5\18 Pam and Reggie Meet Jason.wav

Pre-gap length 0:00:02.00

Peak level 91.2 %
Extraction speed 8.5 X
Track quality 100.0 %
Test CRC D45C9C0B
Copy CRC D45C9C0B
Accurately ripped (confidence 2) [EF0E727C] (AR v1)
Copy OK

Track 19

Filename F:\torrent\Friday the 13th_Harry Manfredini_6_CD BOX SET\CD5\19 Reggie is Caught , Pam Attacks.wav

Pre-gap length 0:00:02.00

Peak level 93.2 %
Extraction speed 7.6 X
Track quality 99.9 %
Test CRC 354E5C6F
Copy CRC 354E5C6F
Accurately ripped (confidence 2) [84EF3684] (AR v1)
Copy OK

Track 20

Filename F:\torrent\Friday the 13th_Harry Manfredini_6_CD BOX SET\CD5\20 Pam and Jason.wav

Pre-gap length 0:00:02.00

Peak level 97.3 %
Extraction speed 6.4 X
Track quality 100.0 %
Test CRC 2EF0601F
Copy CRC 2EF0601F
Accurately ripped (confidence 2) [21EC6A59] (AR v1)
Copy OK

Track 21

Filename F:\torrent\Friday the 13th_Harry Manfredini_6_CD BOX SET\CD5\21 Tommy's Dream.wav

Pre-gap length 0:00:02.00

Peak level 99.3 %
Extraction speed 6.7 X
Track quality 99.9 %
Test CRC 913B366D
Copy CRC 913B366D
Accurately ripped (confidence 2) [5F99C275] (AR v1)
Copy OK

Track 22

Filename F:\torrent\Friday the 13th_Harry Manfredini_6_CD BOX SET\CD5\22 Jason's Final Visit.wav

Pre-gap length 0:00:02.00

Peak level 76.7 %
Extraction speed 6.7 X
Track quality 100.0 %
Test CRC 596143A5
Copy CRC 596143A5
Accurately ripped (confidence 2) [48DB1AB5] (AR v1)
Copy OK

Track 23

Filename F:\torrent\Friday the 13th_Harry Manfredini_6_CD BOX SET\CD5\23 The Window , Tommy at Door , End Titles.wav

Pre-gap length 0:00:02.00

Peak level 98.2 %
Extraction speed 7.7 X
Track quality 99.9 %
Test CRC D0A2DB60
Copy CRC D0A2DB60
Accurately ripped (confidence 2) [B2EA293B] (AR v1)
Copy OK

Track 24

Filename F:\torrent\Friday the 13th_Harry Manfredini_6_CD BOX SET\CD5\24 Heavy Metal.wav

Pre-gap length 0:00:05.00

Peak level 94.2 %
Extraction speed 7.9 X
Track quality 99.9 %
Test CRC 44531C6D
Copy CRC 44531C6D
Accurately ripped (confidence 2) [C83F14F0] (AR v1)
Copy OK

Track 25

Filename F:\torrent\Friday the 13th_Harry Manfredini_6_CD BOX SET\CD5\25 Punk Funk.wav

Pre-gap length 0:00:02.00

Peak level 98.5 %
Extraction speed 6.8 X
Track quality 100.0 %
Test CRC 22EDE662
Copy CRC 22EDE662
Accurately ripped (confidence 2) [37571860] (AR v1)
Copy OK


All tracks accurately ripped

No errors occurred

End of status report

==== Log checksum 9C17FAA16A03E9ECF5E576DDF8497B9ECD6420D926395BC3EB5E1734DFB3353F ====

foobar2000 1.2 / Dynamic Range Meter 1.1.1
log date: 2013-04-24 12:55:53

––––––––––––––––––––––––––––––––––––––––
Analyzed: / Friday the 13th: A New Beginning (Disc 5)
––––––––––––––––––––––––––––––––––––––––

DR Peak RMS Duration Track
––––––––––––––––––––––––––––––––––––––––
DR12 -0.01 dB -16.70 dB 4:58 01-Graveyard
DR12 -0.32 dB -16.46 dB 2:12 02-Main Titles
DR10 -7.14 dB -22.94 dB 0:55 03-Tommy Alone
DR8 -0.75 dB -24.13 dB 0:50 04-Tommy Scares Reggie / Tommy Watches
DR12 -2.18 dB -20.42 dB 1:31 05-Vic Chops / Roy Reacts
DR11 -2.15 dB -21.90 dB 0:47 06-Peter in the Woods
DR10 -2.44 dB -18.01 dB 0:29 07-Flare
DR12 -0.60 dB -19.17 dB 1:20 08-Vinnie's Front Seat / Jason in the Mirror
DR11 -1.68 dB -19.31 dB 0:51 09-Tommy and Mask / Lana in the Diner
DR11 -0.29 dB -17.64 dB 0:16 10-Billy's Head
DR9 -0.34 dB -14.17 dB 1:17 11-Tommy at Window
DR12 -0.15 dB -17.87 dB 1:31 12-Eyes
DR12 -0.23 dB -16.83 dB 4:31 13-Drive to Demon's / Tommy Meets Jr / Anita and Demon
DR11 -1.14 dB -17.54 dB 0:50 14-Junior's Head / Jake's Head
DR11 -5.41 dB -21.13 dB 1:31 15-Robin Covers Reggie
DR12 -0.05 dB -16.68 dB 0:31 16-Robin and Jake
DR10 -0.23 dB -17.04 dB 0:53 17-Bodies
DR11 -0.79 dB -15.11 dB 6:33 18-Pam and Reggie Meet Jason
DR12 -0.61 dB -17.05 dB 4:12 19-Reggie is Caught / Pam Attacks
DR11 -0.24 dB -16.04 dB 1:07 20-Pam and Jason
DR11 -0.06 dB -15.97 dB 2:23 21-Tommy's Dream
DR10 -2.30 dB -16.55 dB 1:11 22-Jason's Final Visit
DR12 -0.15 dB -16.07 dB 3:23 23-The Window / Tommy at Door / End Titles
DR11 -0.52 dB -14.35 dB 3:25 24-Heavy Metal
DR14 -0.13 dB -16.60 dB 1:03 25-Punk Funk
––––––––––––––––––––––––––––––––––––––––

Number of tracks: 25
Official DR value: DR11

Samplerate: 44100 Hz
Channels: 2
Bits per sample: 16
Bitrate: 800 kbps
Codec: FLAC
================================================================================




Harry Manfredini - Friday the 13th: Parts I-VI (2012) Limited Edition 6 CD Box Set


Tracklist CD6:

01. The Cemetary (Coffins and Maggots and Worms–Oh My! (05:54)
02. Here We Go Again (Opening Titles) (04:24)
03. He Only Takes Visa (03:01)
04. The Caretaker (01:22)
05. The Survivalists (07:08)
06. Marty, Kathleen, Steve, Annette, and Who Else? (01:23)
07. Let's Play 'Camp Blood' (01:02)
08. He Was Everywhere, Like TV (01:16)
09. Cort and Nikki Check Wire (03:46)
10. Megan Balances Business with Pleasure (03:10)
11. Sissy (00:51)
12. Real TV Nightmare (01:47)
13. Paula Feels the Tension (02:55)
14. You Drive, Hot Lips (05:45)
15. The Gang's All Here (06:36)
16. I Wanna Hold Your Head / Jason Takes a Dip (03:52)
17. Jason Out (01:14)
18. Unused Cue (No Title) (01:09)
19. The Rescue / Finale (03:37)


Exact Audio Copy V1.0 beta 3 from 29. August 2011

EAC extraction logfile from 8. March 2012, 14:53

Harry Manfredini / Friday the 13th: Jason Lives (Disc 6)

Used drive : PLEXTOR DVDR PX-L890SA Adapter: 1 ID: 1

Read mode : Secure
Utilize accurate stream : Yes
Defeat audio cache : Yes
Make use of C2 pointers : No

Read offset correction : 6
Overread into Lead-In and Lead-Out : No
Fill up missing offset samples with silence : Yes
Delete leading and trailing silent blocks : No
Null samples used in CRC calculations : Yes
Used interface : Installed external ASPI interface
Gap handling : Appended to previous track

Used output format : User Defined Encoder
Selected bitrate : 1024 kBit/s
Quality : High
Add ID3 tag : No
Command line compressor : C:\Program Files\Exact Audio Copy\Flac\flac.exe
Additional command line options : -V -8 -T "Genre=%genre%" -T "Artist=%artist%" -T "Title=%title%" -T "Album=%albumtitle%" -T "Date=%year%" -T "Tracknumber=%tracknr%" -T "Comment=%comment%" %source%


TOC of the extracted CD

Track | Start | Length | Start sector | End sector
––––––––––––––––––––––––––––-
1 | 0:00.00 | 5:54.70 | 0 | 26619
2 | 5:54.70 | 4:24.59 | 26620 | 46478
3 | 10:19.54 | 3:01.58 | 46479 | 60111
4 | 13:21.37 | 1:22.28 | 60112 | 66289
5 | 14:43.65 | 7:08.01 | 66290 | 98390
6 | 21:51.66 | 1:23.64 | 98391 | 104679
7 | 23:15.55 | 1:02.60 | 104680 | 109389
8 | 24:18.40 | 1:16.37 | 109390 | 115126
9 | 25:35.02 | 3:46.73 | 115127 | 132149
10 | 29:22.00 | 3:10.07 | 132150 | 146406
11 | 32:32.07 | 0:51.19 | 146407 | 150250
12 | 33:23.26 | 1:47.65 | 150251 | 158340
13 | 35:11.16 | 2:55.06 | 158341 | 171471
14 | 38:06.22 | 5:45.15 | 171472 | 197361
15 | 43:51.37 | 6:36.68 | 197362 | 227129
16 | 50:28.30 | 3:52.20 | 227130 | 244549
17 | 54:20.50 | 1:14.39 | 244550 | 250138
18 | 55:35.14 | 1:09.66 | 250139 | 255379
19 | 56:45.05 | 3:37.58 | 255380 | 271712


Track 1

Filename F:\torrent\Friday the 13th_Harry Manfredini_6_CD BOX SET\CD6\01 The Cemetary (Coffins and Maggots and Worms–Oh My!.wav

Pre-gap length 0:00:02.00

Peak level 99.5 %
Extraction speed 5.5 X
Track quality 100.0 %
Test CRC 40E2B097
Copy CRC 40E2B097
Accurately ripped (confidence 2) [ED8E0879] (AR v1)
Copy OK

Track 2

Filename F:\torrent\Friday the 13th_Harry Manfredini_6_CD BOX SET\CD6\02 Here We Go Again (Opening Titles).wav

Pre-gap length 0:00:02.00

Peak level 98.6 %
Extraction speed 6.1 X
Track quality 100.0 %
Test CRC 31378E21
Copy CRC 31378E21
Accurately ripped (confidence 2) [60A5F59C] (AR v1)
Copy OK

Track 3

Filename F:\torrent\Friday the 13th_Harry Manfredini_6_CD BOX SET\CD6\03 He Only Takes Visa.wav

Pre-gap length 0:00:02.00

Peak level 99.7 %
Extraction speed 6.2 X
Track quality 100.0 %
Test CRC EFC88434
Copy CRC EFC88434
Accurately ripped (confidence 2) [59B0AF4B] (AR v1)
Copy OK

Track 4

Filename F:\torrent\Friday the 13th_Harry Manfredini_6_CD BOX SET\CD6\04 The Caretaker.wav

Pre-gap length 0:00:02.00

Peak level 99.8 %
Extraction speed 5.3 X
Track quality 100.0 %
Test CRC 4B3ACE59
Copy CRC 4B3ACE59
Accurately ripped (confidence 2) [7BC7F8F5] (AR v1)
Copy OK

Track 5

Filename F:\torrent\Friday the 13th_Harry Manfredini_6_CD BOX SET\CD6\05 The Survivalists.wav

Pre-gap length 0:00:02.00

Peak level 99.8 %
Extraction speed 7.6 X
Track quality 100.0 %
Test CRC 657868AF
Copy CRC 657868AF
Accurately ripped (confidence 2) [C7BDD802] (AR v1)
Copy OK

Track 6

Filename F:\torrent\Friday the 13th_Harry Manfredini_6_CD BOX SET\CD6\06 Marty, Kathleen, Steve, Annette, and Who Else.wav

Pre-gap length 0:00:02.00

Peak level 98.5 %
Extraction speed 6.0 X
Track quality 100.0 %
Test CRC 92C4AA4B
Copy CRC 92C4AA4B
Accurately ripped (confidence 2) [5C0533D6] (AR v1)
Copy OK

Track 7

Filename F:\torrent\Friday the 13th_Harry Manfredini_6_CD BOX SET\CD6\07 Let's Play ''Camp Blood''.wav

Pre-gap length 0:00:02.00

Peak level 87.7 %
Extraction speed 5.5 X
Track quality 100.0 %
Test CRC B2D8E04A
Copy CRC B2D8E04A
Accurately ripped (confidence 2) [AFEE401D] (AR v1)
Copy OK

Track 8

Filename F:\torrent\Friday the 13th_Harry Manfredini_6_CD BOX SET\CD6\08 He Was Everywhere, Like TV.wav

Pre-gap length 0:00:02.00

Peak level 87.3 %
Extraction speed 6.0 X
Track quality 100.0 %
Test CRC 53F402CE
Copy CRC 53F402CE
Accurately ripped (confidence 2) [56034108] (AR v1)
Copy OK

Track 9

Filename F:\torrent\Friday the 13th_Harry Manfredini_6_CD BOX SET\CD6\09 Cort and Nikki Check Wire.wav

Pre-gap length 0:00:02.00

Peak level 97.4 %
Extraction speed 7.9 X
Track quality 100.0 %
Test CRC BF818FC2
Copy CRC BF818FC2
Accurately ripped (confidence 2) [B8360E79] (AR v1)
Copy OK

Track 10

Filename F:\torrent\Friday the 13th_Harry Manfredini_6_CD BOX SET\CD6\10 Megan Balances Business with Pleasure.wav

Pre-gap length 0:00:02.00

Peak level 77.4 %
Extraction speed 8.0 X
Track quality 100.0 %
Test CRC C2F074A5
Copy CRC C2F074A5
Accurately ripped (confidence 2) [CD130CB8] (AR v1)
Copy OK

Track 11

Filename F:\torrent\Friday the 13th_Harry Manfredini_6_CD BOX SET\CD6\11 Sissy.wav

Pre-gap length 0:00:02.00

Peak level 99.7 %
Extraction speed 5.6 X
Track quality 100.0 %
Test CRC 4CD0EDAB
Copy CRC 4CD0EDAB
Accurately ripped (confidence 2) [19829D8A] (AR v1)
Copy OK

Track 12

Filename F:\torrent\Friday the 13th_Harry Manfredini_6_CD BOX SET\CD6\12 Real TV Nightmare.wav

Pre-gap length 0:00:02.00

Peak level 99.4 %
Extraction speed 5.8 X
Track quality 99.9 %
Test CRC F95A38C4
Copy CRC F95A38C4
Accurately ripped (confidence 2) [2635B1C1] (AR v1)
Copy OK

Track 13

Filename F:\torrent\Friday the 13th_Harry Manfredini_6_CD BOX SET\CD6\13 Paula Feels the Tension.wav

Pre-gap length 0:00:02.00

Peak level 98.4 %
Extraction speed 8.3 X
Track quality 100.0 %
Test CRC AC5C5596
Copy CRC AC5C5596
Accurately ripped (confidence 2) [FB91E97C] (AR v1)
Copy OK

Track 14

Filename F:\torrent\Friday the 13th_Harry Manfredini_6_CD BOX SET\CD6\14 You Drive, Hot Lips.wav

Pre-gap length 0:00:02.00

Peak level 99.6 %
Extraction speed 9.4 X
Track quality 100.0 %
Test CRC D9653352
Copy CRC D9653352
Accurately ripped (confidence 2) [461E6FFD] (AR v1)
Copy OK

Track 15

Filename F:\torrent\Friday the 13th_Harry Manfredini_6_CD BOX SET\CD6\15 The Gang's All Here.wav

Pre-gap length 0:00:02.00

Peak level 99.1 %
Extraction speed 10.0 X
Track quality 100.0 %
Test CRC 80245311
Copy CRC 80245311
Accurately ripped (confidence 2) [E5E86633] (AR v1)
Copy OK

Track 16

Filename F:\torrent\Friday the 13th_Harry Manfredini_6_CD BOX SET\CD6\16 I Wanna Hold Your Head , Jason Takes a Dip.wav

Pre-gap length 0:00:02.00

Peak level 97.6 %
Extraction speed 9.8 X
Track quality 100.0 %
Test CRC EA682E93
Copy CRC EA682E93
Accurately ripped (confidence 2) [3471F47D] (AR v1)
Copy OK

Track 17

Filename F:\torrent\Friday the 13th_Harry Manfredini_6_CD BOX SET\CD6\17 Jason Out.wav

Pre-gap length 0:00:02.00

Peak level 95.9 %
Extraction speed 7.6 X
Track quality 100.0 %
Test CRC B01E999C
Copy CRC B01E999C
Accurately ripped (confidence 2) [DDC603AC] (AR v1)
Copy OK

Track 18

Filename F:\torrent\Friday the 13th_Harry Manfredini_6_CD BOX SET\CD6\18 Unused Cue (No Title).wav

Pre-gap length 0:00:02.00

Peak level 82.3 %
Extraction speed 7.5 X
Track quality 100.0 %
Test CRC 0B63F7C0
Copy CRC 0B63F7C0
Accurately ripped (confidence 2) [C1770BB6] (AR v1)
Copy OK

Track 19

Filename F:\torrent\Friday the 13th_Harry Manfredini_6_CD BOX SET\CD6\19 The Rescue , Finale.wav

Pre-gap length 0:00:02.00

Peak level 98.7 %
Extraction speed 8.8 X
Track quality 99.9 %
Test CRC 37596364
Copy CRC 37596364
Accurately ripped (confidence 2) [04AAD70D] (AR v1)
Copy OK


All tracks accurately ripped

No errors occurred

End of status report

==== Log checksum FB75BE538665A82A4126C4B22C88F0F0BFB92E25ADFF8029143156BA32109568 ====

foobar2000 1.2 / Dynamic Range Meter 1.1.1
log date: 2013-04-24 12:56:23

––––––––––––––––––––––––––––––––––––––––
Analyzed: / Friday the 13th: Jason Lives (Disc 6)
––––––––––––––––––––––––––––––––––––––––

DR Peak RMS Duration Track
––––––––––––––––––––––––––––––––––––––––
DR14 -0.04 dB -16.71 dB 5:55 01-The Cemetary (Coffins and Maggots and Worms–Oh My!
DR13 -0.12 dB -17.12 dB 4:25 02-Here We Go Again (Opening Titles)
DR14 -0.02 dB -18.77 dB 3:02 03-He Only Takes Visa
DR14 -0.01 dB -18.38 dB 1:22 04-The Caretaker
DR13 -0.02 dB -17.34 dB 7:08 05-The Survivalists
DR11 -0.12 dB -17.61 dB 1:24 06-Marty, Kathleen, Steve, Annette, and Who Else?
DR14 -1.14 dB -21.50 dB 1:03 07-Let's Play 'Camp Blood'
DR13 -1.18 dB -20.94 dB 1:16 08-He Was Everywhere, Like TV
DR15 -0.23 dB -20.35 dB 3:47 09-Cort and Nikki Check Wire
DR13 -2.23 dB -22.95 dB 3:10 10-Megan Balances Business with Pleasure
DR15 -0.02 dB -23.28 dB 0:51 11-Sissy
DR16 -0.05 dB -20.97 dB 1:48 12-Real TV Nightmare
DR15 -0.14 dB -19.14 dB 2:55 13-Paula Feels the Tension
DR15 -0.03 dB -19.57 dB 5:45 14-You Drive, Hot Lips
DR15 -0.07 dB -19.12 dB 6:37 15-The Gang's All Here
DR14 -0.20 dB -18.26 dB 3:52 16-I Wanna Hold Your Head / Jason Takes a Dip
DR13 -0.35 dB -16.14 dB 1:15 17-Jason Out
DR11 -1.69 dB -16.07 dB 1:10 18-Unused Cue (No Title)
DR13 -0.11 dB -15.77 dB 3:38 19-The Rescue / Finale
––––––––––––––––––––––––––––––––––––––––

Number of tracks: 19
Official DR value: DR14

Samplerate: 44100 Hz
Channels: 2
Bits per sample: 16
Bitrate: 817 kbps
Codec: FLAC
================================================================================




Harry Manfredini - Friday the 13th: Parts I-VI (2012) Limited Edition 6 CD Box Set

Harry Manfredini - Friday the 13th: Parts I-VI (2012) Limited Edition 6 CD Box Set


All thanks to original uploader - Sarant

More Movies & Soundtracks in Efgrapha Blog