Subcategories

Harry Nilsson - Pandemonium Shadow Show `67 / Aerial Ballet 68 / Aerial Pandemonium Ballet `71 (2000) Repost

Posted By: v3122
Harry Nilsson - Pandemonium Shadow Show `67 / Aerial Ballet 68 / Aerial Pandemonium Ballet `71 (2000) Repost

Harry Nilsson - Pandemonium Shadow Show `67 / Aerial Ballet 68 / Aerial Pandemonium Ballet `71 (2000)
EAC | Flac(Image) + Cue + Log & MP3 CBR 320Kbps
2CD | Camden Deluxe, 74321 757422 | ~ 620 or 249 Mb | Scans(jpg) -> 64 Mb
Pop Rock / Classic Rock

In 2000, Britain's RCA Camden line mounted an extensive Harry Nilsson reissue campaign, remastering the original albums, offering bonus tracks, and combining the LPs into two-fers where possible. His first two records were issued as part of a double disc set, with the first disc devoted to the two original albums and the second containing his remixed, re-re-recorded consolidation of the two, Aerial Pandemonium Ballet, plus four unreleased tracks, all of high quality. The remix album remains a bit bewildering and all the more so in this context, when it's possible to A-B it with the superior originals. And that's why this is worth seeking out for the curious and the faithful: the debut will still convert, and when you're converted, it's hard not to want to find all the differences between the first two and the remix record.

by Stephen Thomas Erlewine, allmusic
Harry Nilsson - Pandemonium Shadow Show `67 / Aerial Ballet 68 / Aerial Pandemonium Ballet `71 (2000):

Harry Nilsson - Pandemonium Shadow Show `67 / Aerial Ballet 68 / Aerial Pandemonium Ballet `71 (2000) Repost

Tracklist CD1:

1. Ten Little Indians (2:51)
2. 1941 (2:43)
3. Cuddly Toy (2:53)
4. She Sang Hymns Out Of Tune (2:24)
5. You Can't Do That (2:20)
6. Sleep Late, My Lady Friend (2:46)
7. She's Leaving Home (3:22)
8. There Will Never Be (2:32)
9. Without Her (2:22)
10. Freckles (2:22)
11. It's Been So Long (2:15)
12. River Deep, Mountain High (4:25)
13. Daddy's Song (2:44)
14. Good Old Desk (2:41)
15. Don't Leave Me (2:20)
16. Mr. Richland's Favorite Song (2:15)
17. Little Cowboy (1:24)
18. Together (2:12)
19. Harry Nilsson & George Tipton - Everybody's Talkin' (2:45)
20. I Said Goodbye To Me (2:17)
21. Little Cowboy (0:53)
22. Mr. Tinker (2:44)
23. One (2:54)
24. The Wailing Of The Willow (2:02)
25. Bath (1:46)

Exact Audio Copy V0.99 prebeta 3 from 28. July 2007

EAC extraction logfile from 17. June 2010, 8:21

Harry Nilsson / Pandemonium Shadow Show (1967), Aerial Ballet (1968)

Used drive : _NEC DVD_RW ND-2510A Adapter: 1 ID: 0

Read mode : Secure
Utilize accurate stream : Yes
Defeat audio cache : Yes
Make use of C2 pointers : No

Read offset correction : 48
Overread into Lead-In and Lead-Out : No
Fill up missing offset samples with silence : Yes
Delete leading and trailing silent blocks : No
Null samples used in CRC calculations : Yes
Used interface : Native Win32 interface for Win NT & 2000

Used output format : User Defined Encoder
Selected bitrate : 1024 kBit/s
Quality : High
Add ID3 tag : No
Command line compressor : C:\Program Files\Exact Audio Copy\Flac\flac.exe
Additional command line options : -8 -V %s


TOC of the extracted CD

Track | Start | Length | Start sector | End sector
––––––––––––––––––––––––––––-
1 | 0:00.32 | 2:51.45 | 32 | 12901
2 | 2:52.02 | 2:43.00 | 12902 | 25126
3 | 5:35.02 | 2:53.43 | 25127 | 38144
4 | 8:28.45 | 2:24.47 | 38145 | 48991
5 | 10:53.17 | 2:20.65 | 48992 | 59556
6 | 13:14.07 | 2:46.10 | 59557 | 72016
7 | 16:00.17 | 3:22.20 | 72017 | 87186
8 | 19:22.37 | 2:32.63 | 87187 | 98649
9 | 21:55.25 | 2:22.02 | 98650 | 109301
10 | 24:17.27 | 2:22.65 | 109302 | 120016
11 | 26:40.17 | 2:15.18 | 120017 | 130159
12 | 28:55.35 | 4:25.05 | 130160 | 150039
13 | 33:20.40 | 2:44.40 | 150040 | 162379
14 | 36:05.05 | 2:41.65 | 162380 | 174519
15 | 38:46.70 | 2:20.12 | 174520 | 185031
16 | 41:07.07 | 2:15.48 | 185032 | 195204
17 | 43:22.55 | 1:24.12 | 195205 | 201516
18 | 44:46.67 | 2:12.33 | 201517 | 211449
19 | 46:59.25 | 2:45.05 | 211450 | 223829
20 | 49:44.30 | 2:17.32 | 223830 | 234136
21 | 52:01.62 | 0:53.28 | 234137 | 238139
22 | 52:55.15 | 2:44.22 | 238140 | 250461
23 | 55:39.37 | 2:54.20 | 250462 | 263531
24 | 58:33.57 | 2:02.38 | 263532 | 272719
25 | 60:36.20 | 1:46.02 | 272720 | 280671


Range status and errors

Selected range

Filename I:\Раздача музыки Torrents\Nilsson, Harry\Pandemonium Shadow Show (1967) + Aerial Ballet (1968)\Harry Nilsson - Pandemonium Shadow Show (1967), Aerial Ballet (1968).wav

Peak level 98.8 %
Range quality 100.0 %
Test CRC AB0A30E9
Copy CRC AB0A30E9
Copy OK

No errors occurred


AccurateRip summary

Track 1 accurately ripped (confidence 3) [DE1D5C1B]
Track 2 accurately ripped (confidence 4) [E99D0E20]
Track 3 accurately ripped (confidence 4) [35BA9EBD]
Track 4 accurately ripped (confidence 3) [A97D7AA4]
Track 5 accurately ripped (confidence 4) [F00DD6C4]
Track 6 accurately ripped (confidence 3) [03D222D9]
Track 7 accurately ripped (confidence 4) [DD688ECB]
Track 8 accurately ripped (confidence 3) [D769833B]
Track 9 accurately ripped (confidence 4) [FE1FA460]
Track 10 accurately ripped (confidence 3) [0484C9AE]
Track 11 accurately ripped (confidence 3) [D1719B95]
Track 12 accurately ripped (confidence 3) [C5AC8F0D]
Track 13 accurately ripped (confidence 3) [C538FE74]
Track 14 accurately ripped (confidence 3) [28D2A44F]
Track 15 accurately ripped (confidence 3) [614F8475]
Track 16 accurately ripped (confidence 4) [D3523E42]
Track 17 accurately ripped (confidence 3) [FB9F6FAA]
Track 18 accurately ripped (confidence 4) [F86F0C3B]
Track 19 accurately ripped (confidence 4) [DE3766D5]
Track 20 accurately ripped (confidence 4) [78849D35]
Track 21 accurately ripped (confidence 3) [E6F148B3]
Track 22 accurately ripped (confidence 3) [CD442A99]
Track 23 accurately ripped (confidence 4) [6027E0DF]
Track 24 accurately ripped (confidence 4) [EB609AFE]
Track 25 accurately ripped (confidence 3) [D118985E]

All tracks accurately ripped

End of status report


[CUETools log; Date: 20.11.2017 23:56:00; Version: 2.1.5]
Pregap length 00:00:32.
[CTDB TOCID: GpNg82uYiyjVSKZYkKgXRu3Wod4-] found.
Track | CTDB Status
1 | (24/24) Accurately ripped
2 | (24/24) Accurately ripped
3 | (24/24) Accurately ripped
4 | (24/24) Accurately ripped
5 | (24/24) Accurately ripped
6 | (24/24) Accurately ripped
7 | (24/24) Accurately ripped
8 | (24/24) Accurately ripped
9 | (24/24) Accurately ripped
10 | (24/24) Accurately ripped
11 | (24/24) Accurately ripped
12 | (24/24) Accurately ripped
13 | (24/24) Accurately ripped
14 | (24/24) Accurately ripped
15 | (24/24) Accurately ripped
16 | (24/24) Accurately ripped
17 | (24/24) Accurately ripped
18 | (24/24) Accurately ripped
19 | (24/24) Accurately ripped
20 | (24/24) Accurately ripped
21 | (24/24) Accurately ripped
22 | (24/24) Accurately ripped
23 | (24/24) Accurately ripped
24 | (24/24) Accurately ripped
25 | (23/24) Accurately ripped
[AccurateRip ID: 003aae5d-041586b7-690e9e19] found.
Track [ CRC | V2 ] Status
01 [de1d5c1b|d4c10981] (07+14/44) Accurately ripped
02 [e99d0e20|4282fa79] (08+14/45) Accurately ripped
03 [35ba9ebd|979cfa63] (08+14/45) Accurately ripped
04 [a97d7aa4|483c0127] (07+14/44) Accurately ripped
05 [f00dd6c4|96c130eb] (08+14/45) Accurately ripped
06 [03d222d9|209a5b68] (07+14/44) Accurately ripped
07 [dd688ecb|d2818a55] (08+14/45) Accurately ripped
08 [d769833b|a24ce1d2] (07+14/44) Accurately ripped
09 [fe1fa460|ffd8003d] (08+14/45) Accurately ripped
10 [0484c9ae|093e206a] (07+14/44) Accurately ripped
11 [d1719b95|d58ef1c4] (07+14/44) Accurately ripped
12 [c5ac8f0d|9ef71a36] (08+14/45) Accurately ripped
13 [c538fe74|46ceb06d] (07+14/42) Accurately ripped
14 [28d2a44f|7dbcead7] (07+14/42) Accurately ripped
15 [614f8475|25792d3a] (07+14/42) Accurately ripped
16 [d3523e42|af97da96] (08+14/43) Accurately ripped
17 [fb9f6faa|bbeca167] (07+14/42) Accurately ripped
18 [f86f0c3b|45a6d3d9] (08+14/43) Accurately ripped
19 [de3766d5|4bacfbbf] (08+14/43) Accurately ripped
20 [78849d35|087e0125] (08+14/43) Accurately ripped
21 [e6f148b3|937863b3] (07+14/42) Accurately ripped
22 [cd442a99|97bcc507] (07+14/42) Accurately ripped
23 [6027e0df|48146ed3] (08+14/43) Accurately ripped
24 [eb609afe|d120421f] (09+14/44) Accurately ripped
25 [d118985e|9a8df605] (07+14/42) Accurately ripped
Offsetted by -98:
01 [bd6f83e7] (06/44) Accurately ripped
02 [96129b02] (06/45) Accurately ripped
03 [8f9c3041] (06/45) Accurately ripped
04 [38f94dd0] (06/44) Accurately ripped
05 [d85831dc] (06/45) Accurately ripped
06 [2a8a3661] (06/44) Accurately ripped
07 [859e5c69] (06/45) Accurately ripped
08 [04ff5b91] (06/44) Accurately ripped
09 [6639a946] (06/45) Accurately ripped
10 [f373f82a] (06/44) Accurately ripped
11 [96453b9f] (06/44) Accurately ripped
12 [e3349f4f] (06/45) Accurately ripped
13 [5385cc34] (05/42) Accurately ripped
14 [914c2b71] (05/42) Accurately ripped
15 [90c890f1] (05/42) Accurately ripped
16 [6cfc6daa] (05/43) Accurately ripped
17 [54736e58] (05/42) Accurately ripped
18 [13d147a3] (05/43) Accurately ripped
19 [88139d89] (05/43) Accurately ripped
20 [eda3b449] (05/43) Accurately ripped
21 [8c3faadd] (05/42) Accurately ripped
22 [349d0e39] (05/42) Accurately ripped
23 [354ed475] (05/43) Accurately ripped
24 [7588d7f0] (05/44) Accurately ripped
25 [bd4922c0] (05/42) Accurately ripped

Track Peak [ CRC32 ] [W/O NULL] [ LOG ]
– 98,8 [AB0A30E9] [A1C2C802] CRC32
01 98,8 [1C43B8EE] [17EF9FBB]
02 89,3 [5A91F646] [32867674]
03 90,5 [5C0FC427] [689E2602]
04 88,7 [94B96F59] [AAABD933]
05 84,8 [DB274CEF] [A01F73DB]
06 75,7 [6949D713] [54B0AECC]
07 98,0 [6B9E9217] [49BCF663]
08 90,4 [E84E4195] [CCE9BBD1]
09 65,7 [2B39AAB1] [9894B101]
10 86,3 [B435AA8C] [AD4D6BB4]
11 97,7 [D910EA1C] [CDD8A819]
12 97,2 [96C2578A] [AC7D74CB]
13 94,3 [B692B9BF] [C2AAAFDC]
14 85,0 [BB938D89] [58F72CDE]
15 98,8 [A9C78933] [5E37A494]
16 80,4 [3030A01E] [002AEFE3]
17 62,9 [048BAE6D] [0EED3EB7]
18 98,8 [2EF6E329] [01CAAF66]
19 81,0 [D15BA800] [56E26B66]
20 92,5 [599CFB6D] [66D5AF65]
21 64,5 [B72B90D8] [8CB403FF]
22 72,0 [F243BE72] [0F12A235]
23 76,3 [88043A22] [B40FDAFB]
24 94,5 [EA6F1A76] [A10ECD46]
25 93,0 [C0B7459E] [B194708C]


Harry Nilsson - Pandemonium Shadow Show `67 / Aerial Ballet 68 / Aerial Pandemonium Ballet `71 (2000) Repost

Tracklist CD2:

1. Introduction (0:10)
2. 1941 (2:37)
3. Daddy's Song (2:09)
4. Mr. Richland's Favorite Song (2:07)
5. Good Old Desk (2:31)
6. Harry Nilsson and George Tipton - Everybody's Talkin' (2:43)
7. Bath (1:39)
8. Fill (0:29)
9. River Deep - Mountain High (3:59)
10. Sleep Late, My Lady Friend (2:40)
11. Don't Leave Me (2:14)
12. Without Her (2:12)
13. Together (1:38)
14. One (2:21)
15. Closing (0:28)
16. As I Wander Lonely (2:04)
17. Miss Butter's Lament (2:23)
18. Sister Marie (3:05)
19. Wasting My Time (3:32)

Exact Audio Copy V0.99 prebeta 3 from 28. July 2007

EAC extraction logfile from 6. August 2010, 18:37

Harry Nilsson / Aerial Pandemonium Ballet

Used drive : _NEC DVD_RW ND-2510A Adapter: 1 ID: 0

Read mode : Secure
Utilize accurate stream : Yes
Defeat audio cache : Yes
Make use of C2 pointers : No

Read offset correction : 48
Overread into Lead-In and Lead-Out : No
Fill up missing offset samples with silence : Yes
Delete leading and trailing silent blocks : No
Null samples used in CRC calculations : Yes
Used interface : Native Win32 interface for Win NT & 2000

Used output format : User Defined Encoder
Selected bitrate : 1024 kBit/s
Quality : High
Add ID3 tag : No
Command line compressor : C:\Program Files\Exact Audio Copy\Flac\flac.exe
Additional command line options : -8 -V %s


TOC of the extracted CD

Track | Start | Length | Start sector | End sector
––––––––––––––––––––––––––––-
1 | 0:00.32 | 0:10.33 | 32 | 814
2 | 0:10.65 | 2:37.17 | 815 | 12606
3 | 2:48.07 | 2:09.23 | 12607 | 22304
4 | 4:57.30 | 2:07.02 | 22305 | 31831
5 | 7:04.32 | 2:31.40 | 31832 | 43196
6 | 9:35.72 | 2:43.35 | 43197 | 55456
7 | 12:19.32 | 1:39.03 | 55457 | 62884
8 | 13:58.35 | 0:29.72 | 62885 | 65131
9 | 14:28.32 | 3:59.15 | 65132 | 83071
10 | 18:27.47 | 2:40.00 | 83072 | 95071
11 | 21:07.47 | 2:14.53 | 95072 | 105174
12 | 23:22.25 | 2:12.60 | 105175 | 115134
13 | 25:35.10 | 1:38.50 | 115135 | 122534
14 | 27:13.60 | 2:21.50 | 122535 | 133159
15 | 29:35.35 | 0:28.70 | 133160 | 135329
16 | 30:04.30 | 2:04.12 | 135330 | 144641
17 | 32:08.42 | 2:23.35 | 144642 | 155401
18 | 34:32.02 | 3:05.08 | 155402 | 169284
19 | 37:37.10 | 3:32.50 | 169285 | 185234


Range status and errors

Selected range

Filename I:\Раздача музыки Torrents\Nilsson, Harry\Pandemonium Shadow Show (1967) + Aerial Ballet (1968)\disc2\Harry Nilsson - Aerial Pandemonium Ballet.wav

Peak level 98.8 %
Range quality 100.0 %
Test CRC 6B15B705
Copy CRC 6B15B705
Copy OK

No errors occurred


AccurateRip summary

Track 1 accurately ripped (confidence 2) [1CEBA675]
Track 2 accurately ripped (confidence 3) [7FACEC26]
Track 3 accurately ripped (confidence 3) [856F1AF0]
Track 4 accurately ripped (confidence 3) [D6BC9DCF]
Track 5 accurately ripped (confidence 3) [C20446FA]
Track 6 accurately ripped (confidence 3) [4E84DFED]
Track 7 accurately ripped (confidence 2) [B7BF285B]
Track 8 accurately ripped (confidence 2) [9A5B5159]
Track 9 accurately ripped (confidence 2) [D1C8DCA3]
Track 10 accurately ripped (confidence 2) [E334BC0D]
Track 11 accurately ripped (confidence 2) [AFDDBF10]
Track 12 accurately ripped (confidence 3) [A3A5E845]
Track 13 accurately ripped (confidence 3) [74CCD64B]
Track 14 accurately ripped (confidence 3) [D258236E]
Track 15 accurately ripped (confidence 2) [3BCCC374]
Track 16 accurately ripped (confidence 3) [D6E562A0]
Track 17 accurately ripped (confidence 4) [8972DA7A]
Track 18 accurately ripped (confidence 3) [1FEB6B78]
Track 19 accurately ripped (confidence 3) [51ABE010]

All tracks accurately ripped

End of status report


[CUETools log; Date: 20.11.2017 23:56:21; Version: 2.1.5]
Pregap length 00:00:32.
[CTDB TOCID: 2kg9wsmZmTlzBdRhFGhnYkmoOZg-] found.
Track | CTDB Status
1 | (24/24) Accurately ripped
2 | (24/24) Accurately ripped
3 | (24/24) Accurately ripped
4 | (24/24) Accurately ripped
5 | (24/24) Accurately ripped
6 | (24/24) Accurately ripped
7 | (24/24) Accurately ripped
8 | (24/24) Accurately ripped
9 | (24/24) Accurately ripped
10 | (24/24) Accurately ripped
11 | (24/24) Accurately ripped
12 | (24/24) Accurately ripped
13 | (24/24) Accurately ripped
14 | (24/24) Accurately ripped
15 | (24/24) Accurately ripped
16 | (24/24) Accurately ripped
17 | (24/24) Accurately ripped
18 | (24/24) Accurately ripped
19 | (24/24) Accurately ripped
[AccurateRip ID: 001a8641-01792032-fd09a513] found.
Track [ CRC | V2 ] Status
01 [1ceba675|ab4fae26] (06+15/42) Accurately ripped
02 [7facec26|07d19a4b] (07+15/43) Accurately ripped
03 [856f1af0|f2345f5b] (07+15/43) Accurately ripped
04 [d6bc9dcf|1197d55d] (08+15/44) Accurately ripped
05 [c20446fa|a607e50d] (07+15/43) Accurately ripped
06 [4e84dfed|63b2d883] (07+15/43) Accurately ripped
07 [b7bf285b|b7b17c84] (06+15/42) Accurately ripped
08 [9a5b5159|e5a4be59] (06+15/42) Accurately ripped
09 [d1c8dca3|f3248e37] (06+15/42) Accurately ripped
10 [e334bc0d|9bfa9302] (06+15/42) Accurately ripped
11 [afddbf10|fbe007d7] (06+15/42) Accurately ripped
12 [a3a5e845|142b0ad0] (07+15/43) Accurately ripped
13 [74ccd64b|4d0f5f9f] (07+15/43) Accurately ripped
14 [d258236e|7ecb5ba4] (07+15/43) Accurately ripped
15 [3bccc374|82269693] (06+15/42) Accurately ripped
16 [d6e562a0|7e27ea26] (07+15/43) Accurately ripped
17 [8972da7a|63394f30] (08+15/44) Accurately ripped
18 [1feb6b78|6628f13f] (07+15/43) Accurately ripped
19 [51abe010|ffaf20a7] (07+15/43) Accurately ripped
Offsetted by -676:
01 [9217515a] (04/42) Accurately ripped
02 [3c65fd81] (04/43) Accurately ripped
03 [11b93e36] (04/43) Accurately ripped
04 [f7de3ebd] (04/44) Accurately ripped
05 [bb2d433a] (04/43) Accurately ripped
06 [bb330a70] (04/43) Accurately ripped
07 [a8d459f8] (04/42) Accurately ripped
08 [8aa4b9c1] (04/42) Accurately ripped
09 [45e2c033] (04/42) Accurately ripped
10 [4ee8ae7a] (04/42) Accurately ripped
11 [cf8210dd] (04/42) Accurately ripped
12 [57d06337] (04/43) Accurately ripped
13 [5ae3fa28] (04/43) Accurately ripped
14 [837709a9] (04/43) Accurately ripped
15 [b105fa64] (04/42) Accurately ripped
16 [efd6a734] (04/43) Accurately ripped
17 [e1ae70be] (04/44) Accurately ripped
18 [767ab005] (04/43) Accurately ripped
19 [b21665f7] (04/43) Accurately ripped

Track Peak [ CRC32 ] [W/O NULL] [ LOG ]
– 98,8 [6B15B705] [52E2A64E] CRC32
01 67,2 [65FE3AB9] [32D3A523]
02 79,4 [9A7DC5DA] [82AA2C29]
03 81,6 [9FAEF8A4] [FAAEF650]
04 86,3 [ED08B496] [B4DB1DC3]
05 92,7 [DDCA7985] [918A8432]
06 85,0 [83516969] [76E0DA74]
07 80,4 [48AA5672] [E69D4BA0]
08 83,7 [2F3593B6] [51AC512B]
09 87,4 [327ED036] [2C88CDE3]
10 79,0 [C27E4363] [D921ABA9]
11 88,5 [13DE121C] [2E53E164]
12 79,0 [009E8DBF] [1163F04C]
13 87,8 [791F9AF0] [4A534EC8]
14 86,6 [40B996F1] [12E9A47D]
15 55,4 [4974CF05] [16061390]
16 95,9 [99FB2CAB] [0E4E69AB]
17 92,6 [44466AF3] [7D5A42D7]
18 98,8 [9674FB96] [FBB73F92]
19 91,2 [1E0C6F99] [55AB4100]


Harry Nilsson - Pandemonium Shadow Show `67 / Aerial Ballet 68 / Aerial Pandemonium Ballet `71 (2000) Repost

All thanks go to the original releaser

Harry Nilsson or Harry Nilsson in my Blog

Download Harry Nilsson - Pandemonium Shadow Show `67 / Aerial Ballet 68 / Aerial Pandemonium Ballet `71 (2000):