Subcategories

Heart - The Essential Heart (Limited Editon 3.0) (2008) 3CD Set

Posted By: Designol
Heart - The Essential Heart (Limited Editon 3.0) (2008) 3CD Set

Heart - The Essential Heart (Limited Editon 3.0) (2008) 3CD Set
EAC | FLAC | Tracks (Cue&Log) ~ 1.34 Gb (incl 5%) | Mp3 (CBR320) ~ 457 Mb (incl 5%) | Scans ~ 121 Mb
Genre: Rock, Hard Rock, Pop Rock | Label: Epic/Capitol/Legacy | # 88697 29091 2 | Time: 03:09:58

Essential Heart is the only compilation that covers the group's tenure at both Epic and Capitol. All the hits of the '70s are featured on the first disc and include "Crazy on You", "Magic Man", "Barracuda" and "Straight On." The second disc includes all of their comeback material recorded in the '80s such as "What About Love?", "These Dreams", and "Nothin' at All". [Epic/Capitol/Legacy's Limited Edition 3.0 appeared in 2008 and included a bonus CD – in addition to the original, two-CD set.]

Review by Al Campbell, Allmusic.com

Of all the Greatest hits compilations released by Heart over the last ten years or so, The Essential Heart 3.0 is finally the most comprehensive collection with the inclusion of a thrid disc. Although the third disc only has eight tracks, all of them really do belong on a title called The Essential Heart.

For the first time since being left of the band's 1980 Greatest Hits disc, "Strange Euphoria" and "Hit Single" have returned in CD format. Also, any past Heart collection should have at least included "Mistral Wind". This collection contains the live version for the 1980 Greatest Hits. (Personally, I would have liked to have seen the 2002 version from Alive In Seattle, but, having "Mistral Wind" in the set is important no matter what version. It is THE song Heart is all about; acoustic ballads to Zeppelin driven rockers.)

"Bebe Le Stange" was on the band's 1998 Greatest Hits and left off the first Essential release for some odd reason. Same for "Strong, Strong Wind". Both tracks are available here. Another concert crowd pleaser, "City's Burning", has also been included. Rounding out the set are "Sylvan Song" and "Dream Of The Archer", also songs worthy of inclusion on an Essential Heart release (again, I would have personally prefered the newer version from The Road Home).

I rated the collection four stars because I think disc three could have been better. There are still a few obious omissions of songs that were singles or that should be included in their own right ("Magazine", "Without You", "Wait For An Answer", "The Perfect Goodbye", "Oldest Story In The World", "Make Me", "Alomst Paradise" sung by Mike Reno and Ann Wilson from Footloose, "The Best Man In The World" by Ann Wilson from The Golden Child, "All For Love" by Nancy Wilson from Singles). Another nice touch would have been to include some of the live tracks from Alive In Seattle, particularly the Heart originals ("Sister Wild Rose", "Heaven", "Two Faces Of Eve", "Break The Rock"). I'm not really fond of the paper board packaging. I'd much prefer my musical treasures to be protected in plastic jewel cases. (Yes, I fully expect to be around another 100 years! LOL)

As a collecion of essential Heart music, The Essential Heart 3.0 gets nothing but top marks. Perhaps a future essential release will take some of my suggestions to Heart, pun intended. ;-)

Review by Rob Astor, Amazon.com

Heart - The Essential Heart (Limited Editon 3.0) (2008) 3CD Set



Tracklist:

CD1:

01. Crazy On You (04:54)
02. Magic Man (05:30)
03. Dreamboat Annie (Reprise) (03:49)
04. Barracuda (04:23)
05. Little Queen (05:12)
06. Kick It Out (02:46)
07. Love Alive (04:24)
08. Heartless (05:00)
09. Straight On (05:06)
10. Dog & Butterfly (05:21)
11. Silver Wheels (01:25)
12. Even It Up (05:12)
13. Rock And Roll (Live) (05:57)
14. Tell It Like It Is (03:55)
15. Unchained Melody (Live) (04:32)
16. This Man Is Mine (03:06)
17. How Can I Refuse (03:54)
18. Allies (04:41)

CD2:

01. What About Love? (03:41)
02. Never (04:05)
03. These Dreams (04:14)
04. Nothin' At All (04:13)
05. If Looks Could Kill (03:43)
06. Alone (03:40)
07. Who Will You Run To (04:06)
08. There's The Girl (03:50)
09. I Want You So Bad (04:19)
10. All I Wanna Do Is Make Love To You (05:07)
11. Wild Child (04:29)
12. I Didn't Want To Need You (04:07)
13. Stranded (03:56)
14. Secret (04:14)
15. You're The Voice (Live) (05:07)
16. Will You Be There (In The Morning) (04:28)
17. Black On Black II (03:53)
18. Ring Them Bells (03:51)
19. The Road Home (Edit) (03:34)

CD3:

01. Sylvan Song (02:14)
02. Dream Of The Archer (04:32)
03. Bebe Le Strange (03:40)
04. Mistral Wind (Live) (07:14)
05. Hit Single (02:35)
06. Strange Euphoria (02:46)
07. City's Burning (04:26)
08. Strong, Strong Wind (04:25)


Exact Audio Copy V1.0 beta 3 from 29. August 2011

EAC extraction logfile from 8. March 2014, 16:20

Heart / The Essential Heart (Limited Editon 3.0)

Used drive : HL-DT-STBD-RE BH10LS30 Adapter: 5 ID: 0

Read mode : Secure
Utilize accurate stream : Yes
Defeat audio cache : Yes
Make use of C2 pointers : No

Read offset correction : 667
Overread into Lead-In and Lead-Out : No
Fill up missing offset samples with silence : Yes
Delete leading and trailing silent blocks : No
Null samples used in CRC calculations : Yes
Used interface : Native Win32 interface for Win NT & 2000
Gap handling : Appended to previous track

Used output format : User Defined Encoder
Selected bitrate : 1024 kBit/s
Quality : High
Add ID3 tag : No
Command line compressor : F:\8\Program Files (x86)\Exact Audio Copy\Flac\flac.exe
Additional command line options : -8 -V -T "ARTIST=%artist%" -T "TITLE=%title%" -T "ALBUM=%albumtitle%" -T "DATE=%year%" -T "TRACKNUMBER=%tracknr%" -T "TOTALTRACKS=%numtracks%" -T "GENRE=%genre%" -T "ALBUMARTIST=%albumartist%" -T "ALBUM ARTIST=%albumartist%" -T "COMMENT=EAC Secure Mode, Test & Copy, AccurateRip, FLAC -8" %source%


TOC of the extracted CD

Track | Start | Length | Start sector | End sector
––––––––––––––––––––––––––––-
1 | 0:00.00 | 4:54.50 | 0 | 22099
2 | 4:54.50 | 5:30.57 | 22100 | 46906
3 | 10:25.32 | 3:49.45 | 46907 | 64126
4 | 14:15.02 | 4:23.05 | 64127 | 83856
5 | 18:38.07 | 5:12.73 | 83857 | 107329
6 | 23:51.05 | 2:46.37 | 107330 | 119816
7 | 26:37.42 | 4:24.73 | 119817 | 139689
8 | 31:02.40 | 5:00.42 | 139690 | 162231
9 | 36:03.07 | 5:06.40 | 162232 | 185221
10 | 41:09.47 | 5:21.35 | 185222 | 209331
11 | 46:31.07 | 1:25.05 | 209332 | 215711
12 | 47:56.12 | 5:12.03 | 215712 | 239114
13 | 53:08.15 | 5:57.45 | 239115 | 265934
14 | 59:05.60 | 3:55.12 | 265935 | 283571
15 | 63:00.72 | 4:32.38 | 283572 | 304009
16 | 67:33.35 | 3:06.45 | 304010 | 318004
17 | 70:40.05 | 3:54.00 | 318005 | 335554
18 | 74:34.05 | 4:41.40 | 335555 | 356669


Track 1

Filename I:\Torrent\Torrent II\Heart - The Essential Heart (Limited Edition 3.0) - (2008) [FLAC] {Epic 88697 29091 2}\Disc 1\01 - Crazy On You.wav

Pre-gap length 0:00:02.00

Peak level 99.9 %
Extraction speed 1.3 X
Track quality 100.0 %
Test CRC 1DFC28A8
Copy CRC 1DFC28A8
Accurately ripped (confidence 52) [6578ECA5] (AR v2)
Copy OK

Track 2

Filename I:\Torrent\Torrent II\Heart - The Essential Heart (Limited Edition 3.0) - (2008) [FLAC] {Epic 88697 29091 2}\Disc 1\02 - Magic Man.wav

Peak level 100.0 %
Extraction speed 1.4 X
Track quality 100.0 %
Test CRC A5CBC155
Copy CRC A5CBC155
Accurately ripped (confidence 53) [0A740835] (AR v2)
Copy OK

Track 3

Filename I:\Torrent\Torrent II\Heart - The Essential Heart (Limited Edition 3.0) - (2008) [FLAC] {Epic 88697 29091 2}\Disc 1\03 - Dreamboat Annie (Reprise).wav

Pre-gap length 0:00:01.73

Peak level 100.0 %
Extraction speed 1.5 X
Track quality 100.0 %
Test CRC 99C96A47
Copy CRC 99C96A47
Accurately ripped (confidence 52) [0EFD2CA9] (AR v2)
Copy OK

Track 4

Filename I:\Torrent\Torrent II\Heart - The Essential Heart (Limited Edition 3.0) - (2008) [FLAC] {Epic 88697 29091 2}\Disc 1\04 - Barracuda.wav

Pre-gap length 0:00:00.62

Peak level 100.0 %
Extraction speed 1.6 X
Track quality 100.0 %
Test CRC A2123D8C
Copy CRC A2123D8C
Accurately ripped (confidence 52) [5905A327] (AR v2)
Copy OK

Track 5

Filename I:\Torrent\Torrent II\Heart - The Essential Heart (Limited Edition 3.0) - (2008) [FLAC] {Epic 88697 29091 2}\Disc 1\05 - Little Queen.wav

Pre-gap length 0:00:00.33

Peak level 100.0 %
Extraction speed 1.8 X
Track quality 100.0 %
Test CRC 52746A49
Copy CRC 52746A49
Accurately ripped (confidence 53) [146AD149] (AR v2)
Copy OK

Track 6

Filename I:\Torrent\Torrent II\Heart - The Essential Heart (Limited Edition 3.0) - (2008) [FLAC] {Epic 88697 29091 2}\Disc 1\06 - Kick It Out.wav

Pre-gap length 0:00:00.04

Peak level 99.8 %
Extraction speed 1.7 X
Track quality 100.0 %
Test CRC 7BFEAAAA
Copy CRC 7BFEAAAA
Accurately ripped (confidence 52) [BC47EDD7] (AR v2)
Copy OK

Track 7

Filename I:\Torrent\Torrent II\Heart - The Essential Heart (Limited Edition 3.0) - (2008) [FLAC] {Epic 88697 29091 2}\Disc 1\07 - Love Alive.wav

Pre-gap length 0:00:01.56

Peak level 100.0 %
Extraction speed 1.9 X
Track quality 100.0 %
Test CRC 2532F06F
Copy CRC 2532F06F
Accurately ripped (confidence 53) [4CDFE8F3] (AR v2)
Copy OK

Track 8

Filename I:\Torrent\Torrent II\Heart - The Essential Heart (Limited Edition 3.0) - (2008) [FLAC] {Epic 88697 29091 2}\Disc 1\08 - Heartless.wav

Pre-gap length 0:00:02.06

Peak level 100.0 %
Extraction speed 2.0 X
Track quality 100.0 %
Test CRC 2E645A2F
Copy CRC 2E645A2F
Accurately ripped (confidence 52) [83639002] (AR v2)
Copy OK

Track 9

Filename I:\Torrent\Torrent II\Heart - The Essential Heart (Limited Edition 3.0) - (2008) [FLAC] {Epic 88697 29091 2}\Disc 1\09 - Straight On.wav

Peak level 99.8 %
Extraction speed 2.1 X
Track quality 100.0 %
Test CRC C9694A9E
Copy CRC C9694A9E
Accurately ripped (confidence 52) [F77C2786] (AR v2)
Copy OK

Track 10

Filename I:\Torrent\Torrent II\Heart - The Essential Heart (Limited Edition 3.0) - (2008) [FLAC] {Epic 88697 29091 2}\Disc 1\10 - Dog & Butterfly.wav

Peak level 99.8 %
Extraction speed 2.2 X
Track quality 100.0 %
Test CRC 45D9721F
Copy CRC 45D9721F
Accurately ripped (confidence 53) [56CC1043] (AR v2)
Copy OK

Track 11

Filename I:\Torrent\Torrent II\Heart - The Essential Heart (Limited Edition 3.0) - (2008) [FLAC] {Epic 88697 29091 2}\Disc 1\11 - Silver Wheels.wav

Pre-gap length 0:00:00.09

Peak level 89.0 %
Extraction speed 1.7 X
Track quality 100.0 %
Test CRC 1366B019
Copy CRC 1366B019
Accurately ripped (confidence 52) [AC610A77] (AR v2)
Copy OK

Track 12

Filename I:\Torrent\Torrent II\Heart - The Essential Heart (Limited Edition 3.0) - (2008) [FLAC] {Epic 88697 29091 2}\Disc 1\12 - Even It Up.wav

Pre-gap length 0:00:02.20

Peak level 99.8 %
Extraction speed 2.3 X
Track quality 100.0 %
Test CRC 4DAE95A8
Copy CRC 4DAE95A8
Accurately ripped (confidence 53) [9DE59BC6] (AR v2)
Copy OK

Track 13

Filename I:\Torrent\Torrent II\Heart - The Essential Heart (Limited Edition 3.0) - (2008) [FLAC] {Epic 88697 29091 2}\Disc 1\13 - Rock And Roll (Live).wav

Pre-gap length 0:00:00.86

Peak level 100.0 %
Extraction speed 2.4 X
Track quality 100.0 %
Test CRC A3FBC4BE
Copy CRC A3FBC4BE
Accurately ripped (confidence 52) [A87C0751] (AR v2)
Copy OK

Track 14

Filename I:\Torrent\Torrent II\Heart - The Essential Heart (Limited Edition 3.0) - (2008) [FLAC] {Epic 88697 29091 2}\Disc 1\14 - Tell It Like It Is.wav

Pre-gap length 0:00:01.46

Peak level 100.0 %
Extraction speed 2.4 X
Track quality 100.0 %
Test CRC 9D28DE27
Copy CRC 9D28DE27
Accurately ripped (confidence 51) [2B5A3FD0] (AR v2)
Copy OK

Track 15

Filename I:\Torrent\Torrent II\Heart - The Essential Heart (Limited Edition 3.0) - (2008) [FLAC] {Epic 88697 29091 2}\Disc 1\15 - Unchained Melody (Live).wav

Peak level 99.8 %
Extraction speed 2.5 X
Track quality 100.0 %
Test CRC 32CBFCA5
Copy CRC 32CBFCA5
Accurately ripped (confidence 52) [88480A6C] (AR v2)
Copy OK

Track 16

Filename I:\Torrent\Torrent II\Heart - The Essential Heart (Limited Edition 3.0) - (2008) [FLAC] {Epic 88697 29091 2}\Disc 1\16 - This Man Is Mine.wav

Pre-gap length 0:00:01.77

Peak level 99.8 %
Extraction speed 2.4 X
Track quality 100.0 %
Test CRC ABC20BDE
Copy CRC ABC20BDE
Accurately ripped (confidence 53) [B9DD8B7F] (AR v2)
Copy OK

Track 17

Filename I:\Torrent\Torrent II\Heart - The Essential Heart (Limited Edition 3.0) - (2008) [FLAC] {Epic 88697 29091 2}\Disc 1\17 - How Can I Refuse.wav

Pre-gap length 0:00:00.64

Peak level 100.0 %
Extraction speed 2.6 X
Track quality 100.0 %
Test CRC E3C2124B
Copy CRC E3C2124B
Accurately ripped (confidence 50) [FF5788BC] (AR v2)
Copy OK

Track 18

Filename I:\Torrent\Torrent II\Heart - The Essential Heart (Limited Edition 3.0) - (2008) [FLAC] {Epic 88697 29091 2}\Disc 1\18 - Allies.wav

Pre-gap length 0:00:00.40

Peak level 99.8 %
Extraction speed 2.4 X
Track quality 99.9 %
Test CRC FB027D71
Copy CRC FB027D71
Accurately ripped (confidence 48) [DCD51F43] (AR v2)
Copy OK


All tracks accurately ripped

No errors occurred

End of status report

–– CUETools DB Plugin V2.1.3

[CTDB TOCID: _80bZZfSV.vcmq8UjajD6Gm8ZD8-] found, Submit result: _80bZZfSV.vcmq8UjajD6Gm8ZD8- has been confirmed
[797c930c] (179/362) Accurately ripped
[958453ba] (178/362) No match
[2e01f32f] (001/362) No match
[9d4d8d11] (001/362) No match
[d5c5587e] (001/362) No match
[3f8fea02] (001/362) No match
[5f88582c] (001/362) No match


==== Log checksum 1C0B5CE2528FFB1EBDDF5D3BB91DA417C24A8879BFFD05CFE397F38572D7D2A4 ====

foobar2000 1.3.8 / Dynamic Range Meter 1.1.1
log date: 2015-06-01 19:38:07

––––––––––––––––––––––––––––––––––––––––
Analyzed: Heart / The Essential Heart (Limited Editon 3.0)
––––––––––––––––––––––––––––––––––––––––

DR Peak RMS Duration Track
––––––––––––––––––––––––––––––––––––––––
DR8 0.00 dB -10.38 dB 4:55 01-Crazy On You
DR8 0.00 dB -9.90 dB 5:31 02-Magic Man
DR10 0.00 dB -12.68 dB 3:50 03-Dreamboat Annie (Reprise)
DR9 0.00 dB -10.01 dB 4:23 04-Barracuda
DR10 0.00 dB -12.24 dB 5:13 05-Little Queen
DR9 -0.01 dB -10.92 dB 2:46 06-Kick It Out
DR9 0.00 dB -12.53 dB 4:25 07-Love Alive
DR9 0.00 dB -10.44 dB 5:01 08-Heartless
DR10 -0.01 dB -11.51 dB 5:07 09-Straight On
DR10 -0.01 dB -12.71 dB 5:21 10-Dog & Butterfly
DR12 -1.01 dB -17.61 dB 1:25 11-Silver Wheels
DR10 -0.01 dB -11.65 dB 5:12 12-Even It Up
DR7 0.00 dB -8.63 dB 5:58 13-Rock And Roll (Live)
DR8 0.00 dB -10.70 dB 3:55 14-Tell It Like It Is
DR9 -0.01 dB -11.85 dB 4:33 15-Unchained Melody (Live)
DR9 -0.01 dB -11.14 dB 3:07 16-This Man Is Mine
DR8 0.00 dB -8.87 dB 3:54 17-How Can I Refuse
DR10 -0.01 dB -12.86 dB 4:42 18-Allies
––––––––––––––––––––––––––––––––––––––––

Number of tracks: 18
Official DR value: DR9

Samplerate: 44100 Hz
Channels: 2
Bits per sample: 16
Bitrate: 840 kbps
Codec: FLAC
================================================================================


Exact Audio Copy V1.0 beta 3 from 29. August 2011

EAC extraction logfile from 8. March 2014, 17:04

Heart / The Essential Heart (Limited Edition 3.0)

Used drive : HL-DT-STDVDRAM GH24NS90 Adapter: 4 ID: 0

Read mode : Secure
Utilize accurate stream : Yes
Defeat audio cache : Yes
Make use of C2 pointers : No

Read offset correction : 6
Overread into Lead-In and Lead-Out : No
Fill up missing offset samples with silence : Yes
Delete leading and trailing silent blocks : No
Null samples used in CRC calculations : Yes
Used interface : Native Win32 interface for Win NT & 2000
Gap handling : Appended to previous track

Used output format : User Defined Encoder
Selected bitrate : 1024 kBit/s
Quality : High
Add ID3 tag : No
Command line compressor : F:\8\Program Files (x86)\Exact Audio Copy\Flac\flac.exe
Additional command line options : -8 -V -T "ARTIST=%artist%" -T "TITLE=%title%" -T "ALBUM=%albumtitle%" -T "DATE=%year%" -T "TRACKNUMBER=%tracknr%" -T "TOTALTRACKS=%numtracks%" -T "GENRE=%genre%" -T "ALBUMARTIST=%albumartist%" -T "ALBUM ARTIST=%albumartist%" -T "COMMENT=EAC Secure Mode, Test & Copy, AccurateRip, FLAC -8" %source%


TOC of the extracted CD

Track | Start | Length | Start sector | End sector
––––––––––––––––––––––––––––-
1 | 0:00.00 | 3:41.40 | 0 | 16614
2 | 3:41.40 | 4:05.37 | 16615 | 35026
3 | 7:47.02 | 4:14.05 | 35027 | 54081
4 | 12:01.07 | 4:13.18 | 54082 | 73074
5 | 16:14.25 | 3:43.65 | 73075 | 89864
6 | 19:58.15 | 3:40.40 | 89865 | 106404
7 | 23:38.55 | 4:06.00 | 106405 | 124854
8 | 27:44.55 | 3:50.27 | 124855 | 142131
9 | 31:35.07 | 4:19.38 | 142132 | 161594
10 | 35:54.45 | 5:07.42 | 161595 | 184661
11 | 41:02.12 | 4:29.43 | 184662 | 204879
12 | 45:31.55 | 4:07.00 | 204880 | 223404
13 | 49:38.55 | 3:56.20 | 223405 | 241124
14 | 53:35.00 | 4:14.35 | 241125 | 260209
15 | 57:49.35 | 5:07.22 | 260210 | 283256
16 | 62:56.57 | 4:28.65 | 283257 | 303421
17 | 67:25.47 | 3:53.03 | 303422 | 320899
18 | 71:18.50 | 3:51.20 | 320900 | 338244
19 | 75:09.70 | 3:34.55 | 338245 | 354349


Track 1

Filename I:\Torrent\Torrent II\Heart - The Essential Heart (Limited Edition 3.0) - (2008) [FLAC] {Epic 88697 29091 2}\Disc 2\01 - What About Love.wav

Pre-gap length 0:00:02.00

Peak level 99.9 %
Extraction speed 4.8 X
Track quality 100.0 %
Test CRC CC1EC94E
Copy CRC CC1EC94E
Accurately ripped (confidence 48) [F2E6470D] (AR v2)
Copy OK

Track 2

Filename I:\Torrent\Torrent II\Heart - The Essential Heart (Limited Edition 3.0) - (2008) [FLAC] {Epic 88697 29091 2}\Disc 2\02 - Never.wav

Pre-gap length 0:00:01.20

Peak level 100.0 %
Extraction speed 5.4 X
Track quality 100.0 %
Test CRC 627252C4
Copy CRC 627252C4
Accurately ripped (confidence 49) [6191E428] (AR v2)
Copy OK

Track 3

Filename I:\Torrent\Torrent II\Heart - The Essential Heart (Limited Edition 3.0) - (2008) [FLAC] {Epic 88697 29091 2}\Disc 2\03 - These Dreams.wav

Pre-gap length 0:00:01.00

Peak level 99.8 %
Extraction speed 5.8 X
Track quality 100.0 %
Test CRC 2DDC329C
Copy CRC 2DDC329C
Accurately ripped (confidence 49) [8B70C481] (AR v2)
Copy OK

Track 4

Filename I:\Torrent\Torrent II\Heart - The Essential Heart (Limited Edition 3.0) - (2008) [FLAC] {Epic 88697 29091 2}\Disc 2\04 - Nothin' At All.wav

Pre-gap length 0:00:01.22

Peak level 100.0 %
Extraction speed 6.1 X
Track quality 100.0 %
Test CRC EAD684B1
Copy CRC EAD684B1
Accurately ripped (confidence 49) [9B98DE04] (AR v2)
Copy OK

Track 5

Filename I:\Torrent\Torrent II\Heart - The Essential Heart (Limited Edition 3.0) - (2008) [FLAC] {Epic 88697 29091 2}\Disc 2\05 - If Looks Could Kill.wav

Pre-gap length 0:00:01.64

Peak level 99.8 %
Extraction speed 6.4 X
Track quality 100.0 %
Test CRC 3F10D027
Copy CRC 3F10D027
Accurately ripped (confidence 49) [7FCE8A67] (AR v2)
Copy OK

Track 6

Filename I:\Torrent\Torrent II\Heart - The Essential Heart (Limited Edition 3.0) - (2008) [FLAC] {Epic 88697 29091 2}\Disc 2\06 - Alone.wav

Pre-gap length 0:00:01.86

Peak level 100.0 %
Extraction speed 1.6 X
Track quality 100.0 %
Test CRC C0E8467B
Copy CRC C0E8467B
Accurately ripped (confidence 49) [B1A3ABCC] (AR v2)
Copy OK

Track 7

Filename I:\Torrent\Torrent II\Heart - The Essential Heart (Limited Edition 3.0) - (2008) [FLAC] {Epic 88697 29091 2}\Disc 2\07 - Who Will You Run To.wav

Pre-gap length 0:00:01.57

Peak level 100.0 %
Extraction speed 1.5 X
Track quality 99.9 %
Test CRC F2B61CCA
Copy CRC F2B61CCA
Accurately ripped (confidence 49) [0B12F7E3] (AR v2)
Copy OK

Track 8

Filename I:\Torrent\Torrent II\Heart - The Essential Heart (Limited Edition 3.0) - (2008) [FLAC] {Epic 88697 29091 2}\Disc 2\08 - There's The Girl.wav

Pre-gap length 0:00:00.20

Peak level 99.8 %
Extraction speed 1.8 X
Track quality 100.0 %
Test CRC 8383205A
Copy CRC 8383205A
Accurately ripped (confidence 49) [AD161B51] (AR v2)
Copy OK

Track 9

Filename I:\Torrent\Torrent II\Heart - The Essential Heart (Limited Edition 3.0) - (2008) [FLAC] {Epic 88697 29091 2}\Disc 2\09 - I Want You So Bad.wav

Peak level 99.8 %
Extraction speed 1.9 X
Track quality 100.0 %
Test CRC 7C3E7A53
Copy CRC 7C3E7A53
Accurately ripped (confidence 49) [4C0205E7] (AR v2)
Copy OK

Track 10

Filename I:\Torrent\Torrent II\Heart - The Essential Heart (Limited Edition 3.0) - (2008) [FLAC] {Epic 88697 29091 2}\Disc 2\10 - All I Wanna Do Is Make Love To You.wav

Peak level 100.0 %
Extraction speed 2.0 X
Track quality 100.0 %
Test CRC 96C1599A
Copy CRC 96C1599A
Accurately ripped (confidence 49) [40FBE98F] (AR v2)
Copy OK

Track 11

Filename I:\Torrent\Torrent II\Heart - The Essential Heart (Limited Edition 3.0) - (2008) [FLAC] {Epic 88697 29091 2}\Disc 2\11 - Wild Child.wav

Peak level 100.0 %
Extraction speed 1.8 X
Track quality 99.9 %
Test CRC EFAAA4F8
Copy CRC EFAAA4F8
Accurately ripped (confidence 50) [B06223FA] (AR v2)
Copy OK

Track 12

Filename I:\Torrent\Torrent II\Heart - The Essential Heart (Limited Edition 3.0) - (2008) [FLAC] {Epic 88697 29091 2}\Disc 2\12 - I Didn't Want To Need You.wav

Pre-gap length 0:00:00.10

Peak level 100.0 %
Extraction speed 1.8 X
Track quality 99.9 %
Test CRC C96B6FD0
Copy CRC C96B6FD0
Accurately ripped (confidence 50) [1A62F017] (AR v2)
Copy OK

Track 13

Filename I:\Torrent\Torrent II\Heart - The Essential Heart (Limited Edition 3.0) - (2008) [FLAC] {Epic 88697 29091 2}\Disc 2\13 - Stranded.wav

Pre-gap length 0:00:01.26

Peak level 100.0 %
Extraction speed 2.1 X
Track quality 100.0 %
Test CRC E6F96B99
Copy CRC E6F96B99
Accurately ripped (confidence 50) [50473C0B] (AR v2)
Copy OK

Track 14

Filename I:\Torrent\Torrent II\Heart - The Essential Heart (Limited Edition 3.0) - (2008) [FLAC] {Epic 88697 29091 2}\Disc 2\14 - Secret.wav

Pre-gap length 0:00:00.73

Peak level 100.0 %
Extraction speed 2.2 X
Track quality 100.0 %
Test CRC 89052694
Copy CRC 89052694
Accurately ripped (confidence 51) [9587463C] (AR v2)
Copy OK

Track 15

Filename I:\Torrent\Torrent II\Heart - The Essential Heart (Limited Edition 3.0) - (2008) [FLAC] {Epic 88697 29091 2}\Disc 2\15 - You're The Voice (Live).wav

Pre-gap length 0:00:01.70

Peak level 100.0 %
Extraction speed 2.3 X
Track quality 100.0 %
Test CRC 2A19D297
Copy CRC 2A19D297
Accurately ripped (confidence 50) [E0800F1D] (AR v2)
Copy OK

Track 16

Filename I:\Torrent\Torrent II\Heart - The Essential Heart (Limited Edition 3.0) - (2008) [FLAC] {Epic 88697 29091 2}\Disc 2\16 - Will You Be There (In The Morning).wav

Pre-gap length 0:00:01.56

Peak level 99.8 %
Extraction speed 2.4 X
Track quality 100.0 %
Test CRC 575C2ABF
Copy CRC 575C2ABF
Accurately ripped (confidence 50) [3367CDFC] (AR v2)
Copy OK

Track 17

Filename I:\Torrent\Torrent II\Heart - The Essential Heart (Limited Edition 3.0) - (2008) [FLAC] {Epic 88697 29091 2}\Disc 2\17 - Black On Black II.wav

Peak level 99.9 %
Extraction speed 2.1 X
Track quality 99.9 %
Test CRC BE972C2A
Copy CRC BE972C2A
Accurately ripped (confidence 50) [ECEFCB84] (AR v2)
Copy OK

Track 18

Filename I:\Torrent\Torrent II\Heart - The Essential Heart (Limited Edition 3.0) - (2008) [FLAC] {Epic 88697 29091 2}\Disc 2\18 - Ring Them Bells.wav

Pre-gap length 0:00:01.60

Peak level 99.8 %
Extraction speed 2.4 X
Track quality 100.0 %
Test CRC D2F70D32
Copy CRC D2F70D32
Accurately ripped (confidence 51) [4016A1DC] (AR v2)
Copy OK

Track 19

Filename I:\Torrent\Torrent II\Heart - The Essential Heart (Limited Edition 3.0) - (2008) [FLAC] {Epic 88697 29091 2}\Disc 2\19 - The Road Home (Edit).wav

Pre-gap length 0:00:01.93

Peak level 99.8 %
Extraction speed 2.5 X
Track quality 100.0 %
Test CRC 6890EAE0
Copy CRC 6890EAE0
Accurately ripped (confidence 50) [23F63DC4] (AR v2)
Copy OK


All tracks accurately ripped

No errors occurred

End of status report

–– CUETools DB Plugin V2.1.3

[CTDB TOCID: w407K7kO3d5JK9fZX.ZAXFak.BQ-] found, Submit result: w407K7kO3d5JK9fZX.ZAXFak.BQ- has been confirmed
[148ce900] (161/168) Accurately ripped
[23f37cda] (004/168) Differs in 2 samples @67:20:06
[8bf26db9] (001/168) No match
[7644c0ef] (001/168) No match
[7c07495b] (001/168) No match
You can use CUETools to repair this rip.


==== Log checksum 2AF5AA8A02B11702C743DFBDDE1342DD47E30CCBB0F55C8A99A80663D643C1A0 ====

foobar2000 1.3.8 / Dynamic Range Meter 1.1.1
log date: 2015-06-01 19:39:58

––––––––––––––––––––––––––––––––––––––––
Analyzed: Heart / The Essential Heart (Limited Edition 3.0)
––––––––––––––––––––––––––––––––––––––––

DR Peak RMS Duration Track
––––––––––––––––––––––––––––––––––––––––
DR7 0.00 dB -8.78 dB 3:42 01-What About Love?
DR9 0.00 dB -10.40 dB 4:05 02-Never
DR8 -0.01 dB -10.51 dB 4:14 03-These Dreams
DR8 0.00 dB -8.94 dB 4:13 04-Nothin' At All
DR8 -0.01 dB -9.14 dB 3:44 05-If Looks Could Kill
DR7 0.00 dB -10.15 dB 3:41 06-Alone
DR7 0.00 dB -8.69 dB 4:06 07-Who Will You Run To
DR8 -0.01 dB -9.04 dB 3:50 08-There's The Girl
DR8 -0.01 dB -9.69 dB 4:20 09-I Want You So Bad
DR8 0.00 dB -8.95 dB 5:08 10-All I Wanna Do Is Make Love To You
DR7 0.00 dB -8.40 dB 4:30 11-Wild Child
DR7 0.00 dB -8.40 dB 4:07 12-I Didn't Want To Need You
DR8 0.00 dB -9.86 dB 3:56 13-Stranded
DR7 0.00 dB -9.27 dB 4:14 14-Secret
DR8 0.00 dB -9.78 dB 5:07 15-You're The Voice (Live)
DR9 -0.01 dB -11.39 dB 4:29 16-Will You Be There (In The Morning)
DR9 0.00 dB -10.15 dB 3:53 17-Black On Black II
DR11 -0.01 dB -12.55 dB 3:51 18-Ring Them Bells
DR10 -0.01 dB -11.35 dB 3:35 19-The Road Home (Edit)
––––––––––––––––––––––––––––––––––––––––

Number of tracks: 19
Official DR value: DR8

Samplerate: 44100 Hz
Channels: 2
Bits per sample: 16
Bitrate: 997 kbps
Codec: FLAC
================================================================================


Exact Audio Copy V1.0 beta 3 from 29. August 2011

EAC extraction logfile from 8. March 2014, 17:50

Heart / The Essential Heart (Limited Edition 3.0)

Used drive : HL-DT-STBD-RE BH10LS30 Adapter: 5 ID: 0

Read mode : Secure
Utilize accurate stream : Yes
Defeat audio cache : Yes
Make use of C2 pointers : No

Read offset correction : 667
Overread into Lead-In and Lead-Out : No
Fill up missing offset samples with silence : Yes
Delete leading and trailing silent blocks : No
Null samples used in CRC calculations : Yes
Used interface : Native Win32 interface for Win NT & 2000
Gap handling : Appended to previous track

Used output format : User Defined Encoder
Selected bitrate : 1024 kBit/s
Quality : High
Add ID3 tag : No
Command line compressor : F:\8\Program Files (x86)\Exact Audio Copy\Flac\flac.exe
Additional command line options : -8 -V -T "ARTIST=%artist%" -T "TITLE=%title%" -T "ALBUM=%albumtitle%" -T "DATE=%year%" -T "TRACKNUMBER=%tracknr%" -T "TOTALTRACKS=%numtracks%" -T "GENRE=%genre%" -T "ALBUMARTIST=%albumartist%" -T "ALBUM ARTIST=%albumartist%" -T "COMMENT=EAC Secure Mode, Test & Copy, AccurateRip, FLAC -8" %source%


TOC of the extracted CD

Track | Start | Length | Start sector | End sector
––––––––––––––––––––––––––––-
1 | 0:00.00 | 2:14.68 | 0 | 10117
2 | 2:14.68 | 4:32.60 | 10118 | 30577
3 | 6:47.53 | 3:40.41 | 30578 | 47118
4 | 10:28.19 | 7:14.29 | 47119 | 79697
5 | 17:42.48 | 2:35.71 | 79698 | 91393
6 | 20:18.44 | 2:46.43 | 91394 | 103886
7 | 23:05.12 | 4:26.61 | 103887 | 123897
8 | 27:31.73 | 4:25.67 | 123898 | 143839


Track 1

Filename I:\Torrent\Torrent II\Heart - The Essential Heart (Limited Edition 3.0) - (2008) [FLAC] {Epic 88697 29091 2}\Disc 3\01 - Sylvan Song.wav

Pre-gap length 0:00:02.00

Peak level 89.5 %
Extraction speed 1.1 X
Track quality 100.0 %
Test CRC F7F59BCD
Copy CRC F7F59BCD
Accurately ripped (confidence 13) [552BDEB8] (AR v2)
Copy OK

Track 2

Filename I:\Torrent\Torrent II\Heart - The Essential Heart (Limited Edition 3.0) - (2008) [FLAC] {Epic 88697 29091 2}\Disc 3\02 - Dream Of The Archer.wav

Peak level 89.5 %
Extraction speed 1.3 X
Track quality 100.0 %
Test CRC FE75ADB7
Copy CRC FE75ADB7
Accurately ripped (confidence 13) [44EBE77C] (AR v2)
Copy OK

Track 3

Filename I:\Torrent\Torrent II\Heart - The Essential Heart (Limited Edition 3.0) - (2008) [FLAC] {Epic 88697 29091 2}\Disc 3\03 - Bebe Le Strange.wav

Peak level 89.5 %
Extraction speed 1.4 X
Track quality 100.0 %
Test CRC FAACF27F
Copy CRC FAACF27F
Accurately ripped (confidence 13) [BD687185] (AR v2)
Copy OK

Track 4

Filename I:\Torrent\Torrent II\Heart - The Essential Heart (Limited Edition 3.0) - (2008) [FLAC] {Epic 88697 29091 2}\Disc 3\04 - Mistral Wind (Live).wav

Peak level 100.0 %
Extraction speed 1.6 X
Track quality 100.0 %
Test CRC 584596CC
Copy CRC 584596CC
Accurately ripped (confidence 13) [BC8D42A3] (AR v2)
Copy OK

Track 5

Filename I:\Torrent\Torrent II\Heart - The Essential Heart (Limited Edition 3.0) - (2008) [FLAC] {Epic 88697 29091 2}\Disc 3\05 - Hit Single.wav

Peak level 100.0 %
Extraction speed 1.5 X
Track quality 100.0 %
Test CRC 3861A853
Copy CRC 3861A853
Accurately ripped (confidence 13) [FFED55CA] (AR v2)
Copy OK

Track 6

Filename I:\Torrent\Torrent II\Heart - The Essential Heart (Limited Edition 3.0) - (2008) [FLAC] {Epic 88697 29091 2}\Disc 3\06 - Strange Euphoria.wav

Peak level 100.0 %
Extraction speed 1.6 X
Track quality 100.0 %
Test CRC 6FC42800
Copy CRC 6FC42800
Accurately ripped (confidence 13) [DCA19AEB] (AR v2)
Copy OK

Track 7

Filename I:\Torrent\Torrent II\Heart - The Essential Heart (Limited Edition 3.0) - (2008) [FLAC] {Epic 88697 29091 2}\Disc 3\07 - City's Burning.wav

Pre-gap length 0:00:00.77

Peak level 100.0 %
Extraction speed 1.8 X
Track quality 100.0 %
Test CRC D2EEE56F
Copy CRC D2EEE56F
Accurately ripped (confidence 14) [AFC2FED0] (AR v2)
Copy OK

Track 8

Filename I:\Torrent\Torrent II\Heart - The Essential Heart (Limited Edition 3.0) - (2008) [FLAC] {Epic 88697 29091 2}\Disc 3\08 - Strong, Strong Wind.wav

Peak level 79.7 %
Extraction speed 1.9 X
Track quality 100.0 %
Test CRC 929C11AF
Copy CRC 929C11AF
Accurately ripped (confidence 12) [E7C60273] (AR v2)
Copy OK


All tracks accurately ripped

No errors occurred

End of status report

–– CUETools DB Plugin V2.1.3

[CTDB TOCID: 1YvkeBYHi5OczAz14DrP76pQP5U-] found, Submit result: 1YvkeBYHi5OczAz14DrP76pQP5U- has been confirmed
[1ac2085c] (27/27) Accurately ripped


==== Log checksum 00730AEE70745A0517C51725F6FF778C9ED3C97E85F3C7005BF00E6BA0350245 ====

foobar2000 1.3.8 / Dynamic Range Meter 1.1.1
log date: 2015-06-01 19:40:42

––––––––––––––––––––––––––––––––––––––––
Analyzed: Heart / The Essential Heart (Limited Edition 3.0)
––––––––––––––––––––––––––––––––––––––––

DR Peak RMS Duration Track
––––––––––––––––––––––––––––––––––––––––
DR10 -0.96 dB -15.89 dB 2:15 01-Sylvan Song
DR9 -0.96 dB -13.48 dB 4:33 02-Dream Of The Archer
DR9 -0.96 dB -10.93 dB 3:41 03-Bebe Le Strange
DR9 0.00 dB -12.60 dB 7:14 04-Mistral Wind (Live)
DR12 0.00 dB -15.36 dB 2:36 05-Hit Single
DR10 0.00 dB -12.63 dB 2:47 06-Strange Euphoria
DR9 0.00 dB -10.53 dB 4:27 07-City's Burning
DR7 -1.97 dB -11.53 dB 4:26 08-Strong, Strong Wind
––––––––––––––––––––––––––––––––––––––––

Number of tracks: 8
Official DR value: DR9

Samplerate: 44100 Hz
Channels: 2
Bits per sample: 16
Bitrate: 978 kbps
Codec: FLAC
================================================================================

Heart - The Essential Heart (Limited Editon 3.0) (2008) 3CD Set

Heart - The Essential Heart (Limited Editon 3.0) (2008) 3CD Set

All thanks to original releaser - UserAbuser

More interesting music in My Blog