Subcategories

Heathen - Breaking The Silence (1987) [Japanese Cardboard Sleeve, Reissue 2009]

Posted By: Andi_Deris
Heathen - Breaking The Silence (1987) [Japanese Cardboard Sleeve, Reissue 2009]

Heathen - Breaking The Silence (1987) [Japanese Cardboard Sleeve, Reissue 2009]
EAC Rip | FLAC: Image+Cue+Log | 608 Mb | MP3 CBR 320 kbps | 191 Mb | Scans | 71 Mb | Time: 01:13:09
King Record Co., Ltd. | KICP-91404
Thrash Metal, Speed Metal

Breaking the Silence is the first album by the American thrash metal band Heathen released in 1987 by Combat Records. The band members on this album was Dave Godfrey on vocals, Lee Altus on guitars, Doug Piercy on guitars, Mike Jastremski on bass and Carl Sacco on the drums. They all show great skills when it comes to the guitars, frantic and high-speeding riffs and great guitar solos.

This was Heathen's first album which shows a lot of musical skills and skilled vocal work as well. Heathen material is based on the sounds from the american thrash-metal scene and the NWOBHM, they emerged in the late 80's in the Bay Area thrash movement but they never made a bigger breakthrough. The band plays energic and precise music with skilled and harmonic vocals, this band is easly compared to Anthrax because they also had good vocalsists. ~ Review by Dethtrasher

Heathen - Breaking The Silence (1987) [Japanese Cardboard Sleeve, Reissue 2009]




Heathen - Breaking The Silence (1987) [Japanese Cardboard Sleeve, Reissue 2009]


Track Listing

01. Death By Hanging (5:03)
02. Goblin's Blade (4:31)
03. Open The Grave (7:20)
04. Pray For Death (3:40)
05. Set Me Free (Sweet cover) (3:45)
06. Breaking The Silence (5:49)
07. Worlds End (7:04)
08. Save The Skull (5:19)
09. Heathen (6:32)
10. Pray For Death (Demo)* (5:20)
11. Goblin's Blade (Demo)* (4:28)
12. Open The Grave (Demo)* (7:20)
13. Heathen (Demo)* (6:58)

Produced by Ronnie Montrose

The Band

• David White-Godfrey (Blind Illusion, Inner Threshold, Bomb Threat, Laughing Dead, Under) - Lead vocals
• Lee Altus (Exodus, Angel Witch, Die Krupps) - Guitars
• Doug Piercy (Angel Witch, The Company, Parryzide, Anvil Chorus, Control, Delta, Spastik Children) - Guitars
• Mike Jazstremski (Griffin) - Bass
• Carl Sacco (Metal Church, Murder) - Drums

Notes

Heathen's first album was a fundamental thrash album, similar to what a ton of bands were spewing out during the late '80s. What makes this album a step above the others is the relentless riffs, progressive elements, and melodic guitar harmonies.

Exact Audio Copy V1.0 beta 3 from 29. August 2011

Отчёт EAC об извлечении, выполненном 27. января 2013, 19:01

Heathen / Breaking The Silence

Дисковод: PLEXTOR DVDR PX-810SA Adapter: 3 ID: 1

Режим чтения : Достоверность
Использование точного потока : Да
Отключение кэша аудио : Да
Использование указателей C2 : Нет

Коррекция смещения при чтении : 48
Способность читать области Lead-in и Lead-out : Нет
Заполнение пропущенных сэмплов тишиной : Да
Удаление блоков с тишиной в начале и конце : Нет
При вычислениях CRC использовались нулевые сэмплы : Да
Интерфейс : Установленный внешний ASPI-интерфейс

Выходной формат : Пользовательский кодировщик
Выбранный битрейт : 768 kBit/s
Качество : Высокий
Добавление ID3-тега : Нет
Утилита сжатия : C:\Program Files\Monkey's Audio\MAC.exe
Дополнительные параметры : %source% %dest% -c3000

TOC извлечённого CD

Трек | Старт | Длительность | Начальный сектор | Конечный сектор
––––––––––––––––––––––––––––––––––-
1 | 0:00.00 | 5:03.47 | 0 | 22771
2 | 5:03.47 | 4:31.59 | 22772 | 43155
3 | 9:35.31 | 7:20.36 | 43156 | 76191
4 | 16:55.67 | 3:40.72 | 76192 | 92763
5 | 20:36.64 | 3:45.16 | 92764 | 109654
6 | 24:22.05 | 5:49.72 | 109655 | 135901
7 | 30:12.02 | 7:04.40 | 135902 | 167741
8 | 37:16.42 | 5:19.38 | 167742 | 191704
9 | 42:36.05 | 6:32.67 | 191705 | 221171
10 | 49:08.72 | 5:20.60 | 221172 | 245231
11 | 54:29.57 | 4:28.14 | 245232 | 265345
12 | 58:57.71 | 7:20.07 | 265346 | 298352
13 | 66:18.03 | 6:58.03 | 298353 | 329705

Характеристики диапазона извлечения и сообщения об ошибках

Выбранный диапазон

Имя файла E:\UPLOADS\Heathen - Breaking The Silence\Heathen - Breaking The Silence.wav

Пиковый уровень 99.3 %
Скорость извлечения 5.1 X
Качество диапазона 100.0 %
CRC теста EFB4B578
CRC копии EFB4B578
Копирование… OK

Ошибок не произошло

AccurateRip: сводка

Трек 1 отсутствует в базе данных
Трек 2 отсутствует в базе данных
Трек 3 отсутствует в базе данных
Трек 4 отсутствует в базе данных
Трек 5 отсутствует в базе данных
Трек 6 отсутствует в базе данных
Трек 7 отсутствует в базе данных
Трек 8 отсутствует в базе данных
Трек 9 отсутствует в базе данных
Трек 10 отсутствует в базе данных
Трек 11 отсутствует в базе данных
Трек 12 отсутствует в базе данных
Трек 13 отсутствует в базе данных

Ни одного трека нет в базе AccurateRip

Конец отчёта

==== Контрольная сумма отчёта 488A79E9E2B919A1A03C82292F9A3A59E839C436B50153F974227A0658CFBA66 ====


Many thanks to the original uploader: Atheist_KHV

SEE also:
Heathen 1991 Victims Of Deception [Japan 1st Press]
Heathen 2004 Recovered