Subcategories

VA: Mojo Presents - Heavy Nuggets Vol. 2 (2013)

Posted By: v3122
VA: Mojo Presents - Heavy Nuggets Vol. 2 (2013)

VA: Mojo Presents - Heavy Nuggets Vol. 2 (2013)
EAC | Flac(Image) + Cue + Log & MP3 CBR 320Kbps
Mojo Magazine | ~ 414 or 150 Mb | Artwork(jpg) -> 27 Mb
Psychedelic Rock, Hard Rock, Prog Rock

~ Given away free with Mojo #235 June 2013 ~

VA: Mojo Presents - Heavy Nuggets Vol. 2 (2013):

VA: Mojo Presents - Heavy Nuggets Vol. 2 (2013)

Tracklist:

01. Bullet - Jay Time 02:52
02. Freedom - Nobody 03:53
03. The Incredible Hog - Lame 03:07
04. Blossom Toes - Listen To The Silence 04:49
05. The Pretty Things - Cries From The Midnight Circus 06:24
06. Possessed - Thunder & Lightning 02:54
07. Mighty Baby - Same Way From The Sun 05:37
08. The Sensational Alex Harvey Band - Long Haired Music 05:04
09. The Human Beast - Brush With The Midnight Butterfly 05:17
10. Twink - Ten Thousand Words In A Cardboard Box 03:23
11. The Open Mind - I Feel The Same Way Too 05:00
12. Tractor - King Dick II 03:15
13. Family - Strange Band 03:13
14. Dragonfly - Enjoy Yourself 03:24
15. Jerusalem - Frustration 05:16

Exact Audio Copy V0.99 prebeta 4 from 23. January 2008

EAC extraction logfile from 11. May 2013, 16:49

Various Artists / Heavy Nuggets; Vol 2

Used drive : hp CDDVDW SH-216BB Adapter: 0 ID: 0

Read mode : Secure
Utilize accurate stream : Yes
Defeat audio cache : Yes
Make use of C2 pointers : No

Read offset correction : 6
Overread into Lead-In and Lead-Out : No
Fill up missing offset samples with silence : Yes
Delete leading and trailing silent blocks : No
Null samples used in CRC calculations : Yes
Used interface : Native Win32 interface for Win NT & 2000

Used output format : Monkey's Audio Lossless Encoder
Selected bitrate : High Lossless Compression
Quality : High
Add ID3 tag : No
Command line compressor : C:\Program Files (x86)\Monkey's Audio\MAC.exe
Additional command line options : -v


TOC of the extracted CD

Track | Start | Length | Start sector | End sector
––––––––––––––––––––––––––––-
1 | 0:00.00 | 2:51.67 | 0 | 12891
2 | 2:51.67 | 3:52.55 | 12892 | 30346
3 | 6:44.47 | 3:07.22 | 30347 | 44393
4 | 9:51.69 | 4:49.14 | 44394 | 66082
5 | 14:41.08 | 6:24.12 | 66083 | 94894
6 | 21:05.20 | 2:54.01 | 94895 | 107945
7 | 23:59.21 | 5:37.00 | 107946 | 133220
8 | 29:36.21 | 5:03.38 | 133221 | 155983
9 | 34:39.59 | 5:17.10 | 155984 | 179768
10 | 39:56.69 | 3:23.10 | 179769 | 195003
11 | 43:20.04 | 4:59.48 | 195004 | 217476
12 | 48:19.52 | 3:14.63 | 217477 | 232089
13 | 51:34.40 | 3:12.40 | 232090 | 246529
14 | 54:47.05 | 3:23.51 | 246530 | 261805
15 | 58:10.56 | 5:15.54 | 261806 | 285484


Range status and errors

Selected range

Filename C:\Users\Arthur\Desktop\Various Artists - Heavy Nuggets; Vol 2.wav

Peak level 99.9 %
Range quality 99.9 %
Test CRC F038185D
Copy CRC F038185D
Copy OK

No errors occurred


AccurateRip summary

Track 1 not present in database
Track 2 not present in database
Track 3 not present in database
Track 4 not present in database
Track 5 not present in database
Track 6 not present in database
Track 7 not present in database
Track 8 not present in database
Track 9 not present in database
Track 10 not present in database
Track 11 not present in database
Track 12 not present in database
Track 13 not present in database
Track 14 not present in database
Track 15 not present in database

None of the tracks are present in the AccurateRip database

End of status report


[CUETools log; Date: 20.08.2019 13:40:20; Version: 2.1.4]
[AccurateRip ID: 00228b73-018bbde3-dd0ede0f] found.
Track [ CRC | V2 ] Status
01 [be174c04|0265ddbc] (04+48/52) Accurately ripped
02 [30cf6206|33981a18] (04+49/53) Accurately ripped
03 [3ca77770|91673d04] (04+49/53) Accurately ripped
04 [653e3d48|f80f49c6] (04+49/53) Accurately ripped
05 [e44c25cb|31aacde4] (04+49/53) Accurately ripped
06 [f15a63ff|71bffa0a] (04+49/53) Accurately ripped
07 [ada21a57|124f7f05] (04+49/53) Accurately ripped
08 [c6159b18|9879ff7e] (04+49/53) Accurately ripped
09 [6a69744a|7051c69a] (04+49/53) Accurately ripped
10 [039ffe51|5982f618] (04+49/53) Accurately ripped
11 [57ede054|931b75df] (04+49/53) Accurately ripped
12 [d6118607|5afcd9c9] (04+49/53) Accurately ripped
13 [4af9f2da|010cbeb3] (04+49/53) Accurately ripped
14 [2d109675|3c33ae5c] (04+49/53) Accurately ripped
15 [72d812da|a4876446] (04+49/53) Accurately ripped

Track Peak [ CRC32 ] [W/O NULL] [ LOG ]
– 99,9 [F038185D] [95853CCE] CRC32
01 99,9 [2DEB0EA2] [5B38839E]
02 99,9 [F24CAEDC] [ED1AE88D]
03 99,9 [FC5CDD11] [7FE27CF5]
04 99,9 [358B53B9] [4980E012]
05 99,9 [92B27933] [9464FDDC]
06 99,9 [CCC281C0] [28BBEFAE]
07 99,9 [6B8C2AB7] [934B2397]
08 99,9 [66701173] [94BBA029]
09 99,9 [1A1C432E] [2696EAB2]
10 99,9 [A9569E4B] [F32821FE]
11 99,9 [7A72210E] [1E5E3C4F]
12 99,9 [D90E7A6D] [194949C4]
13 99,9 [3C25C33E] [76BD2D8D]
14 99,9 [32A353D7] [13449241]
15 99,9 [33E80B1D] [56C8E163]


VA: Mojo Presents - Heavy Nuggets Vol. 2 (2013)

All thanks go to the original releaser

Mojo in my Blog

Download VA: Mojo Presents - Heavy Nuggets Vol. 2 (2013):