Subcategories

Heinz Holliger Edition: Albinoni, Vivaldi, Telemann, Haydn, Mozart, Cimarosa, Hummel, Honegger, Martin, Martinu

Posted By: Ebisu
Heinz Holliger Edition: Albinoni, Vivaldi, Telemann, Haydn, Mozart, Cimarosa, Hummel, Honegger, Martin, Martinu

Heinz Holliger Edition: Albinoni, Vivaldi, Telemann, Haydn, Mozart, Cimarosa, Hummel, Honegger, Martin, Martinů
Classical | Eac, Flac, Img+Cue, Log | Covers | 2600.35 MB
Brilliant Classics 2012 | 94054 | 9:17:32

The artistry of Holliger (b1939) prompted Evelyn Rothwell (Lady Barbirolli) to call him 'The Paganini of the oboe' Holliger's mastery of the oboe ranges over a vast expanse of repertoire, from the baroque to contemporary – Bach to Berio and Zelenka to Zimmermann. His style is notable for its flexibility, agility, integrity and ability to communicate convincingly across the wide range of repertoire he performs. Holliger has done much to champion the oboe music of composers such as Zelenka and Krommer, and has also had over 100 works composed for him by composers including Berio, Carter, Henze, Ligeti, Lutoslawski, Penderecki and Stockhausen.

This 10CD collection provides a superb showcase for his artistry, spanning nearly 250 years of repertoire from the well known to the obscure, and to every one of the works here his unique and phenomenal technique to makes the interpretation sound effortless and flawless.

- Extensive booklet notes on each work, and a biographical essay on Holliger
- 'This is an enchanting performance: I do not believe that among modern recordings there is a better' Gramophone, November 1985 (Mozart Oboe Quartet)
- 'All three pieces have the advantage of superlative performances by Holliger and the ECO. As in the case of Fiala, not just an oboe-player: Holliger also contributes cadenzas where called for that are exactly right for their purpose. A good quality of recording' Gramophone October 1985 (Fiala, Hummel etc)

R E V I E W:

Listening to solo woodwind instrument is in many ways similar to listening to the human voice. We can listen for pure beauty of tone if we wish but this on its own rapidly becomes dull unless there is also some individuality of phrasing and line. Only then can real musical communication take place with the listener. I have heard too many players (and singers) with enviable tone and technique whose performances nonetheless are essentially a nullity when it comes to communication. There have been however a number of great oboists in whose hands the instrument speaks with astonishing eloquence. For me one of the greatest is Heinz Holliger, whose tone and technique are beyond praise but whose greatest asset is his ability to characterise the music he plays and thereby to communicate directly with the listener.

Heinz Holliger was born in 1939 in Langenthal in Switzerland. As well as oboe, he studied piano and composition (with Boulez) although he is unfortunately not represented in this set as a composer. Also absent are any of the major compositions he has inspired from others which utilise his ability to make use of “extended techniques” on the oboe. What Brilliant have done is simply to put together a series of his recordings from 1966 to 1991 of more conventional oboe music. These range from Albinoni and Vivaldi to Martinu and Honegger. In no way does it give a balanced view of the oboe repertoire but it does include many real gems.

To start with the best. In the two discs devoted to the music of Mozart the phrasing, the interaction between players and the sheer joy in the music are all near ideal. Seldom since the wonderful Leon Goossens version has a performance of the Oboe Quartet had quite as much sheer wit and character. The Sinfonia Concertante for wind is included in the reconstruction by Robert Levin for flute, oboe, horn and bassoon rather than in the version usually played today for oboe, clarinet, bassoon and horn. The former is much more effective, especially as played here. The Divertimento K251 is a rare pleasure, but is also exceptionally enjoyable, especially when played with solo strings as it is here.

Discs 6 and 9 include - as well as the rather dull Concerto attributed to Haydn - a series of shorter works by such composers as Donizetti, Bellini, Moscheles and Hummel. These are essentially display pieces but are played here with a real understanding of their similarity to the vocal music of the period and of the opportunities this gives to the soloist to show off every possible bel canto effect. These discs also include an interesting Konzertstück by Julius Rietz, Sullivan’s composition teacher in Leipzig, and a Concerto by Josef Fiala which once again suggests that he was one of the dullest composers of the period. Arthur Benjamin’s wonderfully adept Concerto based on music by Cimarosa is given a particularly magical performance.

The last disc is devoted to music of the mid-twentieth century – Martin, Honegger and Martinu. This is full of surprisingly varied delights, although I could not help regretting the absence of by far the greatest oboe Concerto of that period, that of Richard Strauss. Holliger certainly recorded it and it would have fitted in well here.

The first five discs are devoted to music of the eighteenth century, one each for Vivaldi and Telemann and three for Albinoni. The Telemann disc is the real winner here - each of the five Concertos (four of them in minor keys) full of invention and played with real imagination and passion. The Vivaldi is also worth hearing, especially the double Concerto with bassoon (Klaus Thunemann) although I Musici, now in the context of modern period instrument groups, seem to play dully, heavily and without any especial insight. This is even more marked on the Albinoni discs which I found frankly dull. Worse still four of the Op. 7 Concertos are for strings alone, meaning that there is not even Holliger’s artistry to keep the listener’s interest alive. Whilst these discs might do for background listening I found it increasingly hard to pay real detailed attention to them.

Despite this, there is more than enough here to make this an unmissable bargain overall. As if the musical content were not enough, Brilliant have provided a 19 page essay by Susan Wynne Roberts and Ates Orga which gives admirable notes on the soloist and the music – a model of how such reissues should be presented. Taken as a whole this is a worthy tribute to a great oboist who is – above all – a great musician.

– John Sheppard, MusicWeb International

Performer:
Heinz Holliger, oboe
I Musici
Academy of St Martin in the Fields / Sir Neville Marriner
Orlando Quartet
Radio-Symphonie-Orchester Frankfurt / Eliahu Inbal
English Chamber Orchestra / Raymond Leppard

Tracklist:
CD 1: Antonio Vivaldi (1678-1741)
Concertos for Oboe, Strings & Basso Continuo
01-03. Concerto in C major RV452
04-06. Concerto in D minor RV454
07-09. Concerto in G major RV545 for oboe, bassoon & strings
10-12. Concerto in C major RV446
13-15. Concerto in A minor RV463
16-18. Concerto in C major RV447
CD 2: Georg Philipp Telemann (1681-1767)
01-04. Concerto in E minor
05-08. Concerto in D minor
09-12. Concerto in C minor
13-15. Concerto in F minor
16-19. Concerto in D major
CD 3: Tomaso Albinoni (1671-1751)
01-03. Concerto No.1, Op.7 in D major for strings and continuo
04-06. Concerto No.2, Op.7 in C major for 2 oboes, strings and continuo
07-09. Concerto No.3, Op.7 in B flat major for oboe, strings and continuo
10-12. Concerto No.4, Op.7 in G major for strings and continuo
13-15. Concerto No.5, Op.7 in C major for 2 oboes, strings and continuo
16-18. Concerto No.6, Op.7 in D major for oboe, strings and continuo
19-21. Concerto No.7, Op.7 in A major for strings and continuo
22-24. Concerto No.8, Op.7 in D major for 2 oboes, strings and continuo
CD 4: Tomaso Albinoni
01-03. Concerto No.9, Op.7 in F major for oboe, strings and continuo
04-06. Concerto No.10, Op.7 in B flat major for strings and continuo
07-09. Concerto No.11, Op.7 in C major for 2 oboes, strings and continuo
10-12. Concerto No.12, Op.7 in C major for oboe, strings and continuo
13-16. Sonata a cinque in G minor, Op.2 No.6
17-20. Sonata a cinque in D major, Op.2 No.5
CD 5: Tomaso Albinoni
01-03. Concerto No.2 in D Minor for oboe, strings and continuo
04-06. Concerto No.3 in F major for 2 oboes, strings and continuo
07-09. Concerto No.5 in C major for oboe, strings and continuo
10-12. Concerto No.8 in G minor for oboe, strings and continuo
13-15. Concerto No.9 in C major for 2 oboes, strings and continuo
16-18. Concerto No.11 in B flat major for oboe, strings and continuo
CD 6: Joseph Haydn (1732-1809)
01-03. Oboe Concerto in C major, Hob. VIIg: C1
Arthur Benjamin (1893-1960)
04-07. Oboe Concerto in C minor on themes of Domenico Cimarosa
Gaetano Donizetti (1797-1848)
08. Concertino for cor anglais and orchestra
09. Andante sostenuto in F minor for oboe & harp
CD 7: Wolfgang Amadeus Mozart (1756-1791)
01-03. Quartet in F major for oboe, violin, viola & cello, K370
04. Adagio in C major for cor anglais, 2 violins and cello, K580a
05-14. Divertimento No.11 in D major, K251 'Nannerl-Septett'
CD 8: Wolfgang Amadeus Mozart
01-03. Sinfonia concertante in E flat major, K297b
04-06. Oboe Concerto in C major, K314
CD 9: Vincenzo Bellini (1732-1809)
01-02. Oboe Concerto in E flat major
Bernhard Molique (1802-1869)
03. Oboe Concertino in G minor
Ignaz Moscheles (1794-1870)
04-05. Concertante in F major for flute, oboe & orchestra
Julius Rietz (1812-1877)
06. Konzertstück in F minor for oboe & orchestra
Josef Fiala (1748-1816)
07-09. Concerto in E flat major for cor anglais & orchestra
Johann Nepomuk Hummel (1778-1837)
10. Adagio, theme & variations in F minor for oboe & orchestra
CD 10: Frank Martin (1890-1974)
01-03. Trois danses for oboe, harp, string quintet & orchestra
04. Petite complainte for oboe and piano
05. Pièce brève for flute, oboe & harp
Arthur Honegger (1892-1955)
06-08. Concerto da camera for flute, cor anglais & string orchestra
09. Petite suite for flute, cor anglais & piano
10. Antigone for oboe, cor anglais & harp
Bohuslav Martinů (1890-1959)
11-13. Oboe concerto

Exact Audio Copy V1.0 beta 3 from 29. August 2011

EAC extraction logfile from 6. November 2012, 17:51

Heinz Holliger, I Musici / Heinz Holliger Edition - CD01 - Vivaldi - Oboe Concertos

Used drive : HL-DT-STDVDRRW GWA-4164B Adapter: 5 ID: 0

Read mode : Secure
Utilize accurate stream : Yes
Defeat audio cache : Yes
Make use of C2 pointers : No

Read offset correction : 102
Overread into Lead-In and Lead-Out : No
Fill up missing offset samples with silence : Yes
Delete leading and trailing silent blocks : No
Null samples used in CRC calculations : Yes
Used interface : Native Win32 interface for Win NT & 2000

Used output format : User Defined Encoder
Selected bitrate : 896 kBit/s
Quality : High
Add ID3 tag : No
Command line compressor : C:\Program Files\Exact Audio Copy\FLAC\FLAC.EXE
Additional command line options : -V -8 %source%


TOC of the extracted CD

Track | Start | Length | Start sector | End sector
––––––––––––––––––––––––––––-
1 | 0:00.33 | 2:18.17 | 33 | 10399
2 | 2:18.50 | 2:06.28 | 10400 | 19877
3 | 4:25.03 | 2:12.17 | 19878 | 29794
4 | 6:37.20 | 3:04.65 | 29795 | 43659
5 | 9:42.10 | 2:38.68 | 43660 | 55577
6 | 12:21.03 | 2:44.22 | 55578 | 67899
7 | 15:05.25 | 3:39.33 | 67900 | 84357
8 | 18:44.58 | 2:51.55 | 84358 | 97237
9 | 21:36.38 | 3:42.70 | 97238 | 113957
10 | 25:19.33 | 3:15.25 | 113958 | 128607
11 | 28:34.58 | 3:36.10 | 128608 | 144817
12 | 32:10.68 | 2:06.47 | 144818 | 154314
13 | 34:17.40 | 3:23.15 | 154315 | 169554
14 | 37:40.55 | 3:05.08 | 169555 | 183437
15 | 40:45.63 | 3:18.55 | 183438 | 198342
16 | 44:04.43 | 5:16.42 | 198343 | 222084
17 | 49:21.10 | 4:23.03 | 222085 | 241812
18 | 53:44.13 | 5:10.37 | 241813 | 265099


Range status and errors

Selected range

Filename C:\temp\Heinz Holliger Edition\Heinz Holliger Edition - CD01.wav

Peak level 97.7 %
Extraction speed 2.7 X
Range quality 100.0 %
Test CRC FBC8911B
Copy CRC FBC8911B
Copy OK

No errors occurred

End of status report

==== Log checksum A786609CD649AB4238D6EF7006319F60F7298D0DF06C816C47A24524E842E4C3 ====

Exact Audio Copy V1.0 beta 3 from 29. August 2011

EAC extraction logfile from 12. November 2012, 18:02

Heinz Holliger, Academy of St. Martin in the Fields, Iona Brown / Heinz Holliger Edition - CD02 - Telemann - Oboe Concertos

Used drive : HL-DT-STDVDRRW GWA-4164B Adapter: 5 ID: 0

Read mode : Secure
Utilize accurate stream : Yes
Defeat audio cache : Yes
Make use of C2 pointers : No

Read offset correction : 102
Overread into Lead-In and Lead-Out : No
Fill up missing offset samples with silence : Yes
Delete leading and trailing silent blocks : No
Null samples used in CRC calculations : Yes
Used interface : Native Win32 interface for Win NT & 2000

Used output format : User Defined Encoder
Selected bitrate : 896 kBit/s
Quality : High
Add ID3 tag : No
Command line compressor : C:\Program Files\Exact Audio Copy\FLAC\FLAC.EXE
Additional command line options : -V -8 %source%


TOC of the extracted CD

Track | Start | Length | Start sector | End sector
––––––––––––––––––––––––––––-
1 | 0:00.33 | 2:30.25 | 33 | 11307
2 | 2:30.58 | 2:39.50 | 11308 | 23282
3 | 5:10.33 | 3:59.12 | 23283 | 41219
4 | 9:09.45 | 2:22.63 | 41220 | 51932
5 | 11:32.33 | 2:32.50 | 51933 | 63382
6 | 14:05.08 | 2:58.25 | 63383 | 76757
7 | 17:03.33 | 1:04.62 | 76758 | 81619
8 | 18:08.20 | 2:11.13 | 81620 | 91457
9 | 20:19.33 | 1:44.37 | 91458 | 99294
10 | 22:03.70 | 2:22.38 | 99295 | 109982
11 | 24:26.33 | 1:58.00 | 109983 | 118832
12 | 26:24.33 | 3:16.00 | 118833 | 133532
13 | 29:40.33 | 3:28.00 | 133533 | 149132
14 | 33:08.33 | 1:46.00 | 149133 | 157082
15 | 34:54.33 | 2:31.00 | 157083 | 168407
16 | 37:25.33 | 2:19.00 | 168408 | 178832
17 | 39:44.33 | 2:32.00 | 178833 | 190232
18 | 42:16.33 | 2:12.17 | 190233 | 200149
19 | 44:28.50 | 1:42.58 | 200150 | 207857


Range status and errors

Selected range

Filename C:\temp\Heinz Holliger Edition\Heinz Holliger Edition - CD02.wav

Peak level 83.7 %
Extraction speed 2.5 X
Range quality 100.0 %
Test CRC DD1C38C0
Copy CRC DD1C38C0
Copy OK

No errors occurred

End of status report

==== Log checksum 04DDCB6075D3A43694724F7EF50EEEB5D171BDE92EB8205A296423E0971BACC6 ====

Exact Audio Copy V1.0 beta 3 from 29. August 2011

EAC extraction logfile from 13. November 2012, 10:20

Heinz Holliger, I Musici / Heinz Holliger Edition - CD03 - Albinoni - Concertos Op.7

Used drive : HL-DT-STDVDRRW GWA-4164B Adapter: 5 ID: 0

Read mode : Secure
Utilize accurate stream : Yes
Defeat audio cache : Yes
Make use of C2 pointers : No

Read offset correction : 102
Overread into Lead-In and Lead-Out : No
Fill up missing offset samples with silence : Yes
Delete leading and trailing silent blocks : No
Null samples used in CRC calculations : Yes
Used interface : Native Win32 interface for Win NT & 2000

Used output format : User Defined Encoder
Selected bitrate : 896 kBit/s
Quality : High
Add ID3 tag : No
Command line compressor : C:\Program Files\Exact Audio Copy\FLAC\FLAC.EXE
Additional command line options : -V -8 %source%


TOC of the extracted CD

Track | Start | Length | Start sector | End sector
––––––––––––––––––––––––––––-
1 | 0:00.33 | 2:03.25 | 33 | 9282
2 | 2:03.58 | 0:39.50 | 9283 | 12257
3 | 2:43.33 | 1:23.00 | 12258 | 18482
4 | 4:06.33 | 1:57.00 | 18483 | 27257
5 | 6:03.33 | 0:49.00 | 27258 | 30932
6 | 6:52.33 | 1:53.37 | 30933 | 39444
7 | 8:45.70 | 3:10.00 | 39445 | 53694
8 | 11:55.70 | 2:45.38 | 53695 | 66107
9 | 14:41.33 | 2:16.00 | 66108 | 76307
10 | 16:57.33 | 2:41.00 | 76308 | 88382
11 | 19:38.33 | 2:37.37 | 88383 | 100194
12 | 22:15.70 | 2:14.38 | 100195 | 110282
13 | 24:30.33 | 2:03.00 | 110283 | 119507
14 | 26:33.33 | 1:40.37 | 119508 | 127044
15 | 28:13.70 | 1:24.00 | 127045 | 133344
16 | 29:37.70 | 2:57.38 | 133345 | 146657
17 | 32:35.33 | 2:05.50 | 146658 | 156082
18 | 34:41.08 | 2:22.62 | 156083 | 166794
19 | 37:03.70 | 2:17.38 | 166795 | 177107
20 | 39:21.33 | 1:17.50 | 177108 | 182932
21 | 40:39.08 | 1:37.62 | 182933 | 190269
22 | 42:16.70 | 2:31.00 | 190270 | 201594
23 | 44:47.70 | 1:52.13 | 201595 | 210007
24 | 46:40.08 | 1:44.25 | 210008 | 217832


Range status and errors

Selected range

Filename C:\temp\Heinz Holliger Edition\Heinz Holliger Edition - CD03.wav

Peak level 100.0 %
Extraction speed 2.5 X
Range quality 100.0 %
Test CRC 2878D5EC
Copy CRC 2878D5EC
Copy OK

No errors occurred

End of status report

==== Log checksum 9648FC95FE9F7AF474AD230F5D20BC10E875FB8BB35EDDE0223042873702EAF5 ====

Exact Audio Copy V1.0 beta 3 from 29. August 2011

EAC extraction logfile from 13. November 2012, 16:45

Heinz Holliger, I Musici / Heinz Holliger Edition - CD04 - Albinoni - Concertos Op.7

Used drive : HL-DT-STDVDRRW GWA-4164B Adapter: 5 ID: 0

Read mode : Secure
Utilize accurate stream : Yes
Defeat audio cache : Yes
Make use of C2 pointers : No

Read offset correction : 102
Overread into Lead-In and Lead-Out : No
Fill up missing offset samples with silence : Yes
Delete leading and trailing silent blocks : No
Null samples used in CRC calculations : Yes
Used interface : Native Win32 interface for Win NT & 2000

Used output format : User Defined Encoder
Selected bitrate : 896 kBit/s
Quality : High
Add ID3 tag : No
Command line compressor : C:\Program Files\Exact Audio Copy\FLAC\FLAC.EXE
Additional command line options : -V -8 %source%


TOC of the extracted CD

Track | Start | Length | Start sector | End sector
––––––––––––––––––––––––––––-
1 | 0:00.33 | 2:49.00 | 33 | 12707
2 | 2:49.33 | 0:47.00 | 12708 | 16232
3 | 3:36.33 | 2:44.37 | 16233 | 28569
4 | 6:20.70 | 2:21.38 | 28570 | 39182
5 | 8:42.33 | 2:12.00 | 39183 | 49082
6 | 10:54.33 | 1:36.50 | 49083 | 56332
7 | 12:31.08 | 3:03.00 | 56333 | 70057
8 | 15:34.08 | 2:11.50 | 70058 | 79932
9 | 17:45.58 | 2:37.25 | 79933 | 91732
10 | 20:23.08 | 3:16.25 | 91733 | 106457
11 | 23:39.33 | 2:48.00 | 106458 | 119057
12 | 26:27.33 | 2:17.50 | 119058 | 129382
13 | 28:45.08 | 1:48.00 | 129383 | 137482
14 | 30:33.08 | 2:33.25 | 137483 | 148982
15 | 33:06.33 | 2:06.00 | 148983 | 158432
16 | 35:12.33 | 1:54.00 | 158433 | 166982
17 | 37:06.33 | 2:17.50 | 166983 | 177307
18 | 39:24.08 | 2:13.25 | 177308 | 187307
19 | 41:37.33 | 1:40.00 | 187308 | 194807
20 | 43:17.33 | 2:19.00 | 194808 | 205232


Range status and errors

Selected range

Filename C:\temp\Heinz Holliger Edition\Heinz Holliger Edition - CD04.wav

Peak level 86.4 %
Extraction speed 2.4 X
Range quality 99.9 %
Test CRC D8DAF03C
Copy CRC D8DAF03C
Copy OK

No errors occurred

End of status report

==== Log checksum D811955DDE162B5EDE58B98F4CF97F2175025143044C4DEC474D809450C5DB15 ====

Exact Audio Copy V1.0 beta 3 from 29. August 2011

EAC extraction logfile from 13. November 2012, 17:34

Heinz Holliger, I Musici / Heinz Holliger Edition - CD05 - Albinoni - Concertos Op.9

Used drive : HL-DT-STDVDRRW GWA-4164B Adapter: 5 ID: 0

Read mode : Secure
Utilize accurate stream : Yes
Defeat audio cache : Yes
Make use of C2 pointers : No

Read offset correction : 102
Overread into Lead-In and Lead-Out : No
Fill up missing offset samples with silence : Yes
Delete leading and trailing silent blocks : No
Null samples used in CRC calculations : Yes
Used interface : Native Win32 interface for Win NT & 2000

Used output format : User Defined Encoder
Selected bitrate : 896 kBit/s
Quality : High
Add ID3 tag : No
Command line compressor : C:\Program Files\Exact Audio Copy\FLAC\FLAC.EXE
Additional command line options : -V -8 %source%


TOC of the extracted CD

Track | Start | Length | Start sector | End sector
––––––––––––––––––––––––––––-
1 | 0:00.33 | 4:10.00 | 33 | 18782
2 | 4:10.33 | 5:25.00 | 18783 | 43157
3 | 9:35.33 | 2:58.00 | 43158 | 56507
4 | 12:33.33 | 4:57.00 | 56508 | 78782
5 | 17:30.33 | 3:11.00 | 78783 | 93107
6 | 20:41.33 | 3:55.00 | 93108 | 110732
7 | 24:36.33 | 3:45.00 | 110733 | 127607
8 | 28:21.33 | 3:10.00 | 127608 | 141857
9 | 31:31.33 | 3:38.00 | 141858 | 158207
10 | 35:09.33 | 4:27.00 | 158208 | 178232
11 | 39:36.33 | 2:39.00 | 178233 | 190157
12 | 42:15.33 | 4:10.00 | 190158 | 208907
13 | 46:25.33 | 4:08.00 | 208908 | 227507
14 | 50:33.33 | 3:18.00 | 227508 | 242357
15 | 53:51.33 | 3:47.00 | 242358 | 259382
16 | 57:38.33 | 4:28.00 | 259383 | 279482
17 | 62:06.33 | 3:56.00 | 279483 | 297182
18 | 66:02.33 | 3:19.00 | 297183 | 312107


Range status and errors

Selected range

Filename C:\temp\Heinz Holliger Edition\Heinz Holliger Edition - CD05.wav

Peak level 95.4 %
Extraction speed 3.6 X
Range quality 99.9 %
Test CRC 90402762
Copy CRC 90402762
Copy OK

No errors occurred

End of status report

==== Log checksum 725962F6631A49BDC87E09F940DD492AF063222838B3FD171126477A9CB0E830 ====

Exact Audio Copy V1.0 beta 3 from 29. August 2011

EAC extraction logfile from 13. November 2012, 19:04

Heinz Holliger / Heinz Holliger Edition - CD06

Used drive : HL-DT-STDVDRRW GWA-4164B Adapter: 5 ID: 0

Read mode : Secure
Utilize accurate stream : Yes
Defeat audio cache : Yes
Make use of C2 pointers : No

Read offset correction : 102
Overread into Lead-In and Lead-Out : No
Fill up missing offset samples with silence : Yes
Delete leading and trailing silent blocks : No
Null samples used in CRC calculations : Yes
Used interface : Native Win32 interface for Win NT & 2000

Used output format : User Defined Encoder
Selected bitrate : 896 kBit/s
Quality : High
Add ID3 tag : No
Command line compressor : C:\Program Files\Exact Audio Copy\FLAC\FLAC.EXE
Additional command line options : -V -8 %source%


TOC of the extracted CD

Track | Start | Length | Start sector | End sector
––––––––––––––––––––––––––––-
1 | 0:00.00 | 10:47.45 | 0 | 48569
2 | 10:47.45 | 6:07.32 | 48570 | 76126
3 | 16:55.02 | 6:12.03 | 76127 | 104029
4 | 23:07.05 | 2:17.55 | 104030 | 114359
5 | 25:24.60 | 2:36.50 | 114360 | 126109
6 | 28:01.35 | 2:59.45 | 126110 | 139579
7 | 31:01.05 | 2:24.15 | 139580 | 150394
8 | 33:25.20 | 10:58.65 | 150395 | 199809
9 | 44:24.10 | 3:39.18 | 199810 | 216252


Range status and errors

Selected range

Filename C:\temp\Heinz Holliger Edition\Heinz Holliger Edition - CD06.wav

Peak level 99.9 %
Extraction speed 2.5 X
Range quality 99.9 %
Test CRC 5840F92B
Copy CRC 5840F92B
Copy OK

No errors occurred

End of status report

==== Log checksum A526F0937E630B6D3BD979DFEEE7DA7B03D44D417DAF305595E1156051F70B81 ====

Exact Audio Copy V1.0 beta 3 from 29. August 2011

EAC extraction logfile from 14. November 2012, 13:07

Heinz Holliger, Orlando Quartet / Heinz Holliger Edition - CD07 - Mozart - Oboe Quartet, Adagio K580a, Divertimento K251

Used drive : HL-DT-STDVDRRW GWA-4164B Adapter: 5 ID: 0

Read mode : Secure
Utilize accurate stream : Yes
Defeat audio cache : Yes
Make use of C2 pointers : No

Read offset correction : 102
Overread into Lead-In and Lead-Out : No
Fill up missing offset samples with silence : Yes
Delete leading and trailing silent blocks : No
Null samples used in CRC calculations : Yes
Used interface : Native Win32 interface for Win NT & 2000

Used output format : User Defined Encoder
Selected bitrate : 896 kBit/s
Quality : High
Add ID3 tag : No
Command line compressor : C:\Program Files\Exact Audio Copy\FLAC\FLAC.EXE
Additional command line options : -V -8 %source%


TOC of the extracted CD

Track | Start | Length | Start sector | End sector
––––––––––––––––––––––––––––-
1 | 0:00.33 | 9:16.00 | 33 | 41732
2 | 9:16.33 | 3:30.37 | 41733 | 57519
3 | 12:46.70 | 4:44.38 | 57520 | 78857
4 | 17:31.33 | 5:56.00 | 78858 | 105557
5 | 23:27.33 | 2:06.62 | 105558 | 115069
6 | 25:34.20 | 4:36.13 | 115070 | 135782
7 | 30:10.33 | 3:54.00 | 135783 | 153332
8 | 34:04.33 | 4:34.37 | 153333 | 173919
9 | 38:38.70 | 0:39.55 | 173920 | 176899
10 | 39:18.50 | 1:16.40 | 176900 | 182639
11 | 40:35.15 | 1:21.35 | 182640 | 188749
12 | 41:56.50 | 1:22.20 | 188750 | 194919
13 | 43:18.70 | 5:18.50 | 194920 | 218819
14 | 48:37.45 | 2:10.63 | 218820 | 228632


Range status and errors

Selected range

Filename C:\temp\Heinz Holliger Edition\Heinz Holliger Edition - CD07.wav

Peak level 98.8 %
Extraction speed 2.5 X
Range quality 99.9 %
Test CRC 938D365D
Copy CRC 938D365D
Copy OK

No errors occurred

End of status report

==== Log checksum 8E1956933E64EFD1841851F31BAF5C49CBACC8F0BDF4448BFCF1C556FCBC31F6 ====

Exact Audio Copy V1.0 beta 3 from 29. August 2011

EAC extraction logfile from 14. November 2012, 13:57

Heinz Holliger, Academy of St Martin in the Fields / Heinz Holliger Edition - CD08 - Mozart - Sinfonia concertante K297b, Oboe Concerto

Used drive : HL-DT-STDVDRRW GWA-4164B Adapter: 5 ID: 0

Read mode : Secure
Utilize accurate stream : Yes
Defeat audio cache : Yes
Make use of C2 pointers : No

Read offset correction : 102
Overread into Lead-In and Lead-Out : No
Fill up missing offset samples with silence : Yes
Delete leading and trailing silent blocks : No
Null samples used in CRC calculations : Yes
Used interface : Native Win32 interface for Win NT & 2000

Used output format : User Defined Encoder
Selected bitrate : 896 kBit/s
Quality : High
Add ID3 tag : No
Command line compressor : C:\Program Files\Exact Audio Copy\FLAC\FLAC.EXE
Additional command line options : -V -8 %source%


TOC of the extracted CD

Track | Start | Length | Start sector | End sector
––––––––––––––––––––––––––––-
1 | 0:00.32 | 9:39.50 | 32 | 43506
2 | 9:40.07 | 6:28.63 | 43507 | 72669
3 | 16:08.70 | 12:26.62 | 72670 | 128681
4 | 28:35.57 | 6:52.00 | 128682 | 159581
5 | 35:27.57 | 7:26.25 | 159582 | 193056
6 | 42:54.07 | 5:31.00 | 193057 | 217881


Range status and errors

Selected range

Filename C:\temp\Heinz Holliger Edition\Heinz Holliger Edition - CD08.wav

Peak level 99.9 %
Extraction speed 2.5 X
Range quality 100.0 %
Test CRC 8448BDB5
Copy CRC 8448BDB5
Copy OK

No errors occurred

End of status report

==== Log checksum D934CE5A46E7BC8704E92A411E8B0E033787EB890AE72472943077CE40309798 ====

Exact Audio Copy V1.0 beta 3 from 29. August 2011

EAC extraction logfile from 14. November 2012, 14:54

Heinz Holliger / Heinz Holliger Edition - CD09 - Oboe Concertos

Used drive : HL-DT-STDVDRRW GWA-4164B Adapter: 5 ID: 0

Read mode : Secure
Utilize accurate stream : Yes
Defeat audio cache : Yes
Make use of C2 pointers : No

Read offset correction : 102
Overread into Lead-In and Lead-Out : No
Fill up missing offset samples with silence : Yes
Delete leading and trailing silent blocks : No
Null samples used in CRC calculations : Yes
Used interface : Native Win32 interface for Win NT & 2000

Used output format : User Defined Encoder
Selected bitrate : 896 kBit/s
Quality : High
Add ID3 tag : No
Command line compressor : C:\Program Files\Exact Audio Copy\FLAC\FLAC.EXE
Additional command line options : -V -8 %source%


TOC of the extracted CD

Track | Start | Length | Start sector | End sector
––––––––––––––––––––––––––––-
1 | 0:00.33 | 2:50.00 | 33 | 12782
2 | 2:50.33 | 3:49.00 | 12783 | 29957
3 | 6:39.33 | 14:58.00 | 29958 | 97307
4 | 21:37.33 | 4:23.37 | 97308 | 117069
5 | 26:00.70 | 9:49.38 | 117070 | 161282
6 | 35:50.33 | 13:50.00 | 161283 | 223532
7 | 49:40.33 | 5:18.00 | 223533 | 247382
8 | 54:58.33 | 2:52.37 | 247383 | 260319
9 | 57:50.70 | 3:43.00 | 260320 | 277044
10 | 61:33.70 | 14:42.38 | 277045 | 343232


Range status and errors

Selected range

Filename C:\temp\Heinz Holliger Edition\Heinz Holliger Edition - CD09.wav

Peak level 99.7 %
Extraction speed 4.0 X
Range quality 100.0 %
Test CRC A9AF92E1
Copy CRC A9AF92E1
Copy OK

No errors occurred

End of status report

==== Log checksum FD9CE228384185C5DB9C7AE3FB742CBAF774FE74C05C9A2E5B905C889924A776 ====

Exact Audio Copy V1.0 beta 3 from 29. August 2011

EAC extraction logfile from 14. November 2012, 15:49

Heinz Holliger, Academy of St Martin in the Fields, Sir Neville Marriner / Heinz Holliger Edition - CD10

Used drive : HL-DT-STDVDRRW GWA-4164B Adapter: 5 ID: 0

Read mode : Secure
Utilize accurate stream : Yes
Defeat audio cache : Yes
Make use of C2 pointers : No

Read offset correction : 102
Overread into Lead-In and Lead-Out : No
Fill up missing offset samples with silence : Yes
Delete leading and trailing silent blocks : No
Null samples used in CRC calculations : Yes
Used interface : Native Win32 interface for Win NT & 2000

Used output format : User Defined Encoder
Selected bitrate : 896 kBit/s
Quality : High
Add ID3 tag : No
Command line compressor : C:\Program Files\Exact Audio Copy\FLAC\FLAC.EXE
Additional command line options : -V -8 %source%


TOC of the extracted CD

Track | Start | Length | Start sector | End sector
––––––––––––––––––––––––––––-
1 | 0:00.32 | 7:09.00 | 32 | 32206
2 | 7:09.32 | 6:18.00 | 32207 | 60556
3 | 13:27.32 | 3:56.00 | 60557 | 78256
4 | 17:23.32 | 4:03.00 | 78257 | 96481
5 | 21:26.32 | 2:27.00 | 96482 | 107506
6 | 23:53.32 | 5:42.00 | 107507 | 133156
7 | 29:35.32 | 7:32.00 | 133157 | 167056
8 | 37:07.32 | 4:09.00 | 167057 | 185731
9 | 41:16.32 | 2:51.00 | 185732 | 198556
10 | 44:07.32 | 2:47.00 | 198557 | 211081
11 | 46:54.32 | 4:57.00 | 211082 | 233356
12 | 51:51.32 | 6:23.00 | 233357 | 262081
13 | 58:14.32 | 6:07.00 | 262082 | 289606


Range status and errors

Selected range

Filename C:\temp\Heinz Holliger Edition\Heinz Holliger Edition - CD10.wav

Peak level 80.3 %
Extraction speed 3.3 X
Range quality 100.0 %
Test CRC BFBA1454
Copy CRC BFBA1454
Copy OK

No errors occurred

End of status report

==== Log checksum C4C93D2D631D369B24F6B33A10840C9B19E44D86E14F066C83D664E93ED0F359 ====