Subcategories

Hélène Grimaud - Bach: Transcribed (2008) (Repost)

Posted By: tirexiss
Hélène Grimaud - Bach: Transcribed (2008) (Repost)

Hélène Grimaud - Bach: Transcribed (2008)
EAC | FLAC (tracks+.cue, log) | Covers Included | 01:16:02 | 355 MB
Genre: Classical | Label: Deutsche Grammophon | Catalog: 1426

Fitting her reputation for interpreting the keyboard repertoire in a big way, Hélène Grimaud presents her first recording of J.S. Bach's works with transcriptions by Ferruccio Busoni, Franz Liszt, and Sergei Rachmaninov, which were all intended to update the music for the modern grand piano. Because Grimaud's style is direct and robust, reminiscent of Martha Argerich, and the transcriptions are dramatically more pianistic than the originals, Bach purists should look elsewhere for more meticulous and historically informed performances of these Baroque pieces, perhaps on fortepiano or harpsichord. Grimaud's fans, however, will feel at home with her rich and resonant playing, and if the beefed-up passagework, with all its octaves, chromatic filigree, and heavy pedaling, are deemed acceptable, then this album will surely find its audience. The preludes and fugues from the Well-Tempered Clavier are not transcriptions, though Grimaud's energetic and idiosyncratic playing almost makes them seem as if they were, and the Concerto No. 1 in D minor, supported by Florian Donderer and the German Chamber Philharmonic, Bremen, is delivered in a straightforward manner without embellishment or period instruments. The Busoni version of the Chaconne in D minor, Liszt's arrangement of the Prelude and Fugue in A minor, and Rachmaninov's fanciful adaptation of the Prelude in E major from the Partita No. 3 for violin seem to be the album's raison d'être, for Grimaud finds her voice in these colorful performances, and her passionate and virtuosic style is best suited to their elaborations. Deutsche Grammophon's reproduction is exceptional and well-balanced for Grimaud's sonorous playing.

Hélène Grimaud - Bach: Transcribed (2008) (Repost)

Track List:

Prelude & Fugue No.2 BWV847
from Das Wohltemperierte Klavier, Book 1
01. Prelude
02. Fugue

Prelude & Fugue No.4 BWV849
from Das Wohltemperierte Klavier, Book 1
03. Prelude
04. Fugue

Concerto for Piano No.1 BWV1052
05. I. Allegro
06. II. Adagio
07. III. Allegro

Prelude & Fugue No.6 BWV875
from Das Wohltemperierte Klavier, Book 2
08. Prelude
09. Fugue

10. Chaconne
from Violin Partita No.2 BWV1004 (arr. Busoni)

Prelude & Fugue No.20 BWV889
from Das Wohltemperierte Klavier, Book 2
11. Prelude
12. Fugue

13. Prelude & Fugue
from BWV543 for organ (arr. Liszt)

Prelude & Fugue No.9 BWV878
from Das Wohltemperierte Klavier, Book 2
14. Prelude
15. Fugue

16. Prelude
from Violin Partita No.3 BWV1006 (arr. Рахманинов)

Performers:
Hélène Grimaud, piano
Die Deutsche Kammerphilharmonie Bremen
Florian Donderer, leader

Exact Audio Copy V0.99 prebeta 5 from 4. May 2009

Отчёт EAC об извлечении, выполненном 10. марта 2010, 22:24

Helene Grimaud / Bach

Дисковод: Optiarc DVD RW AD-7203A Adapter: 4 ID: 1

Режим чтения : Достоверность
Использование точного потока : Да
Отключение кэша аудио : Да
Использование указателей C2 : Нет

Коррекция смещения при чтении : 48
Способность читать области Lead-in и Lead-out : Нет
Заполнение пропущенных сэмплов тишиной : Да
Удаление блоков с тишиной в начале и конце : Нет
При вычислениях CRC использовались нулевые сэмплы : Да
Интерфейс : Встроенный Win32-интерфейс для Win NT/2000

Выходной формат : Пользовательский кодировщик
Выбранный битрейт : 128 kBit/s
Качество : Высокий
Добавление ID3-тэга : Нет
Утилита сжатия : C:\Program Files\FLAC\flac.exe
Дополнительные параметры : -5 -V %s


TOC извлечённого CD

Трек | Старт | Длительность | Начальный сектор | Конечный сектор
––––––––––––––––––––––––––––––––––-
1 | 0:00.00 | 1:31.03 | 0 | 6827
2 | 1:31.03 | 1:42.14 | 6828 | 14491
3 | 3:13.17 | 3:16.44 | 14492 | 29235
4 | 6:29.61 | 4:20.11 | 29236 | 48746
5 | 10:49.72 | 7:36.39 | 48747 | 82985
6 | 18:26.36 | 7:08.64 | 82986 | 115149
7 | 25:35.25 | 7:27.06 | 115150 | 148680
8 | 33:02.31 | 1:28.39 | 148681 | 155319
9 | 34:30.70 | 1:47.24 | 155320 | 163368
10 | 36:18.19 | 14:33.41 | 163369 | 228884
11 | 50:51.60 | 3:38.22 | 228885 | 245256
12 | 54:30.07 | 1:44.00 | 245257 | 253056
13 | 56:14.07 | 9:29.05 | 253057 | 295736
14 | 65:43.12 | 4:07.64 | 295737 | 314325
15 | 69:51.01 | 2:33.37 | 314326 | 325837
16 | 72:24.38 | 3:38.20 | 325838 | 342207


Характеристики диапазона извлечения и сообщения об ошибках

Выбранный диапазон

Имя файла D:\EAC\Helene Grimaud - Bach.wav

Пиковый уровень 97.0 %
Качество диапазона 100.0 %
CRC теста 2D848A07
CRC копии 2D848A07
Копирование… OK

Ошибок не произошло


AccurateRip: сводка

Трек 1 точное извлечение (доверие 38) [DE9B775C]
Трек 2 точное извлечение (доверие 38) [252EDE1C]
Трек 3 точное извлечение (доверие 38) [589F5FDE]
Трек 4 точное извлечение (доверие 37) [81F785CE]
Трек 5 точное извлечение (доверие 37) [7C50F121]
Трек 6 точное извлечение (доверие 37) [BA4EDF68]
Трек 7 точное извлечение (доверие 37) [DA0B2405]
Трек 8 точное извлечение (доверие 37) [7AF51418]
Трек 9 точное извлечение (доверие 38) [C5FCC18F]
Трек 10 точное извлечение (доверие 38) [7388D397]
Трек 11 точное извлечение (доверие 38) [4EC365F0]
Трек 12 точное извлечение (доверие 39) [237A750B]
Трек 13 точное извлечение (доверие 39) [064CDB05]
Трек 14 точное извлечение (доверие 39) [1302C142]
Трек 15 точное извлечение (доверие 39) [E6BBCBDC]
Трек 16 точное извлечение (доверие 38) [D8C14CFD]

Все треки извлечены точно

Конец отчёта

[CUETools log; Date: 12.11.2017 16:44:54; Version: 2.1.5]
[CTDB TOCID: KgmiXOojrz_YWyJreG3Fp0m7Qbs-] found.
Track | CTDB Status
1 | (224/225) Accurately ripped
2 | (225/225) Accurately ripped
3 | (224/225) Accurately ripped
4 | (225/225) Accurately ripped
5 | (223/225) Accurately ripped
6 | (223/225) Accurately ripped
7 | (224/225) Accurately ripped
8 | (225/225) Accurately ripped
9 | (225/225) Accurately ripped
10 | (221/225) Accurately ripped
11 | (224/225) Accurately ripped
12 | (224/225) Accurately ripped
13 | (221/225) Accurately ripped
14 | (222/225) Accurately ripped
15 | (224/225) Accurately ripped
16 | (223/225) Accurately ripped
[AccurateRip ID: 002a44c5-020fa434-df11d210] found.
Track [ CRC | V2 ] Status
01 [de9b775c|4113ec73] (073+166/244) Accurately ripped
02 [252ede1c|3ab37956] (075+166/246) Accurately ripped
03 [589f5fde|03df6c51] (075+166/246) Accurately ripped
04 [81f785ce|4ef3e91c] (073+166/244) Accurately ripped
05 [7c50f121|2adc0d6c] (074+165/244) Accurately ripped
06 [ba4edf68|2ec8a1b8] (074+166/245) Accurately ripped
07 [da0b2405|51218a5e] (073+166/245) Accurately ripped
08 [7af51418|56fca006] (074+167/247) Accurately ripped
09 [c5fcc18f|2fa3859b] (075+167/248) Accurately ripped
10 [7388d397|b1cd8c9a] (074+167/247) Accurately ripped
11 [4ec365f0|a9db1b90] (074+165/245) Accurately ripped
12 [237a750b|0b6bf8fd] (076+166/248) Accurately ripped
13 [064cdb05|7dec1e99] (075+165/246) Accurately ripped
14 [1302c142|4c2c5951] (075+164/245) Accurately ripped
15 [e6bbcbdc|0a3597f2] (076+164/246) Accurately ripped
16 [d8c14cfd|cf628415] (075+163/244) Accurately ripped
Offsetted by -12:
01 [4e14beb2] (003/244) Accurately ripped
02 [c0843e8a] (003/246) Accurately ripped
03 [ed34f1d6] (003/246) Accurately ripped
04 [36bde721] (003/244) Accurately ripped
05 [f7ea59bc] (003/244) Accurately ripped
06 [ab938eab] (003/245) Accurately ripped
07 [885f22e4] (004/245) Accurately ripped
08 [a421aaff] (004/247) Accurately ripped
09 [956b0f68] (004/248) Accurately ripped
10 [e2a1262c] (004/247) Accurately ripped
11 [02ebe8ca] (004/245) Accurately ripped
12 [81551139] (004/248) Accurately ripped
13 [54c58db3] (004/246) Accurately ripped
14 [f5e2bc63] (004/245) Accurately ripped
15 [6844feee] (004/246) Accurately ripped
16 [007e5c32] (004/244) Accurately ripped

Track Peak [ CRC32 ] [W/O NULL] [ LOG ]
– 97,0 [2D848A07] [9814840C] CRC32
01 60,2 [3217CB86] [2DF44350]
02 63,9 [44C30ABC] [04708A95]
03 28,7 [B374C70D] [AAD0A5CA]
04 75,0 [D2E3BF61] [00BE13B8]
05 88,9 [501CD20A] [CBFEAFF8]
06 54,9 [6E599CA8] [6726B304]
07 97,0 [E2035BBF] [198E23A1]
08 55,0 [861D95BA] [059FB4DE]
09 59,6 [1924526A] [B4AEBB7E]
10 91,5 [C1D19FD9] [44755052]
11 42,0 [C055159F] [D16AA59A]
12 73,6 [4A335699] [BFD2C94D]
13 89,4 [6F311796] [BC4E034C]
14 34,8 [B07F71F2] [DC7FB27B]
15 70,1 [2CAD263A] [3A655502]
16 86,2 [A5D5CCEE] [0FED0CF6]

Thanks to the Original ripper GFox!

Download: