Subcategories

Helsinki Chamber Choir, Nils Schweckendiek - Erik Bergman: Choral Works, 1936-2000 (2017)

Posted By: tirexiss
Helsinki Chamber Choir, Nils Schweckendiek - Erik Bergman: Choral Works, 1936-2000 (2017)

Helsinki Chamber Choir, Nils Schweckendiek - Erik Bergman: Choral Works, 1936-2000 (2017)
EAC | FLAC (image+.cue, log) | Covers Included | 01:52:03 | 142 MB
Genre: Classical, Choral | Label: BIS | Catalog: BIS-CD-2252

The Helsinki Chamber Choir (Helsingin kamarikuoro) was founded in 1962 as the Finnish Radio Chamber Choir and assumed its current name in 2005. It is currently Finland’s only professional chamber choir.
The choir’s Artistic Director from 2005–2007 was Kimmo Hakola. Since 2007 Nils Schweckendiek has been responsible for the group's artistic planning.
While its wide-ranging repertoire includes music from the Renaissance to the present day, the Helsinki Chamber Choir is particularly highly regarded for its work with new music. The choir regularly commissions new works and has given over 50 world premieres in the seasons since 2005, as well as more than 30 Finnish first performances. The choir appears frequently at major Finnish music festivals and collaborates with orchestras and Baroque and contemporary music ensembles. Recent touring has included concerts in Russia, Estonia and Belgium.
The Helsinki Chamber Choir's concerts are regularly broadcast on radio and television, both nationally and internationally. Particular highlights have been televised performances on the international cultural channel ARTE of Michael Haydn's Requiem in 2006 and Einojuhani Rautavaara's Vigilia in 2013.
The Helsinki Chamber Choir's recording of Magnus Lindberg's Graffiti (with the Finnish Radio Symphony Orchestra and Sakari Oramo) was nominated for a Grammy in the contemporary music category in 2010. During its days as the Finnish Radio Chamber Choir, the group recorded a number of CDs for the Ondine label, including Rautavaara's complete works for mixed a cappella choir. The choir's most recent appearance on CD is in the world premiere recording of Veli-Matti Puumala's opera Anna Liisa (to be released in May 2015). A number of other recordings will appear in the near future.
Since 2012 the Helsinki Chamber Choir has been a member of Tenso, the association of European professional chamber choirs.
The Finnish Radio Chamber Choir’s principal conductors were Harald Andersén, Kaj-Erik Gustafsson, Ilmo Riihimäki, Eric-Olof Söderström and Timo Nuoranne. Alongside Nils Schweckendiek, in recent years the choir has worked with conductors including Kaspars Putnins, Fredrik Malmberg, Eric-Olof Söderström, Andres Mustonen, Olari Elts, Rachid Safir, Tim Brown, Anne Azéma, Aapo Häkkinen, James Wood and Rinaldo Alessandrini.
Nils Schweckendiek
studied music at Clare College, Cambridge, and orchestral and choral conducting in Freiburg and Helsinki. In 2006 he made his debut at the Finnish National Opera with Richard Strauss' Der Rosenkavalier and subsequently conducted numerous opera and ballet performances at the same house. Guest performances have taken him to the Leipzig Opera (Der Rosenkavalier), the Savonlinna Opera Festival, Vaasa, Berne and Bielefeld. From 2009-2013 he was the conductor of the Ulm Opera, where he conducted first nights of, amongst others, Don Carlo (Verdi), Ariodante (Handel), Romeo and Juliet (Prokofiev), Der Ring an einem Abend (Wagner) and Le sacre du printemps (Stravinsky).
Nils Schweckendiek is committed to performing the music of our time and has conducted around eighty first performances, including music theatre, orchestral, choral and ensemble works. In 2013 his performance of Einojuhani Rautavaara's monumental Vigilia with the Helsinki Chamber Choir was televised on ARTE. He has worked with numerous orchestras in Finland, Germany, Spain, England, China and Estonia.
Since 2007 Nils Schweckendiek has been Artistic Director of the Helsinki Chamber Choir. In 2014 he was appointed Professor of Choral Conducting at the University of the Arts (Sibelius Academy) in Helsinki. Guest conducting has included the SWR Vokalensemble Stuttgart and the Danish Radio National Concert Choir. In the 2015/16 season he will be appearing with Tapiola Sinfonietta, the Ostrobothnian Chamber Orchestra, the Finnish Baroque Orchestra, the Mannheim Opera Choir, the Netherlands Radio Choir, the Croatian Radio and TV Choir, and defunensemble. He is Founder and Artistic Director of the International Einojuhani Rautavaara Composition Competition, the second edition of which is being held in 2015/16.

Helsinki Chamber Choir, Nils Schweckendiek - Erik Bergman: Choral Works, 1936-2000 (2017)

Track List:

CD 1:
[1]-[4] Petrarca-Suite, Op. 118
[5]–[7] Gudarnas spår, Op. 88
[8] Vestenvinden, Op.73a
[9]–[10] Lamento – Burletta (1957)
[11]–[13] from Four Songs for mixed chorus, Op. 38a
Barnet travar · Filmmanuskript · En vårvisa
[14] Mitt träd är pinjen, Op. 12 No.5
[15]–[18] Four Songs for mixed chorus, Op.44b
[19] Psalm, Op. 50a
[20] Springtime, Op.60
[21] Vårt land, Op. 146

Exact Audio Copy V1.1 from 23. June 2015

EAC extraction logfile from 3. July 2017, 22:27

Helsinki Chamber Choir, Nils Schweckendiek / Erik Bergman - Choral Works 1936-2000 - CD1

Used drive : PLDS DVD-RW DU8A6SH Adapter: 1 ID: 0

Read mode : Secure
Utilize accurate stream : Yes
Defeat audio cache : Yes
Make use of C2 pointers : No

Read offset correction : 6
Overread into Lead-In and Lead-Out : No
Fill up missing offset samples with silence : Yes
Delete leading and trailing silent blocks : No
Null samples used in CRC calculations : Yes
Used interface : Native Win32 interface for Win NT & 2000

Used output format : User Defined Encoder
Selected bitrate : 128 kBit/s
Quality : High
Add ID3 tag : No
Command line compressor : C:\Program Files (x86)\Exact Audio Copy\Flac\flac.exe
Additional command line options : -V -8 -T "Date=%year%" -T "Genre=%genre%" %source%


TOC of the extracted CD

Track | Start | Length | Start sector | End sector
––––––––––––––––––––––––––––-
1 | 0:00.00 | 3:11.00 | 0 | 14324
2 | 3:11.00 | 3:18.72 | 14325 | 29246
3 | 6:29.72 | 3:29.33 | 29247 | 44954
4 | 9:59.30 | 5:20.00 | 44955 | 68954
5 | 15:19.30 | 3:24.15 | 68955 | 84269
6 | 18:43.45 | 3:10.25 | 84270 | 98544
7 | 21:53.70 | 3:53.55 | 98545 | 116074
8 | 25:47.50 | 2:42.61 | 116075 | 128285
9 | 28:30.36 | 2:47.34 | 128286 | 140844
10 | 31:17.70 | 2:07.47 | 140845 | 150416
11 | 33:25.42 | 1:17.13 | 150417 | 156204
12 | 34:42.55 | 1:03.55 | 156205 | 160984
13 | 35:46.35 | 1:05.70 | 160985 | 165929
14 | 36:52.30 | 1:52.50 | 165930 | 174379
15 | 38:45.05 | 1:18.07 | 174380 | 180236
16 | 40:03.12 | 0:48.46 | 180237 | 183882
17 | 40:51.58 | 1:14.60 | 183883 | 189492
18 | 42:06.43 | 1:40.52 | 189493 | 197044
19 | 43:47.20 | 1:56.73 | 197045 | 205817
20 | 45:44.18 | 3:50.55 | 205818 | 223122
21 | 49:34.73 | 6:33.52 | 223123 | 252649


Range status and errors

Selected range

Filename C:\temp\BIS-CD-2252 - Erik Bergman - Choral Works 1936-2000\CD1\Erik Bergman - Choral Works 1936-2000 - CD1.wav

Peak level 96.5 %
Extraction speed 3.5 X
Range quality 100.0 %
Test CRC 1EA7CC77
Copy CRC 1EA7CC77
Copy OK

No errors occurred


AccurateRip summary

Track 1 not present in database
Track 2 not present in database
Track 3 not present in database
Track 4 not present in database
Track 5 not present in database
Track 6 not present in database
Track 7 not present in database
Track 8 not present in database
Track 9 not present in database
Track 10 not present in database
Track 11 not present in database
Track 12 not present in database
Track 13 not present in database
Track 14 not present in database
Track 15 not present in database
Track 16 not present in database
Track 17 not present in database
Track 18 not present in database
Track 19 not present in database
Track 20 not present in database
Track 21 not present in database

None of the tracks are present in the AccurateRip database

End of status report

==== Log checksum E7273F09FA296988EC73F1EF3031F93602812E113CA695341A2F07826E7C63A2 ====

[CUETools log; Date: 02.04.2018 11:39:28; Version: 2.1.5]
[CTDB TOCID: fmcNpjLE6cMiQZp0C5tWeC8jWcQ-] found.
Track | CTDB Status
1 | (2/2) Accurately ripped
2 | (2/2) Accurately ripped
3 | (2/2) Accurately ripped
4 | (2/2) Accurately ripped
5 | (2/2) Accurately ripped
6 | (2/2) Accurately ripped
7 | (2/2) Accurately ripped
8 | (2/2) Accurately ripped
9 | (2/2) Accurately ripped
10 | (2/2) Accurately ripped
11 | (2/2) Accurately ripped
12 | (2/2) Accurately ripped
13 | (2/2) Accurately ripped
14 | (2/2) Accurately ripped
15 | (2/2) Accurately ripped
16 | (2/2) Accurately ripped
17 | (2/2) Accurately ripped
18 | (2/2) Accurately ripped
19 | (2/2) Accurately ripped
20 | (2/2) Accurately ripped
21 | (2/2) Accurately ripped
[AccurateRip ID: 002d40a5-02966f91-1f0d2815] disk not present in database.

Track Peak [ CRC32 ] [W/O NULL] [ LOG ]
– 96,5 [1EA7CC77] [744BC2A1] CRC32
01 65,5 [C110C065] [E6C02BD8]
02 37,9 [A6032099] [C7D40042]
03 57,9 [6DBE4692] [29BB8CD2]
04 45,2 [2499FA71] [8132702C]
05 51,1 [90884687] [FE44B365]
06 18,8 [2DC33898] [BE48EA0B]
07 51,4 [690DD044] [6381E0DB]
08 96,5 [868FB299] [B720A56A]
09 37,4 [F39DA31F] [6116D51D]
10 84,8 [B6218FD4] [6433FE71]
11 31,3 [26365E93] [D4C39357]
12 49,3 [08A27BE7] [A17C8F2E]
13 73,8 [21ABFF74] [5A55CEE9]
14 36,1 [6A573CC1] [2E3D70B2]
15 21,3 [34F43F92] [0ADBBC10]
16 25,9 [C119882A] [56EA2E50]
17 55,2 [83ADE807] [9B61BB97]
18 42,3 [6A0D6838] [DC99C9A9]
19 58,1 [B8A6E998] [50D37C67]
20 61,6 [6C14FAD2] [FF5D9B11]
21 96,5 [BB620493] [329D0461]

CD 2:
[1]–[3] Nein zur Lebensangst, Op. 120
[4] Hommage à Béla Bartók, Op. 132
[5] Sommarnatt (1945)
[6] Nu är sommarn här (1943)
[7] Skärgårdsgossens visa (arr.) (1938)
[8] Den vän jag älskat… (arr.) (1936)
[9] Och gossen gick sig ut… (arr.) (1937)
[10]–[12] Tyttöset, Op.73b
[13] Väinämöinen, Op. 147

Exact Audio Copy V1.1 from 23. June 2015

EAC extraction logfile from 3. July 2017, 23:04

Helsinki Chamber Choir, Nils Schweckendiek / Erik Bergman - Choral Works 1936-2000 - CD2

Used drive : PLDS DVD-RW DU8A6SH Adapter: 1 ID: 0

Read mode : Secure
Utilize accurate stream : Yes
Defeat audio cache : Yes
Make use of C2 pointers : No

Read offset correction : 6
Overread into Lead-In and Lead-Out : No
Fill up missing offset samples with silence : Yes
Delete leading and trailing silent blocks : No
Null samples used in CRC calculations : Yes
Used interface : Native Win32 interface for Win NT & 2000

Used output format : User Defined Encoder
Selected bitrate : 128 kBit/s
Quality : High
Add ID3 tag : No
Command line compressor : C:\Program Files (x86)\Exact Audio Copy\Flac\flac.exe
Additional command line options : -V -8 -T "Date=%year%" -T "Genre=%genre%" %source%


TOC of the extracted CD

Track | Start | Length | Start sector | End sector
––––––––––––––––––––––––––––-
1 | 0:00.00 | 1:54.00 | 0 | 8549
2 | 1:54.00 | 3:53.68 | 8550 | 26092
3 | 5:47.68 | 2:13.32 | 26093 | 36099
4 | 8:01.25 | 6:09.62 | 36100 | 63836
5 | 14:11.12 | 2:36.30 | 63837 | 75566
6 | 16:47.42 | 1:28.04 | 75567 | 82170
7 | 18:15.46 | 1:53.28 | 82171 | 90673
8 | 20:08.74 | 2:20.18 | 90674 | 101191
9 | 22:29.17 | 1:51.20 | 101192 | 109536
10 | 24:20.37 | 4:32.40 | 109537 | 129976
11 | 28:53.02 | 1:50.65 | 129977 | 138291
12 | 30:43.67 | 1:25.53 | 138292 | 144719
13 | 32:09.45 | 23:45.39 | 144720 | 251633


Range status and errors

Selected range

Filename C:\temp\BIS-CD-2252 - Erik Bergman - Choral Works 1936-2000\CD2\Erik Bergman - Choral Works 1936-2000 - CD2.wav

Peak level 80.6 %
Extraction speed 3.5 X
Range quality 100.0 %
Test CRC AD4B798A
Copy CRC AD4B798A
Copy OK

No errors occurred


AccurateRip summary

Track 1 not present in database
Track 2 not present in database
Track 3 not present in database
Track 4 not present in database
Track 5 not present in database
Track 6 not present in database
Track 7 not present in database
Track 8 not present in database
Track 9 not present in database
Track 10 not present in database
Track 11 not present in database
Track 12 not present in database
Track 13 not present in database

None of the tracks are present in the AccurateRip database

End of status report

==== Log checksum 4F0005FC5D3B453640854A2E920C69DAEB7D7FCEE65604070D6A5E5C262A22CD ====

[CUETools log; Date: 02.04.2018 11:39:47; Version: 2.1.5]
[CTDB TOCID: la4nOKm1ipSeC6FhzegPBV.a7JI-] found.
Track | CTDB Status
1 | (2/2) Accurately ripped
2 | (2/2) Accurately ripped
3 | (2/2) Accurately ripped
4 | (2/2) Accurately ripped
5 | (2/2) Accurately ripped
6 | (2/2) Accurately ripped
7 | (2/2) Accurately ripped
8 | (2/2) Accurately ripped
9 | (2/2) Accurately ripped
10 | (2/2) Accurately ripped
11 | (2/2) Accurately ripped
12 | (2/2) Accurately ripped
13 | (2/2) Accurately ripped
[AccurateRip ID: 00133368-00c380fd-9f0d1b0d] disk not present in database.

Track Peak [ CRC32 ] [W/O NULL] [ LOG ]
– 80,6 [AD4B798A] [BDE1BF69] CRC32
01 47,6 [053A2FC3] [CC18863A]
02 49,8 [2B4E2C24] [0E4F7089]
03 59,8 [77BFDB1A] [596354B0]
04 52,9 [AA6A7D30] [F10FC819]
05 47,6 [DB83B098] [3980EB61]
06 39,1 [05D4F090] [806F43DA]
07 45,8 [F5A21751] [A663E9AC]
08 23,2 [5DF5CF58] [4140E3AC]
09 22,3 [058C4CAA] [65D59E7D]
10 80,2 [22A49DE6] [F19DBCBE]
11 34,2 [68C50D90] [DC71ED57]
12 80,6 [604EDA92] [F9D68FBE]
13 78,0 [E3C67794] [0EFF2C56]

Performers:
Helsinki Chamber Choir
Nils Schweckendiek, conductor

Thanks to the Original ripper A-Z!

Download: