Henry Cow - Unrest (1974) [2015, Belle Antique Japan, BELLE-152407]

Posted By: v3122
Henry Cow - Unrest (1974) [2015, Belle Antique Japan, BELLE-152407]

Henry Cow - Unrest (1974)
EAC | Flac(Image) + Cue + Log & MP3 CBR 320Kbps
Belle Antique Japan, BELLE-152407 | ~ 388 or 161 Mb | Scans(png) -> 201 Mb
Free Jazz / Art Rock / Prog Rock

By this point Henry Cow consisted of guitarist Fred Frith, drummer Chris Cutler, bassist John Greaves, keyboardist Tim Hodgkinson, and, of particular importance to the band's sound at this point, bassoonist Lindsay Cooper. As is so often the case with avant-garde rock & roll, it's the composed pieces that work best, and the fact that Frith is responsible for the majority of them is significant. "Bittern Storm Over Ulm" is an absolutely brilliant demolition of the Yardbirds' "Got to Hurry," while the brief but lovely "Solemn Music" unfolds in a stately manner with atonal but pretty counterpoint between Frith and Cooper. The improvised material succeeds in a more spotty way. "Upon Entering the Hotel Adlon" demonstrates how fine the line can be between bracing free atonality and mindless cacophony. The unsettling but eventually gorgeous "Deluge," on the other hand, shows how well Henry Cow could walk that line when they tried; in this piece, random guitar skitterings, scattershot drum clatter, and pointillistic reed grunts are eventually snuck up on and overtaken by softly massed chords and Cooper's gently hooting bassoon. The effect is startlingly moving. Overall, this is one of Henry Cow's better efforts.

by Rick Anderson, AMG
Henry Cow - Unrest (1974) [2015, Belle Antique Japan, BELLE-152407]


Henry Cow - Unrest (1974):

Henry Cow - Unrest (1974) [2015, Belle Antique Japan, BELLE-152407]

Tracklist:

01. Bittern Storm Over Ulm 02:18
02. Half Asleep; Half Awake 07:59
03. Ruins 12:10
04. Solemn Music 01:11
05. Linguaphonie 05:31
06. Upon Entering The Hotel Adlon 03:04
07. Arcades 01:57
08. Deluge 05:24
09. Silence 01:00

Bonus Tracks:
10. The Glove (Unrest ESD Version Bonus) 06:31
11. Torchfire (Unrest ESD Version Bonus) 04:57
12. Introduction (The 40th Anniversary Box Set Version) 01:52
13. Ruins I (The 40th Anniversary Box Set Version) 06:35
14. Half Asleep; Half Awake (The 40th Anniversary Box Set Version) 04:11
15. Ruins II (The 40th Anniversary Box Set Version) 00:59
16. Heron Shower Over Hamburg (The 40th Anniversary Box Set Version) 02:29

Exact Audio Copy V1.1 from 23. June 2015

EAC extraction logfile from 14. July 2015, 20:23

Henry Cow / Leg End SHM-CD

Used drive : PLEXTOR BD-R PX-B950SA Adapter: 1 ID: 1

Read mode : Secure
Utilize accurate stream : Yes
Defeat audio cache : Yes
Make use of C2 pointers : No

Read offset correction : 6
Overread into Lead-In and Lead-Out : No
Fill up missing offset samples with silence : Yes
Delete leading and trailing silent blocks : No
Null samples used in CRC calculations : Yes
Used interface : Native Win32 interface for Win NT & 2000

Used output format : Internal WAV Routines
Sample format : 44.100 Hz; 16 Bit; Stereo


TOC of the extracted CD

Track | Start | Length | Start sector | End sector
––––––––––––––––––––––––––––-
1 | 0:00.00 | 4:56.25 | 0 | 22224
2 | 4:56.25 | 6:57.62 | 22225 | 53561
3 | 11:54.12 | 4:32.53 | 53562 | 74014
4 | 16:26.65 | 6:47.42 | 74015 | 104581
5 | 23:14.32 | 3:38.08 | 104582 | 120939
6 | 26:52.40 | 5:04.15 | 120940 | 143754
7 | 31:56.55 | 6:03.72 | 143755 | 171051
8 | 38:00.52 | 5:30.00 | 171052 | 195801
9 | 43:30.52 | 1:00.01 | 195802 | 200302
10 | 44:30.53 | 3:35.46 | 200303 | 216473
11 | 48:06.24 | 10:19.36 | 216474 | 262934
12 | 58:25.60 | 5:21.16 | 262935 | 287025
13 | 63:47.01 | 4:04.07 | 287026 | 305332


Range status and errors

Selected range

Filename C:\Users\Meijin\Desktop\ALLexxess\Henry Cow\1973 Leg End (Mini LP SHM-CD Belle Japan 2015)\Henry Cow - Leg End SHM-CD.wav

Peak level 99.3 %
Extraction speed 8.3 X
Range quality 100.0 %
Test CRC A24EF25B
Copy CRC A24EF25B
Copy OK

No errors occurred


AccurateRip summary

Track 1 not present in database
Track 2 not present in database
Track 3 not present in database
Track 4 not present in database
Track 5 not present in database
Track 6 not present in database
Track 7 not present in database
Track 8 not present in database
Track 9 not present in database
Track 10 not present in database
Track 11 not present in database
Track 12 not present in database
Track 13 not present in database

None of the tracks are present in the AccurateRip database

End of status report

–– CUETools DB Plugin V2.1.6

[CTDB TOCID: AEszi0Rp026zC72UjkXnDURPiEM-] disk not present in database
Submit result: AEszi0Rp026zC72UjkXnDURPiEM- has been uploaded


==== Log checksum 81EA724BA36D55CD118DFB1DA50BB5ED9297A6463CC5186D52361CA82B575151 ====

foobar2000 1.2.9 / Dynamic Range Meter 1.1.1
log date: 2015-07-31 15:03:17

––––––––––––––––––––––––––––––––––––––––
Analyzed: Henry Cow / Leg End SHM-CD
––––––––––––––––––––––––––––––––––––––––

DR Peak RMS Duration Track
––––––––––––––––––––––––––––––––––––––––
DR11 -0.56 dB -14.70 dB 4:56 01-Nirvana For Mice
DR12 -2.35 dB -18.50 dB 6:58 02-Amygdala
DR13 -6.25 dB -24.39 dB 4:33 03-Teenbeat Introduction
DR12 -1.62 dB -18.97 dB 6:48 04-Teenbeat
DR10 -1.54 dB -18.20 dB 3:38 05-Nirvana Reprise (Extract From 'With The Yellow Half Moon And Blue Star')
DR10 -0.06 dB -13.61 dB 5:04 06-Teenbeat Reprise
DR13 -0.54 dB -19.18 dB 6:04 07-The Tenth Chaffinch
DR11 -0.10 dB -16.27 dB 5:30 08-Nine Funerals Of The Citizen King
DR0 -1.#J dB -1.#J dB 1:00 09-Silence
DR11 -2.49 dB -18.22 dB 3:36 10-Amygdala Extract (The 40th Anniversary Box Set Version) / Bonus Track
DR10 -4.29 dB -17.01 dB 10:19 11-Teenbeat (The 40th Anniversary Box Set Version) / Bonus Track
DR14 -1.44 dB -22.17 dB 5:21 12-Citizen King (The 40th Anniversary Box Set Version) / Bonus Track
DR15 -0.30 dB -18.19 dB 4:04 13-Nirvana For Moles (The 40th Anniversary Box Set Version) / Bonus Track
––––––––––––––––––––––––––––––––––––––––

Number of tracks: 13
Official DR value: DR11

Samplerate: 44100 Hz
Channels: 2
Bits per sample: 16
Bitrate: 723 kbps
Codec: FLAC

[CUETools log; Date: 31.07.2015 15:02:35; Version: 2.1.4]
[CTDB TOCID: AEszi0Rp026zC72UjkXnDURPiEM-] found.
Track | CTDB Status
1 | (1/1) Accurately ripped
2 | (1/1) Accurately ripped
3 | (1/1) Accurately ripped
4 | (1/1) Accurately ripped
5 | (1/1) Accurately ripped
6 | (1/1) Accurately ripped
7 | (1/1) Accurately ripped
8 | (1/1) Accurately ripped
9 | (1/1) Accurately ripped
10 | (1/1) Accurately ripped
11 | (1/1) Accurately ripped
12 | (1/1) Accurately ripped
13 | (1/1) Accurately ripped
[AccurateRip ID: 0020edb4-01470742-d70fe70d] disk not present in database.

Track Peak [ CRC32 ] [W/O NULL] [ LOG ]
– 99,3 [A24EF25B] [0A7FC565] CRC32
01 93,7 [F5591DD2] [2478C205]
02 76,3 [09469503] [46AF4394]
03 49,5 [0104066C] [02FAE3D2]
04 83,0 [1C0C2899] [04EAE8EC]
05 83,7 [E6633714] [C7B841A8]
06 99,3 [69C05755] [0BD1D9D6]
07 93,9 [23FB2A18] [CBA470A7]
08 98,8 [CDDF9571] [E97E83B1]
09 0,0 [FDE023C6] [88E72B3C]
10 75,1 [AB364933] [BDA8F162]
11 61,0 [A9944408] [77B3DFE7]
12 84,7 [8AAF3DE1] [275A51FB]
13 96,6 [E521AE9E] [1A8346D9]

Henry Cow - Unrest (1974) [2015, Belle Antique Japan, BELLE-152407]

All thanks go to ALLexxess

Henry Cow in my Blog

Download Henry Cow - Unrest (1974):