Subcategories

Henry Mancini, Leslie Bricusse & VA - Victor/Victoria: Original Soundtrack Recording (1982) French Reissue 1994

Posted By: Efgrapha
Henry Mancini, Leslie Bricusse & VA - Victor/Victoria: Original Soundtrack Recording (1982) French Reissue 1994

Henry Mancini, Leslie Bricusse & VA - Victor/Victoria: Bande Originale Du Film (1982)
EAC | FLAC (Image) + cue.+log ~ 289 Mb | Mp3, CBR320 kbps ~ 127 Mb | Scans included
Label: Vogue, GNP/Crescendo | # 74321259492 | Time: 00:50:23
Soundtrack, Musical, Instrumental Pop, Lounge, Jazz

While it would be ridiculous to say that Henry Mancini produced no better score than this one, it's certainly true that his collaborations with writer/director Blake Edwards generated some of Mancini's greatest compositions. Victor/Victoria is merely a wonderful score, with fun performances from Julie Andrews and Robert Preston. [An expanded edition by GNP/Crescendo offered some newly released material, mostly sweetly jazzy instrumental material, although there's one very real gem as well – Robert Preston's show-stopping performance of "The Shady Dame from Seville," the peak point of the movie itself, and now certainly the peak point of this charming and delightful reissue.]

Steven McDonald, All Music Guide

VICTOR/VICTORIA is most probably Julie Andrews' most-accomplished and effective movie musical performance. Singing the sparkling songs by Henry Mancini and Leslie Bricusse, Miss Andrews is beautifully showcased.

VICTOR/VICTORIA is based on the little-known German fim 'Viktor und Viktoria', and recounts the story of a penniless opera singer, stranded in Paris, called Victoria Grant. Victoria makes a friend in nightclub entertainer Toddy (Robert Preston - THE MUSIC MAN, MACK AND MABEL) who suggests that she masquerade as a gay polish female impersonator. The ruse works, and 'Victor' is the toast of Paris, until Victoria falls in love with a handsome Chicago mobster called King Marchan (James Garner). Adding complications is King's ditzy moll Norma (Lesley Ann Warren - CINDERELLA, THE HAPPIEST MILLIONAIRE).

The score for VICTOR/VICTORIA runs the gamut from the showstoppers ("Le Jazz Hot") to the torchy ballads ("Crazy World"). Other standout numbers include Robert Preston's charming "Gay Paree" as well as Lesley Ann Warren's racy and raucus salute to "Chicago Illinois".

Highly-recommended.

Byron Kolln, Amazon.com

Henry Mancini, Leslie Bricusse & VA - Victor/Victoria: Original Soundtrack Recording (1982) French Reissue 1994


~ Henry Mancini at Allmusic
~ Henry Mancini Website
~ Henry Mancini at Wiki

~ Film at IMDB
~ Film at Wiki

Tracklist:

01. Main Title (Crazy World) (2:08)
02. You and Me (2:54) Vocals - Julie Andrews, Robert Preston
03. Gay Paree (2:35) Vocals - Robert Preston
04. Alone in Paris (2:54)
05. King's Can Can (1:58)
06. Le Jazz Hot (4:25) Vocals - Julie Andrews
07. The Shady Dame from Seville (4:32) Vocals - Julie Andrews
08. The Big Lift (2:02)
09. Cat & Mouse (3:15)
10. Crazy World (2:33) Vocals - Julie Andrews
11. Chicago, Illinois (2:48) Vocals - Lesley Ann Warren
12. Elegant (3:28)
13. You and Me (2:45)
14. Le Matelot Club (2:47)
15. The Shady Dame from Seville (4:29) Vocals - Robert Preston
16. Finale (4:52)


Exact Audio Copy V0.99 prebeta 4 from 23. January 2008

Отчёт EAC об извлечении, выполненном 3. февраля 2009, 15:26

Various / Victor/Victoria

Дисковод: PIONEER DVD-RW DVR-115D Adapter: 4 ID: 0

Режим чтения : Достоверность
Использование точного потока : Да
Отключение кэша аудио : Да
Использование указателей C2 : Нет

Коррекция смещения при чтении : 48
Способность читать области Lead-in и Lead-out : Нет
Заполнение пропущенных сэмплов тишиной : Да
Удаление блоков с тишиной в начале и конце : Нет
При вычислениях CRC использовались нулевые сэмплы : Да
Интерфейс : Установленный внешний ASPI-интерфейс

Выходной формат : Пользовательский кодировщик
Выбранный битрейт : 1024 kBit/s
Качество : Высокий
Добавление ID3-тэга : Нет
Утилита сжатия : C:\Program Files\Exact Audio Copy\Flac\flac.exe
Дополнительные параметры : -T "artist=%a" -T "title=%t" -T "album=%g" -T "date=%y" -T "tracknumber=%n" -T "genre=%m" %s


TOC извлечённого CD

Трек | Старт | Длительность | Начальный сектор | Конечный сектор
––––––––––––––––––––––––––––––––––-
1 | 0:00.32 | 2:08.03 | 32 | 9634
2 | 2:08.35 | 2:54.35 | 9635 | 22719
3 | 5:02.70 | 2:34.45 | 22720 | 34314
4 | 7:37.40 | 2:53.45 | 34315 | 47334
5 | 10:31.10 | 1:58.07 | 47335 | 56191
6 | 12:29.17 | 4:24.38 | 56192 | 76029
7 | 16:53.55 | 4:31.45 | 76030 | 96399
8 | 21:25.25 | 2:01.70 | 96400 | 105544
9 | 23:27.20 | 3:15.20 | 105545 | 120189
10 | 26:42.40 | 2:32.65 | 120190 | 131654
11 | 29:15.30 | 2:48.05 | 131655 | 144259
12 | 32:03.35 | 3:27.47 | 144260 | 159831
13 | 35:31.07 | 2:44.65 | 159832 | 172196
14 | 38:15.72 | 2:46.38 | 172197 | 184684
15 | 41:02.35 | 4:28.42 | 184685 | 204826
16 | 45:31.02 | 4:52.35 | 204827 | 226761


Характеристики диапазона извлечения и сообщения об ошибках

Выбранный диапазон

Имя файла D:\REQUEST\Henry Mancini - 1994 - Victor, Victoria (OST)\Various - Victor Victoria.wav

Пиковый уровень 91.5 %
Качество диапазона 99.9 %
CRC теста 353E237C
CRC копии 353E237C
Копирование… OK

Ошибок не произошло


AccurateRip: сводка

Трек 1 нет в базе данных
Трек 2 нет в базе данных
Трек 3 нет в базе данных
Трек 4 нет в базе данных
Трек 5 нет в базе данных
Трек 6 нет в базе данных
Трек 7 нет в базе данных
Трек 8 нет в базе данных
Трек 9 нет в базе данных
Трек 10 нет в базе данных
Трек 11 нет в базе данных
Трек 12 нет в базе данных
Трек 13 нет в базе данных
Трек 14 нет в базе данных
Трек 15 нет в базе данных
Трек 16 нет в базе данных

Ни одного трека нет в базе AccurateRip

Конец отчёта

[CUETools log; Date: 18.10.2018 0:56:10; Version: 2.1.4]
Pregap length 00:00:32.
[CTDB TOCID: vr45u9ceXzUHOc3fgaoenUH6IH4-] found.
Track | CTDB Status
1 | (1/1) Accurately ripped
2 | (1/1) Accurately ripped
3 | (1/1) Accurately ripped
4 | (1/1) Accurately ripped
5 | (1/1) Accurately ripped
6 | (1/1) Accurately ripped
7 | (1/1) Accurately ripped
8 | (1/1) Accurately ripped
9 | (1/1) Accurately ripped
10 | (1/1) Accurately ripped
11 | (1/1) Accurately ripped
12 | (1/1) Accurately ripped
13 | (1/1) Accurately ripped
14 | (1/1) Accurately ripped
15 | (1/1) Accurately ripped
16 | (1/1) Accurately ripped
[AccurateRip ID: 001b5a64-014d027c-cb0bcf10] found.
Track [ CRC | V2 ] Status
01 [bcb51605|649986ed] (1+1/3) Accurately ripped
02 [a4d0202c|68a6fff0] (1+1/3) Accurately ripped
03 [236dce26|be6cd720] (1+1/3) Accurately ripped
04 [5e76908f|dccefdaf] (1+1/3) Accurately ripped
05 [5484c8a0|44c480e2] (1+1/3) Accurately ripped
06 [272fdd1b|c58b1582] (1+1/3) Accurately ripped
07 [b4a02985|3b903dfa] (1+1/3) Accurately ripped
08 [9cd70a61|2385f443] (1+1/3) Accurately ripped
09 [f413d747|36bffb1a] (1+1/3) Accurately ripped
10 [4cc66d03|28c28d54] (1+1/3) Accurately ripped
11 [daa697e8|782a4664] (1+1/3) Accurately ripped
12 [8b1fc07f|c7c01cd6] (1+1/3) Accurately ripped
13 [ec015105|5d4e224e] (1+1/3) Accurately ripped
14 [28dbeb6f|0a6cecb2] (1+1/3) Accurately ripped
15 [ab8d0f15|d8223aa9] (1+1/3) Accurately ripped
16 [f483b2c5|ef1bebd8] (1+1/3) Accurately ripped
Offsetted by 934:
01 [10202c6f] (1/3) Accurately ripped
02 [62b7d9c6] (1/3) Accurately ripped
03 [1e52c268] (1/3) Accurately ripped
04 [313157c5] (1/3) Accurately ripped
05 [e02fb3b4] (1/3) Accurately ripped
06 [0fe41c33] (1/3) Accurately ripped
07 [f1034a8b] (1/3) Accurately ripped
08 [61f97e39] (1/3) Accurately ripped
09 [f2726eed] (1/3) Accurately ripped
10 [c5bcf247] (1/3) Accurately ripped
11 [6a272dca] (1/3) Accurately ripped
12 [62a67a61] (1/3) Accurately ripped
13 [ffc603d5] (1/3) Accurately ripped
14 [e6ce67d7] (1/3) Accurately ripped
15 [f1cef8a3] (1/3) Accurately ripped
16 [1d17871d] (1/3) Accurately ripped

Track Peak [ CRC32 ] [W/O NULL] [ LOG ]
– 91,5 [353E237C] [72694559] CRC32
01 89,1 [96C6D02F] [6DC3D4BF]
02 85,5 [7DB30A0B] [231C8510]
03 77,1 [037B138F] [7254450A]
04 88,1 [70BED78C] [186C3892]
05 89,2 [7D45A80B] [7FE282E1]
06 90,2 [22C65541] [FE2A1E29]
07 89,0 [CE5972D4] [60B1A9CD]
08 91,2 [4C7A3DB9] [FAE04783]
09 91,5 [9BD4D7C2] [2C3B539B]
10 84,9 [A8E56ECA] [D1CC9A0D]
11 89,6 [D1EDB79C] [919C2B5D]
12 87,3 [FAA14028] [1B39B40D]
13 83,1 [4A2666FD] [0E2C7F7A]
14 88,7 [28DB082A] [BC0440B6]
15 91,4 [2C11FDB3] [585B3F38]
16 90,5 [7F3E1E33] [37323949]

foobar2000 1.2 / Dynamic Range Meter 1.1.1
log date: 2018-10-18 00:29:15

––––––––––––––––––––––––––––––––––––––––
Analyzed: Instrumental / Victor/Victoria
––––––––––––––––––––––––––––––––––––––––

DR Peak RMS Duration Track
––––––––––––––––––––––––––––––––––––––––
DR12 -1.00 dB -16.80 dB 2:08 01-Main Title (Crazy World)
DR11 -1.09 dB -17.88 dB 2:54 04-Alone in Paris
DR12 -0.99 dB -15.69 dB 1:58 05-King's Can Can
DR10 -0.80 dB -15.55 dB 2:02 08-The Big Lift
DR10 -0.76 dB -16.16 dB 3:15 09-Cat & Mouse
DR12 -1.18 dB -17.34 dB 3:28 12-Elegant
DR13 -1.61 dB -17.47 dB 2:45 13-You and Me
DR13 -1.04 dB -18.38 dB 2:47 14-Le Matelot Club
DR11 -0.86 dB -14.61 dB 4:52 16-Finale
––––––––––––––––––––––––––––––––––––––––

Number of tracks: 9
Official DR value: DR12

Samplerate: 44100 Hz
Channels: 2
Bits per sample: 16
Bitrate: 770 kbps
Codec: FLAC
================================================================================

––––––––––––––––––––––––––––––––––––––––
Analyzed: Julie Andrews & Robert Preston / Victor/Victoria (1)
Julie Andrews / Victor/Victoria (2-4)
Lesley Ann Warren / Victor/Victoria (5)
––––––––––––––––––––––––––––––––––––––––

DR Peak RMS Duration Track
––––––––––––––––––––––––––––––––––––––––
DR13 -1.36 dB -17.86 dB 2:54 02-You and Me
DR12 -0.89 dB -17.23 dB 4:25 06-Le Jazz Hot
DR12 -1.01 dB -16.27 dB 4:32 07-The Shady Dame from Seville
DR9 -1.41 dB -14.33 dB 2:33 10-Crazy World
DR13 -0.95 dB -17.13 dB 2:48 11-Chicago, Illinois
––––––––––––––––––––––––––––––––––––––––

Number of tracks: 5
Official DR value: DR12

Samplerate: 44100 Hz
Channels: 2
Bits per sample: 16
Bitrate: 770 kbps
Codec: FLAC
================================================================================

––––––––––––––––––––––––––––––––––––––––
Analyzed: Robert Preston / Victor/Victoria
––––––––––––––––––––––––––––––––––––––––

DR Peak RMS Duration Track
––––––––––––––––––––––––––––––––––––––––
DR14 -2.25 dB -18.93 dB 2:35 03-Gay Paree
DR16 -0.78 dB -21.54 dB 4:29 15-The Shady Dame from Seville
––––––––––––––––––––––––––––––––––––––––

Number of tracks: 2
Official DR value: DR15

Samplerate: 44100 Hz
Channels: 2
Bits per sample: 16
Bitrate: 770 kbps
Codec: FLAC
================================================================================

Henry Mancini, Leslie Bricusse & VA - Victor/Victoria: Original Soundtrack Recording (1982) French Reissue 1994

Henry Mancini, Leslie Bricusse & VA - Victor/Victoria: Original Soundtrack Recording (1982) French Reissue 1994