Subcategories

Henry Mancini - The Real... Henry Mancini: The Ultimate Collection (2014) 3CD Set

Posted By: Designol
Henry Mancini - The Real... Henry Mancini: The Ultimate Collection (2014) 3CD Set

Henry Mancini - The Real… Henry Mancini: The Ultimate Collection (2014) 3CD Set
EAC | FLAC | Tracks (Cue&Log) ~ 961 Mb | Mp3 (CBR320) ~ 391 Mb | Scans included | 02:47:36
Instrumental Pop, Easy Listening, Jazz | Label: RCA Victor, Sony Music | # 88875010252

Henry Mancini was an American composer, conductor and arranger, who is best remembered for his film and television scores. Often cited as one of the greatest composers in the history of film,[2][3] he won four Academy Awards, a Golden Globe, and twenty Grammy Awards, plus a posthumous Grammy Lifetime Achievement Award in 1995. His best known works include the theme to The Pink Panther film series ("The Pink Panther Theme"), "Moon River" to Breakfast at Tiffany's, and the theme to the Peter Gunn television series. The Peter Gunn theme won the first Grammy Award for Album of the Year. Mancini also had a long collaboration on film scores with the film director Blake Edwards. 2014 three CD box set containing 60 of the composer/arranger's finest recordings. Features 'Moon River', 'Baby Elephant Walk', 'Peter Gunne' and many others.

If the recognition of one's peers is the true measure of success, then few men are as successful as composer, arranger, and conductor Henry Mancini. In a career that spanned 40 years, writing for film and television, Mancini won four Oscars and twenty Grammys, the all-time record for a pop artist. For 1961's Breakfast at Tiffany's alone, Mancini won five Grammys and two Oscars. Breakfast at Tiffany's includes the classic "Moon River" (lyrics by Johnny Mercer), arguably one of the finest pop songs of the last 50 years. At last count, there were over 1,000 recordings of it. His other notable songs include "Dear Heart," "Days of Wine and Roses" (one Oscar, two Grammys), and "Charade," the last two with lyrics by Mercer. He also had a number one record and won a Grammy for Nino Rota's "Love Theme From Romeo and Juliet." Among his other notable film scores are The Pink Panther (three Grammys), Hatari! (one Grammy), Victor/Victoria (an Oscar), Two for the Road, Wait Until Dark, and 10. His television themes include "Peter Gunn" (two Grammys, recorded by many rock artists), "Mr. Lucky" (two Grammys), "Newhart," "Remington Steele," and The Thorn Birds television mini-series.

As a child, Mancini learned how to play a variety of musical instruments and as a teenager, he became enamored with jazz and big bands. He began to write arrangements and sent a few to Benny Goodman, who wrote the teenager back, encouraging him to pursue a career in music. Mancini enrolled in the Julliard School of Music in 1942, but his studies were cut short when he served in the military during World War II. After the war, he was hired by Tex Beneke, the leader of the Glenn Miller Orchestra, as a pianist and arranger. In the late '40s, he began writing scores for record and film studios, first for a recording session by the Mel-Tones, which featured his wife Ginny O'Connor, and then the Abbot & Costello film Lost in Alaska, the first movie he scored.

Lost in Alaska led to more film scores, in particular 1954's The Glenn Miller Story and 1956's The Benny Goodman Story, which both showcased his big band roots. Soon, he was working on a large number of films and television, including Orson Welles' Touch of Evil and the TV show Peter Gunn. Mancini's scores frequently straddled the line between jazz and Hollywood dramatics, making his music both distinctive and influential.

Mancini's heyday was the early '60s, when his score for Breakfast at Tiffany's (1961) yielded the Oscar-winning hit single "Moon River," which instantly became a pop standard. The following year, he wrote the music for Days of Wine and Roses, which also won an Oscar for its title song. Throughout the next three decades, he continued to be one of the most successful film composers in the world, as well as a popular concert conductor. He continued working until his death in 1994; just prior to his demise, he was writing the score for the musical adaption of Victor/Victoria.

What kept Mancini's work fresh was his ability to write in almost any style imaginable and his successful experimentations with unusual sounds and instruments. In his 1989 memoir Did They Mention the Music?, Mancini's co-author Gene Lees wrote that "More than any other person, he Americanized film scoring, and in time even European film composers followed in his path," and that Mancini wrote scores that "contained almost as many fully developed song melodies as a Broadway musical." Had he not remained true to his first love, film scoring, Mancini would have more than likely made as large an impact on the Broadway stage as he made on the silver screen.

Kenneth M. Cassidy, Allmusic.com

Henry Mancini - The Real... Henry Mancini: The Ultimate Collection (2014) 3CD Set



Tracklist:

CD1 (54:03)

01. Peter Gunn (2:09)
02. Moon River (2:42)
03. Mr. Yunioshi (2:32)
04. Baby Elephant Walk (2:45)
05. Happy Barefoot Boy (2:51)
06. Breakfast At Tiffany's (2:47)
07. Misty (3:17)
08. Frish Frosh (2:54)
09. Pie-In-The-Face Polka (2:25)
10. Big Noise From Winnetka (2:39)
11. The Brothers Go to Mothers (2:57)
12. Goofin' At The Coffee House (4:14)
13. Mr. Lucky (2:15)
14. Blue Mantilla (2:33)
15. Theme From 'Hatari' (2:57)
16. Charade (Main Title) (2:11)
17. Latin Snowfall (2:34)
18. Lujon (2:40)
19. Just For Tonight (2:05)
20. Moon River Cha Cha (2:37)


CD2 (57:41)

01. The Pink Panther Theme (2:38)
02. A Shot in the Dark (2:33)
03. Walkin' Bass (4:24)
04. Raindrops Keep Fallin' on my Head (2:27)
05. Midnight Cowboy (2:08)
06. By the Time I Get to Phoenix (3:20)
07. The Inspector Clouseau Theme (2:59)
08. Dream Street (3:52)
09. The Party (3:10)
10. The Girl in No Man's Land (3:36)
11. Darling Lili (2:50)
12. Two for the Road (2:43)
13. We've Loved Before (Yasmin's Theme) (2:54)
14. It Had Better Be Tonight (1:58)
15. The Sweetheart Tree (1:57)
16. In the Arms of Love (2:37)
17. Dreamsville (3:55)
18. Candlelight on Crystal (3:06)
19. Birdie Num-Num (2:21)
20. Pennywhistle Jig (2:11)

CD3 (55:52)

01. The Windmills of Your Mind (3:01)
02. Experiment in Terror (2:19)
03. Bagdad on Thames (3:02)
04. Mambo Parisienne (2:34)
05. Disco (2:07)
06. Theme from Shaft (4:00)
07. The Godfather Theme (3:35)
08. The Magnificent Seven (2:08)
09. The Good, the Bad and the Ugly (3:09)
10. Moonlight Sonata (2:53)
11. Theme from 'Love Story' (2:51)
12. Love Theme from 'Romeo and Juliet' (2:34)
13. Days of Wine and Roses (2:09)
14. Theme from 'The Molly Maguires' (3:08)
15. 'The Thorn Birds' Theme (3:04)
16. The Summer Knows (3:28)
17. The Untouchables (Theme) (2:32)
18. Mystery Movie Theme (1:59)
19. Theme from 'Cade's County' (2:04)
20. Dream a Little Dream of Me (3:15)


Exact Audio Copy V1.3 from 2. September 2016

EAC extraction logfile from 4. April 2017, 17:49

Henry Mancini / The Real… Henry Mancini (CD1)

Used drive : TSSTcorpCDDVDW SE-208AB Adapter: 2 ID: 0

Read mode : Secure
Utilize accurate stream : Yes
Defeat audio cache : Yes
Make use of C2 pointers : No

Read offset correction : 6
Overread into Lead-In and Lead-Out : No
Fill up missing offset samples with silence : Yes
Delete leading and trailing silent blocks : No
Null samples used in CRC calculations : Yes
Used interface : Installed external ASPI interface
Gap handling : Appended to previous track

Used output format : User Defined Encoder
Selected bitrate : 768 kBit/s
Quality : High
Add ID3 tag : No
Command line compressor : C:\Program Files (x86)\Exact Audio Copy\Flac\flac.exe
Additional command line options : -8 -V -T "ARTIST=%artist%" -T "TITLE=%title%" -T "ALBUM=%albumtitle%" -T "DATE=%year%" -T "TRACKNUMBER=%tracknr%" -T "GENRE=%genre%" -T "COMMENT=%comment%" -T "BAND=%albuminterpret%" -T "ALBUMARTIST=%albuminterpret%" -T "COMPOSER=%composer%" %haslyrics%–tag-from-file=LYRICS="%lyricsfile%"%haslyrics% -T "DISCNUMBER=%cdnumber%" -T "TOTALDISCS=%totalcds%" -T "TOTALTRACKS=%numtracks%" %hascover%–picture="%coverfile%"%hascover% %source% -o %dest%


TOC of the extracted CD

Track | Start | Length | Start sector | End sector
––––––––––––––––––––––––––––-
1 | 0:00.00 | 2:08.39 | 0 | 9638
2 | 2:08.39 | 2:42.05 | 9639 | 21793
3 | 4:50.44 | 2:31.72 | 21794 | 33190
4 | 7:22.41 | 2:45.22 | 33191 | 45587
5 | 10:07.63 | 2:51.03 | 45588 | 58415
6 | 12:58.66 | 2:46.71 | 58416 | 70936
7 | 15:45.62 | 3:16.52 | 70937 | 85688
8 | 19:02.39 | 2:54.10 | 85689 | 98748
9 | 21:56.49 | 2:25.03 | 98749 | 109626
10 | 24:21.52 | 2:39.05 | 109627 | 121556
11 | 27:00.57 | 2:57.06 | 121557 | 134837
12 | 29:57.63 | 4:14.18 | 134838 | 153905
13 | 34:12.06 | 2:14.74 | 153906 | 164029
14 | 36:27.05 | 2:32.66 | 164030 | 175495
15 | 38:59.71 | 2:57.34 | 175496 | 188804
16 | 41:57.30 | 2:10.45 | 188805 | 198599
17 | 44:08.00 | 2:33.38 | 198600 | 210112
18 | 46:41.38 | 2:39.61 | 210113 | 222098
19 | 49:21.24 | 2:04.42 | 222099 | 231440
20 | 51:25.66 | 2:37.06 | 231441 | 243221


Track 1

Filename C:\Program Files (x86)\Exact Audio Copy\Flac\01. Peter Gunn.wav

Pre-gap length 0:00:02.00

Peak level 76.1 %
Extraction speed 0.9 X
Track quality 100.0 %
Test CRC DBFE7AA6
Copy CRC DBFE7AA6
Accurately ripped (confidence 9) [5EFE0C79] (AR v2)
Copy OK

Track 2

Filename C:\Program Files (x86)\Exact Audio Copy\Flac\02. Moon River.wav

Pre-gap length 0:00:01.19

Peak level 71.1 %
Extraction speed 1.1 X
Track quality 100.0 %
Test CRC AE94E78C
Copy CRC AE94E78C
Accurately ripped (confidence 9) [5BED48E6] (AR v2)
Copy OK

Track 3

Filename C:\Program Files (x86)\Exact Audio Copy\Flac\03. Mr. Yunioshi.wav

Pre-gap length 0:00:01.59

Peak level 75.5 %
Extraction speed 1.1 X
Track quality 100.0 %
Test CRC 35D40D16
Copy CRC 35D40D16
Accurately ripped (confidence 9) [D4D06497] (AR v2)
Copy OK

Track 4

Filename C:\Program Files (x86)\Exact Audio Copy\Flac\04. Baby Elephant Walk.wav

Pre-gap length 0:00:02.00

Peak level 74.6 %
Extraction speed 1.2 X
Track quality 100.0 %
Test CRC BD93D6B5
Copy CRC BD93D6B5
Accurately ripped (confidence 9) [258ACC8D] (AR v2)
Copy OK

Track 5

Filename C:\Program Files (x86)\Exact Audio Copy\Flac\05. Happy Barefoot Boy.wav

Pre-gap length 0:00:01.12

Peak level 89.5 %
Extraction speed 1.3 X
Track quality 100.0 %
Test CRC FB6B3F4F
Copy CRC FB6B3F4F
Accurately ripped (confidence 9) [30F53DD9] (AR v2)
Copy OK

Track 6

Filename C:\Program Files (x86)\Exact Audio Copy\Flac\06. Breakfast At Tiffany's.wav

Pre-gap length 0:00:01.57

Peak level 76.1 %
Extraction speed 1.1 X
Track quality 99.9 %
Test CRC 598E69D5
Copy CRC 598E69D5
Accurately ripped (confidence 9) [EB605048] (AR v2)
Copy OK

Track 7

Filename C:\Program Files (x86)\Exact Audio Copy\Flac\07. Misty.wav

Pre-gap length 0:00:02.06

Peak level 74.6 %
Extraction speed 1.5 X
Track quality 100.0 %
Test CRC 250A3AF5
Copy CRC 250A3AF5
Accurately ripped (confidence 9) [9AE11CC9] (AR v2)
Copy OK

Track 8

Filename C:\Program Files (x86)\Exact Audio Copy\Flac\08. Frish Frosh.wav

Pre-gap length 0:00:01.19

Peak level 83.0 %
Extraction speed 1.5 X
Track quality 100.0 %
Test CRC 9B129B97
Copy CRC 9B129B97
Accurately ripped (confidence 9) [2C51510D] (AR v2)
Copy OK

Track 9

Filename C:\Program Files (x86)\Exact Audio Copy\Flac\09. Pie-In-The-Face Polka.wav

Pre-gap length 0:00:01.09

Peak level 86.6 %
Extraction speed 1.5 X
Track quality 100.0 %
Test CRC 0A7B4054
Copy CRC 0A7B4054
Accurately ripped (confidence 9) [29CA181F] (AR v2)
Copy OK

Track 10

Filename C:\Program Files (x86)\Exact Audio Copy\Flac\10. Big Noise From Winnetka.wav

Pre-gap length 0:00:00.56

Peak level 97.7 %
Extraction speed 1.6 X
Track quality 100.0 %
Test CRC 6DD72639
Copy CRC 6DD72639
Accurately ripped (confidence 9) [D6EE20FA] (AR v2)
Copy OK

Track 11

Filename C:\Program Files (x86)\Exact Audio Copy\Flac\11. The Brothers Go to Mothers.wav

Pre-gap length 0:00:00.66

Peak level 79.3 %
Extraction speed 1.7 X
Track quality 100.0 %
Test CRC A058695F
Copy CRC A058695F
Accurately ripped (confidence 9) [C00DC0C8] (AR v2)
Copy OK

Track 12

Filename C:\Program Files (x86)\Exact Audio Copy\Flac\12. Goofin' At The Coffee House.wav

Pre-gap length 0:00:01.63

Peak level 98.8 %
Extraction speed 1.8 X
Track quality 100.0 %
Test CRC 01BCA949
Copy CRC 01BCA949
Accurately ripped (confidence 9) [C621F9CD] (AR v2)
Copy OK

Track 13

Filename C:\Program Files (x86)\Exact Audio Copy\Flac\13. Mr. Lucky.wav

Pre-gap length 0:00:01.04

Peak level 83.8 %
Extraction speed 1.7 X
Track quality 100.0 %
Test CRC 8BCA1FC4
Copy CRC 8BCA1FC4
Accurately ripped (confidence 9) [C0339756] (AR v2)
Copy OK

Track 14

Filename C:\Program Files (x86)\Exact Audio Copy\Flac\14. Blue Mantilla.wav

Pre-gap length 0:00:01.55

Peak level 69.0 %
Extraction speed 1.8 X
Track quality 100.0 %
Test CRC 5BECD990
Copy CRC 5BECD990
Accurately ripped (confidence 9) [9C67CA03] (AR v2)
Copy OK

Track 15

Filename C:\Program Files (x86)\Exact Audio Copy\Flac\15. Theme From ''Hatari''.wav

Pre-gap length 0:00:01.46

Peak level 99.8 %
Extraction speed 1.9 X
Track quality 100.0 %
Test CRC 52C878C0
Copy CRC 52C878C0
Accurately ripped (confidence 9) [B1861BC1] (AR v2)
Copy OK

Track 16

Filename C:\Program Files (x86)\Exact Audio Copy\Flac\16. Charade (Main Title).wav

Pre-gap length 0:00:01.54

Peak level 78.5 %
Extraction speed 1.8 X
Track quality 100.0 %
Test CRC 89D95BFB
Copy CRC 89D95BFB
Accurately ripped (confidence 9) [A0E42F56] (AR v2)
Copy OK

Track 17

Filename C:\Program Files (x86)\Exact Audio Copy\Flac\17. Latin Snowfall.wav

Pre-gap length 0:00:01.61

Peak level 78.5 %
Extraction speed 1.8 X
Track quality 100.0 %
Test CRC AB2BCE54
Copy CRC AB2BCE54
Accurately ripped (confidence 9) [C59BD3C5] (AR v2)
Copy OK

Track 18

Filename C:\Program Files (x86)\Exact Audio Copy\Flac\18. Lujon.wav

Pre-gap length 0:00:01.48

Peak level 70.8 %
Extraction speed 2.0 X
Track quality 100.0 %
Test CRC 6711992D
Copy CRC 6711992D
Accurately ripped (confidence 9) [6A910EA9] (AR v2)
Copy OK

Track 19

Filename C:\Program Files (x86)\Exact Audio Copy\Flac\19. Just For Tonight.wav

Pre-gap length 0:00:01.38

Peak level 98.8 %
Extraction speed 1.9 X
Track quality 100.0 %
Test CRC E51A039D
Copy CRC E51A039D
Accurately ripped (confidence 9) [B496B687] (AR v2)
Copy OK

Track 20

Filename C:\Program Files (x86)\Exact Audio Copy\Flac\20. Moon River Cha Cha.wav

Pre-gap length 0:00:01.60

Peak level 91.4 %
Extraction speed 2.0 X
Track quality 100.0 %
Test CRC 8F0BCC74
Copy CRC 8F0BCC74
Accurately ripped (confidence 9) [D512A0E5] (AR v2)
Copy OK


All tracks accurately ripped

No errors occurred

End of status report

–– CUETools DB Plugin V2.1.6

[CTDB TOCID: ipkj2gBk0Llsh1gN69fO_w69i7Y-] found
Submit result: ipkj2gBk0Llsh1gN69fO_w69i7Y- has been confirmed
Track | CTDB Status
1 | (27/27) Accurately ripped
2 | (27/27) Accurately ripped
3 | (27/27) Accurately ripped
4 | (27/27) Accurately ripped
5 | (27/27) Accurately ripped
6 | (27/27) Accurately ripped
7 | (27/27) Accurately ripped
8 | (27/27) Accurately ripped
9 | (27/27) Accurately ripped
10 | (27/27) Accurately ripped
11 | (27/27) Accurately ripped
12 | (27/27) Accurately ripped
13 | (27/27) Accurately ripped
14 | (27/27) Accurately ripped
15 | (27/27) Accurately ripped
16 | (27/27) Accurately ripped
17 | (27/27) Accurately ripped
18 | (27/27) Accurately ripped
19 | (27/27) Accurately ripped
20 | (27/27) Accurately ripped


==== Log checksum 37CDCEC72B86F0EF4639CE511535F999CB0BD8B69B3FE76180B16EA51E1796D3 ====

foobar2000 1.2 / Dynamic Range Meter 1.1.1
log date: 2017-10-27 01:23:47

––––––––––––––––––––––––––––––––––––––––
Analyzed: Henry Mancini / The Real… Henry Mancini (CD1)
––––––––––––––––––––––––––––––––––––––––

DR Peak RMS Duration Track
––––––––––––––––––––––––––––––––––––––––
DR9 -2.36 dB -13.36 dB 2:09 01-Peter Gunn
DR10 -2.96 dB -16.58 dB 2:42 02-Moon River
DR11 -2.44 dB -15.93 dB 2:32 03-Mr. Yunioshi
DR13 -2.54 dB -19.25 dB 2:45 04-Baby Elephant Walk
DR11 -0.96 dB -15.32 dB 2:51 05-Happy Barefoot Boy
DR10 -2.37 dB -15.72 dB 2:47 06-Breakfast At Tiffany's
DR9 -2.53 dB -14.89 dB 3:17 07-Misty
DR9 -1.61 dB -14.12 dB 2:54 08-Frish Frosh
DR9 -1.24 dB -13.90 dB 2:25 09-Pie-In-The-Face Polka
DR12 -0.20 dB -15.44 dB 2:39 10-Big Noise From Winnetka
DR8 -2.01 dB -12.87 dB 2:57 11-The Brothers Go to Mothers
DR12 -0.10 dB -14.47 dB 4:14 12-Goofin' At The Coffee House
DR10 -1.53 dB -14.09 dB 2:15 13-Mr. Lucky
DR9 -3.22 dB -15.65 dB 2:33 14-Blue Mantilla
DR14 -0.01 dB -18.24 dB 2:57 15-Theme From 'Hatari'
DR10 -2.10 dB -15.56 dB 2:11 16-Charade (Main Title)
DR8 -2.10 dB -14.15 dB 2:34 17-Latin Snowfall
DR9 -3.00 dB -15.50 dB 2:40 18-Lujon
DR11 -0.10 dB -15.01 dB 2:05 19-Just For Tonight
DR10 -0.77 dB -14.96 dB 2:37 20-Moon River Cha Cha
––––––––––––––––––––––––––––––––––––––––

Number of tracks: 20
Official DR value: DR10

Samplerate: 44100 Hz
Channels: 2
Bits per sample: 16
Bitrate: 723 kbps
Codec: FLAC
================================================================================


Exact Audio Copy V1.3 from 2. September 2016

EAC extraction logfile from 4. April 2017, 19:16

Henry Mancini / The Real… Henry Mancini (CD2)

Used drive : TSSTcorpCDDVDW SE-208AB Adapter: 2 ID: 0

Read mode : Secure
Utilize accurate stream : Yes
Defeat audio cache : Yes
Make use of C2 pointers : No

Read offset correction : 6
Overread into Lead-In and Lead-Out : No
Fill up missing offset samples with silence : Yes
Delete leading and trailing silent blocks : No
Null samples used in CRC calculations : Yes
Used interface : Installed external ASPI interface
Gap handling : Appended to previous track

Used output format : User Defined Encoder
Selected bitrate : 768 kBit/s
Quality : High
Add ID3 tag : No
Command line compressor : C:\Program Files (x86)\Exact Audio Copy\Flac\flac.exe
Additional command line options : -8 -V -T "ARTIST=%artist%" -T "TITLE=%title%" -T "ALBUM=%albumtitle%" -T "DATE=%year%" -T "TRACKNUMBER=%tracknr%" -T "GENRE=%genre%" -T "COMMENT=%comment%" -T "BAND=%albuminterpret%" -T "ALBUMARTIST=%albuminterpret%" -T "COMPOSER=%composer%" %haslyrics%–tag-from-file=LYRICS="%lyricsfile%"%haslyrics% -T "DISCNUMBER=%cdnumber%" -T "TOTALDISCS=%totalcds%" -T "TOTALTRACKS=%numtracks%" %hascover%–picture="%coverfile%"%hascover% %source% -o %dest%


TOC of the extracted CD

Track | Start | Length | Start sector | End sector
––––––––––––––––––––––––––––-
1 | 0:00.00 | 2:38.37 | 0 | 11886
2 | 2:38.37 | 2:33.04 | 11887 | 23365
3 | 5:11.41 | 4:23.59 | 23366 | 43149
4 | 9:35.25 | 2:27.12 | 43150 | 54186
5 | 12:02.37 | 2:07.61 | 54187 | 63772
6 | 14:10.23 | 3:19.73 | 63773 | 78770
7 | 17:30.21 | 2:59.29 | 78771 | 92224
8 | 20:29.50 | 3:51.65 | 92225 | 109614
9 | 24:21.40 | 3:10.26 | 109615 | 123890
10 | 27:31.66 | 3:35.70 | 123891 | 140085
11 | 31:07.61 | 2:49.54 | 140086 | 152814
12 | 33:57.40 | 2:43.14 | 152815 | 165053
13 | 36:40.54 | 2:54.24 | 165054 | 178127
14 | 39:35.03 | 1:57.71 | 178128 | 186973
15 | 41:32.74 | 1:57.27 | 186974 | 195775
16 | 43:30.26 | 2:37.31 | 195776 | 207581
17 | 46:07.57 | 3:55.04 | 207582 | 225210
18 | 50:02.61 | 3:05.47 | 225211 | 239132
19 | 53:08.33 | 2:21.07 | 239133 | 249714
20 | 55:29.40 | 2:11.37 | 249715 | 259576


Track 1

Filename C:\Program Files (x86)\Exact Audio Copy\Flac\01. The Pink Panther Theme.wav

Pre-gap length 0:00:02.00

Peak level 85.1 %
Extraction speed 1.0 X
Track quality 100.0 %
Test CRC 7EB702A7
Copy CRC 7EB702A7
Accurately ripped (confidence 9) [3F361F47] (AR v2)
Copy OK

Track 2

Filename C:\Program Files (x86)\Exact Audio Copy\Flac\02. A Shot in the Dark.wav

Pre-gap length 0:00:01.12

Peak level 97.7 %
Extraction speed 0.9 X
Track quality 99.9 %
Test CRC 4DF91C07
Copy CRC 4DF91C07
Accurately ripped (confidence 9) [F585C07B] (AR v2)
Copy OK

Track 3

Filename C:\Program Files (x86)\Exact Audio Copy\Flac\03. Walkin' Bass.wav

Pre-gap length 0:00:01.43

Peak level 93.8 %
Extraction speed 1.3 X
Track quality 100.0 %
Test CRC 14A09A92
Copy CRC 14A09A92
Accurately ripped (confidence 9) [409355C7] (AR v2)
Copy OK

Track 4

Filename C:\Program Files (x86)\Exact Audio Copy\Flac\04. Raindrops Keep Fallin' on my Head.wav

Pre-gap length 0:00:00.46

Peak level 97.7 %
Extraction speed 1.2 X
Track quality 100.0 %
Test CRC 244C6185
Copy CRC 244C6185
Accurately ripped (confidence 9) [5A2395A3] (AR v2)
Copy OK

Track 5

Filename C:\Program Files (x86)\Exact Audio Copy\Flac\05. Midnight Cowboy.wav

Pre-gap length 0:00:02.08

Peak level 87.2 %
Extraction speed 1.0 X
Track quality 99.9 %
Test CRC 16FFDE71
Copy CRC 16FFDE71
Accurately ripped (confidence 9) [AF2DC0D2] (AR v2)
Copy OK

Track 6

Filename C:\Program Files (x86)\Exact Audio Copy\Flac\06. By the Time I Get to Phoenix.wav

Pre-gap length 0:00:00.62

Peak level 97.7 %
Extraction speed 1.4 X
Track quality 100.0 %
Test CRC F5315153
Copy CRC F5315153
Accurately ripped (confidence 9) [EC662F30] (AR v2)
Copy OK

Track 7

Filename C:\Program Files (x86)\Exact Audio Copy\Flac\07. The Inspector Clouseau Theme.wav

Pre-gap length 0:00:01.30

Peak level 92.2 %
Extraction speed 1.5 X
Track quality 100.0 %
Test CRC A03F6C30
Copy CRC A03F6C30
Accurately ripped (confidence 9) [C0FF5890] (AR v2)
Copy OK

Track 8

Filename C:\Program Files (x86)\Exact Audio Copy\Flac\08. Dream Street.wav

Pre-gap length 0:00:00.48

Peak level 85.0 %
Extraction speed 1.6 X
Track quality 100.0 %
Test CRC 58406C76
Copy CRC 58406C76
Accurately ripped (confidence 9) [82E57FFA] (AR v2)
Copy OK

Track 9

Filename C:\Program Files (x86)\Exact Audio Copy\Flac\09. The Party.wav

Pre-gap length 0:00:01.69

Peak level 92.0 %
Extraction speed 1.7 X
Track quality 100.0 %
Test CRC 469D797C
Copy CRC 469D797C
Accurately ripped (confidence 9) [AD100B66] (AR v2)
Copy OK

Track 10

Filename C:\Program Files (x86)\Exact Audio Copy\Flac\10. The Girl in No Man's Land.wav

Pre-gap length 0:00:00.64

Peak level 87.0 %
Extraction speed 1.8 X
Track quality 100.0 %
Test CRC 98CE7E59
Copy CRC 98CE7E59
Accurately ripped (confidence 9) [E6EA3AFA] (AR v2)
Copy OK

Track 11

Filename C:\Program Files (x86)\Exact Audio Copy\Flac\11. Darling Lili.wav

Pre-gap length 0:00:02.14

Peak level 99.6 %
Extraction speed 1.7 X
Track quality 100.0 %
Test CRC 19C50D85
Copy CRC 19C50D85
Accurately ripped (confidence 9) [83CA7FAF] (AR v2)
Copy OK

Track 12

Filename C:\Program Files (x86)\Exact Audio Copy\Flac\12. Two for the Road.wav

Pre-gap length 0:00:01.65

Peak level 91.4 %
Extraction speed 1.8 X
Track quality 100.0 %
Test CRC D4F81829
Copy CRC D4F81829
Accurately ripped (confidence 9) [3EBA23B6] (AR v2)
Copy OK

Track 13

Filename C:\Program Files (x86)\Exact Audio Copy\Flac\13. We've Loved Before (Yasmin's Theme).wav

Pre-gap length 0:00:00.61

Peak level 87.7 %
Extraction speed 1.8 X
Track quality 100.0 %
Test CRC E45CF45C
Copy CRC E45CF45C
Accurately ripped (confidence 9) [BD4865F0] (AR v2)
Copy OK

Track 14

Filename C:\Program Files (x86)\Exact Audio Copy\Flac\14. It Had Better Be Tonight.wav

Pre-gap length 0:00:02.13

Peak level 86.1 %
Extraction speed 1.8 X
Track quality 100.0 %
Test CRC 2794DEDB
Copy CRC 2794DEDB
Accurately ripped (confidence 9) [5A7CD4EB] (AR v2)
Copy OK

Track 15

Filename C:\Program Files (x86)\Exact Audio Copy\Flac\15. The Sweetheart Tree.wav

Pre-gap length 0:00:01.51

Peak level 97.8 %
Extraction speed 1.8 X
Track quality 100.0 %
Test CRC 0175B1CA
Copy CRC 0175B1CA
Accurately ripped (confidence 9) [01865C75] (AR v2)
Copy OK

Track 16

Filename C:\Program Files (x86)\Exact Audio Copy\Flac\16. In the Arms of Love.wav

Pre-gap length 0:00:01.12

Peak level 96.9 %
Extraction speed 1.9 X
Track quality 100.0 %
Test CRC B87E7E98
Copy CRC B87E7E98
Accurately ripped (confidence 9) [3F528908] (AR v2)
Copy OK

Track 17

Filename C:\Program Files (x86)\Exact Audio Copy\Flac\17. Dreamsville.wav

Pre-gap length 0:00:00.62

Peak level 75.1 %
Extraction speed 1.9 X
Track quality 99.9 %
Test CRC 4C529920
Copy CRC 4C529920
Accurately ripped (confidence 9) [7C145B4A] (AR v2)
Copy OK

Track 18

Filename C:\Program Files (x86)\Exact Audio Copy\Flac\18. Candlelight on Crystal.wav

Pre-gap length 0:00:00.65

Peak level 88.0 %
Extraction speed 2.1 X
Track quality 100.0 %
Test CRC 2F7F51C5
Copy CRC 2F7F51C5
Accurately ripped (confidence 9) [E99E463C] (AR v2)
Copy OK

Track 19

Filename C:\Program Files (x86)\Exact Audio Copy\Flac\19. Birdie Num-Num.wav

Pre-gap length 0:00:01.25

Peak level 99.8 %
Extraction speed 1.7 X
Track quality 99.9 %
Test CRC 0D1CCF13
Copy CRC 0D1CCF13
Accurately ripped (confidence 9) [3B797E89] (AR v2)
Copy OK

Track 20

Filename C:\Program Files (x86)\Exact Audio Copy\Flac\20. Pennywhistle Jig.wav

Pre-gap length 0:00:01.28

Peak level 89.2 %
Extraction speed 1.6 X
Track quality 99.9 %
Test CRC 9F776B3E
Copy CRC 9F776B3E
Accurately ripped (confidence 9) [5E6BE13E] (AR v2)
Copy OK


All tracks accurately ripped

No errors occurred

End of status report

–– CUETools DB Plugin V2.1.6

[CTDB TOCID: JEqYacv8olqt0H6U8tCMB1onGJw-] found
Submit result: JEqYacv8olqt0H6U8tCMB1onGJw- has been confirmed
Track | CTDB Status
1 | (26/26) Accurately ripped
2 | (26/26) Accurately ripped
3 | (26/26) Accurately ripped
4 | (26/26) Accurately ripped
5 | (26/26) Accurately ripped
6 | (26/26) Accurately ripped
7 | (26/26) Accurately ripped
8 | (26/26) Accurately ripped
9 | (26/26) Accurately ripped
10 | (26/26) Accurately ripped
11 | (26/26) Accurately ripped
12 | (26/26) Accurately ripped
13 | (26/26) Accurately ripped
14 | (26/26) Accurately ripped
15 | (26/26) Accurately ripped
16 | (26/26) Accurately ripped
17 | (26/26) Accurately ripped
18 | (26/26) Accurately ripped
19 | (26/26) Accurately ripped
20 | (26/26) Accurately ripped


==== Log checksum BB5D581B03A9948146432B447C1F327019D786832B828A41D22CDD95D128A55F ====

foobar2000 1.2 / Dynamic Range Meter 1.1.1
log date: 2017-10-27 01:24:13

––––––––––––––––––––––––––––––––––––––––
Analyzed: Henry Mancini / The Real… Henry Mancini (CD2)
––––––––––––––––––––––––––––––––––––––––

DR Peak RMS Duration Track
––––––––––––––––––––––––––––––––––––––––
DR11 -1.40 dB -14.14 dB 2:38 01-The Pink Panther Theme
DR11 -0.20 dB -13.67 dB 2:33 02-A Shot in the Dark
DR11 -0.55 dB -14.14 dB 4:24 03-Walkin' Bass
DR11 -0.20 dB -14.47 dB 2:27 04-Raindrops Keep Fallin' on my Head
DR10 -1.18 dB -14.34 dB 2:08 05-Midnight Cowboy
DR11 -0.20 dB -15.81 dB 3:20 06-By the Time I Get to Phoenix
DR11 -0.70 dB -15.20 dB 2:59 07-The Inspector Clouseau Theme
DR11 -1.41 dB -16.22 dB 3:52 08-Dream Street
DR11 -0.72 dB -13.70 dB 3:10 09-The Party
DR9 -1.20 dB -14.15 dB 3:36 10-The Girl in No Man's Land
DR9 -0.03 dB -11.30 dB 2:50 11-Darling Lili
DR9 -0.78 dB -12.82 dB 2:43 12-Two for the Road
DR7 -1.14 dB -13.02 dB 2:54 13-We've Loved Before (Yasmin's Theme)
DR9 -1.30 dB -11.91 dB 1:58 14-It Had Better Be Tonight
DR9 -0.19 dB -12.72 dB 1:57 15-The Sweetheart Tree
DR9 -0.27 dB -12.13 dB 2:37 16-In the Arms of Love
DR9 -2.48 dB -14.57 dB 3:55 17-Dreamsville
DR10 -1.10 dB -14.17 dB 3:06 18-Candlelight on Crystal
DR15 -0.01 dB -17.08 dB 2:21 19-Birdie Num-Num
DR12 -0.99 dB -16.03 dB 2:11 20-Pennywhistle Jig
––––––––––––––––––––––––––––––––––––––––

Number of tracks: 20
Official DR value: DR10

Samplerate: 44100 Hz
Channels: 2
Bits per sample: 16
Bitrate: 835 kbps
Codec: FLAC
================================================================================


Exact Audio Copy V1.3 from 2. September 2016

EAC extraction logfile from 4. April 2017, 21:08

Henry Mancini / The Real… Henry Mancini (CD3)

Used drive : TSSTcorpCDDVDW SE-208AB Adapter: 2 ID: 0

Read mode : Secure
Utilize accurate stream : Yes
Defeat audio cache : Yes
Make use of C2 pointers : No

Read offset correction : 6
Overread into Lead-In and Lead-Out : No
Fill up missing offset samples with silence : Yes
Delete leading and trailing silent blocks : No
Null samples used in CRC calculations : Yes
Used interface : Installed external ASPI interface
Gap handling : Appended to previous track

Used output format : User Defined Encoder
Selected bitrate : 768 kBit/s
Quality : High
Add ID3 tag : No
Command line compressor : C:\Program Files (x86)\Exact Audio Copy\Flac\flac.exe
Additional command line options : -8 -V -T "ARTIST=%artist%" -T "TITLE=%title%" -T "ALBUM=%albumtitle%" -T "DATE=%year%" -T "TRACKNUMBER=%tracknr%" -T "GENRE=%genre%" -T "COMMENT=%comment%" -T "BAND=%albuminterpret%" -T "ALBUMARTIST=%albuminterpret%" -T "COMPOSER=%composer%" %haslyrics%–tag-from-file=LYRICS="%lyricsfile%"%haslyrics% -T "DISCNUMBER=%cdnumber%" -T "TOTALDISCS=%totalcds%" -T "TOTALTRACKS=%numtracks%" %hascover%–picture="%coverfile%"%hascover% %source% -o %dest%


TOC of the extracted CD

Track | Start | Length | Start sector | End sector
––––––––––––––––––––––––––––-
1 | 0:00.00 | 3:01.18 | 0 | 13592
2 | 3:01.18 | 2:19.21 | 13593 | 24038
3 | 5:20.39 | 3:01.66 | 24039 | 37679
4 | 8:22.30 | 2:33.58 | 37680 | 49212
5 | 10:56.13 | 2:07.21 | 49213 | 58758
6 | 13:03.34 | 4:00.28 | 58759 | 76786
7 | 17:03.62 | 3:34.67 | 76787 | 92903
8 | 20:38.54 | 2:07.66 | 92904 | 102494
9 | 22:46.45 | 3:09.01 | 102495 | 116670
10 | 25:55.46 | 2:53.11 | 116671 | 129656
11 | 28:48.57 | 2:50.62 | 129657 | 142468
12 | 31:39.44 | 2:34.15 | 142469 | 154033
13 | 34:13.59 | 2:08.49 | 154034 | 163682
14 | 36:22.33 | 3:07.44 | 163683 | 177751
15 | 39:30.02 | 3:03.53 | 177752 | 191529
16 | 42:33.55 | 3:27.62 | 191530 | 207116
17 | 46:01.42 | 2:31.73 | 207117 | 218514
18 | 48:33.40 | 1:59.11 | 218515 | 227450
19 | 50:32.51 | 2:03.72 | 227451 | 236747
20 | 52:36.48 | 3:14.73 | 236748 | 251370


Track 1

Filename C:\Program Files (x86)\Exact Audio Copy\Flac\01. The Windmills of Your Mind.wav

Pre-gap length 0:00:02.00

Peak level 95.5 %
Extraction speed 0.9 X
Track quality 99.9 %
Test CRC ACBFA7E0
Copy CRC ACBFA7E0
Accurately ripped (confidence 9) [DB0138BC] (AR v2)
Copy OK

Track 2

Filename C:\Program Files (x86)\Exact Audio Copy\Flac\02. Experiment in Terror.wav

Pre-gap length 0:00:02.28

Peak level 97.7 %
Extraction speed 1.1 X
Track quality 100.0 %
Test CRC B27E5B80
Copy CRC B27E5B80
Accurately ripped (confidence 9) [D8DDB515] (AR v2)
Copy OK

Track 3

Filename C:\Program Files (x86)\Exact Audio Copy\Flac\03. Bagdad on Thames.wav

Pre-gap length 0:00:01.41

Peak level 88.8 %
Extraction speed 1.2 X
Track quality 100.0 %
Test CRC D64BCB5D
Copy CRC D64BCB5D
Accurately ripped (confidence 9) [FA2EA62F] (AR v2)
Copy OK

Track 4

Filename C:\Program Files (x86)\Exact Audio Copy\Flac\04. Mambo Parisienne.wav

Pre-gap length 0:00:00.55

Peak level 98.8 %
Extraction speed 1.2 X
Track quality 100.0 %
Test CRC 096F480B
Copy CRC 096F480B
Accurately ripped (confidence 9) [ACA85E6A] (AR v2)
Copy OK

Track 5

Filename C:\Program Files (x86)\Exact Audio Copy\Flac\05. Disco.wav

Pre-gap length 0:00:01.69

Peak level 84.3 %
Extraction speed 1.2 X
Track quality 100.0 %
Test CRC 2CB13CA8
Copy CRC 2CB13CA8
Accurately ripped (confidence 9) [5D5584E1] (AR v2)
Copy OK

Track 6

Filename C:\Program Files (x86)\Exact Audio Copy\Flac\06. Theme from Shaft.wav

Pre-gap length 0:00:01.66

Peak level 97.0 %
Extraction speed 1.3 X
Track quality 99.9 %
Test CRC BD280E40
Copy CRC BD280E40
Accurately ripped (confidence 9) [590A0EE5] (AR v2)
Copy OK

Track 7

Filename C:\Program Files (x86)\Exact Audio Copy\Flac\07. The Godfather Theme.wav

Pre-gap length 0:00:01.56

Peak level 97.7 %
Extraction speed 1.5 X
Track quality 100.0 %
Test CRC B7BEB784
Copy CRC B7BEB784
Accurately ripped (confidence 9) [64D6EEFC] (AR v2)
Copy OK

Track 8

Filename C:\Program Files (x86)\Exact Audio Copy\Flac\08. The Magnificent Seven.wav

Pre-gap length 0:00:01.25

Peak level 94.4 %
Extraction speed 1.4 X
Track quality 100.0 %
Test CRC C67D73CE
Copy CRC C67D73CE
Accurately ripped (confidence 9) [BE1AEAC6] (AR v2)
Copy OK

Track 9

Filename C:\Program Files (x86)\Exact Audio Copy\Flac\09. The Good, the Bad and the Ugly.wav

Pre-gap length 0:00:01.54

Peak level 92.3 %
Extraction speed 1.6 X
Track quality 100.0 %
Test CRC EC6D41C1
Copy CRC EC6D41C1
Accurately ripped (confidence 9) [48E7014D] (AR v2)
Copy OK

Track 10

Filename C:\Program Files (x86)\Exact Audio Copy\Flac\10. Moonlight Sonata.wav

Pre-gap length 0:00:02.07

Peak level 95.5 %
Extraction speed 1.6 X
Track quality 100.0 %
Test CRC 1FF62EC0
Copy CRC 1FF62EC0
Accurately ripped (confidence 9) [27B8466B] (AR v2)
Copy OK

Track 11

Filename C:\Program Files (x86)\Exact Audio Copy\Flac\11. Theme from ''Love Story''.wav

Pre-gap length 0:00:01.69

Peak level 82.5 %
Extraction speed 1.7 X
Track quality 100.0 %
Test CRC CE3480AC
Copy CRC CE3480AC
Accurately ripped (confidence 9) [28CA08D8] (AR v2)
Copy OK

Track 12

Filename C:\Program Files (x86)\Exact Audio Copy\Flac\12. Love Theme from ''Romeo and Juliet''.wav

Pre-gap length 0:00:01.29

Peak level 85.6 %
Extraction speed 1.7 X
Track quality 100.0 %
Test CRC 4CF9BBC0
Copy CRC 4CF9BBC0
Accurately ripped (confidence 9) [EAA0548D] (AR v2)
Copy OK

Track 13

Filename C:\Program Files (x86)\Exact Audio Copy\Flac\13. Days of Wine and Roses.wav

Pre-gap length 0:00:01.42

Peak level 74.6 %
Extraction speed 1.7 X
Track quality 100.0 %
Test CRC 6155F7C9
Copy CRC 6155F7C9
Accurately ripped (confidence 9) [BF1C976C] (AR v2)
Copy OK

Track 14

Filename C:\Program Files (x86)\Exact Audio Copy\Flac\14. Theme from ''The Molly Maguires''.wav

Pre-gap length 0:00:01.74

Peak level 97.7 %
Extraction speed 1.6 X
Track quality 99.9 %
Test CRC 1F61C948
Copy CRC 1F61C948
Accurately ripped (confidence 9) [96DCEEDE] (AR v2)
Copy OK

Track 15

Filename C:\Program Files (x86)\Exact Audio Copy\Flac\15. ''The Thorn Birds'' Theme.wav

Pre-gap length 0:00:01.61

Peak level 89.6 %
Extraction speed 1.9 X
Track quality 100.0 %
Test CRC 076B115A
Copy CRC 076B115A
Accurately ripped (confidence 9) [586DAEF6] (AR v2)
Copy OK

Track 16

Filename C:\Program Files (x86)\Exact Audio Copy\Flac\16. The Summer Knows.wav

Pre-gap length 0:00:01.58

Peak level 94.6 %
Extraction speed 1.7 X
Track quality 99.9 %
Test CRC F6E2282C
Copy CRC F6E2282C
Accurately ripped (confidence 9) [9BE74D28] (AR v2)
Copy OK

Track 17

Filename C:\Program Files (x86)\Exact Audio Copy\Flac\17. The Untouchables (Theme).wav

Pre-gap length 0:00:02.11

Peak level 97.7 %
Extraction speed 2.0 X
Track quality 100.0 %
Test CRC 9111A1C4
Copy CRC 9111A1C4
Accurately ripped (confidence 9) [F2264374] (AR v2)
Copy OK

Track 18

Filename C:\Program Files (x86)\Exact Audio Copy\Flac\18. Mystery Movie Theme.wav

Pre-gap length 0:00:02.21

Peak level 97.7 %
Extraction speed 1.9 X
Track quality 100.0 %
Test CRC 8318BAF2
Copy CRC 8318BAF2
Accurately ripped (confidence 9) [2212F321] (AR v2)
Copy OK

Track 19

Filename C:\Program Files (x86)\Exact Audio Copy\Flac\19. Theme from ''Cade's County''.wav

Pre-gap length 0:00:01.70

Peak level 97.7 %
Extraction speed 1.9 X
Track quality 100.0 %
Test CRC A9B9BE3C
Copy CRC A9B9BE3C
Accurately ripped (confidence 9) [F4AE9052] (AR v2)
Copy OK

Track 20

Filename C:\Program Files (x86)\Exact Audio Copy\Flac\20. Dream a Little Dream of Me.wav

Pre-gap length 0:00:01.73

Peak level 87.2 %
Extraction speed 2.1 X
Track quality 100.0 %
Test CRC A8BA9A08
Copy CRC A8BA9A08
Accurately ripped (confidence 9) [17C905AA] (AR v2)
Copy OK


All tracks accurately ripped

No errors occurred

End of status report

–– CUETools DB Plugin V2.1.6

[CTDB TOCID: .twhmI6ql6GjQCNLhJQ69jOHvv0-] found
Submit result: .twhmI6ql6GjQCNLhJQ69jOHvv0- has been confirmed
Track | CTDB Status
1 | (25/25) Accurately ripped
2 | (25/25) Accurately ripped
3 | (25/25) Accurately ripped
4 | (25/25) Accurately ripped
5 | (25/25) Accurately ripped
6 | (25/25) Accurately ripped
7 | (25/25) Accurately ripped
8 | (25/25) Accurately ripped
9 | (25/25) Accurately ripped
10 | (25/25) Accurately ripped
11 | (25/25) Accurately ripped
12 | (25/25) Accurately ripped
13 | (25/25) Accurately ripped
14 | (25/25) Accurately ripped
15 | (25/25) Accurately ripped
16 | (25/25) Accurately ripped
17 | (25/25) Accurately ripped
18 | (25/25) Accurately ripped
19 | (25/25) Accurately ripped
20 | (25/25) Accurately ripped


==== Log checksum 48391DC7EE095B78256C7E19A3E6F32E6A765C8F50911264EA6D99DDB4B1871C ====

foobar2000 1.2 / Dynamic Range Meter 1.1.1
log date: 2017-10-27 01:24:38

––––––––––––––––––––––––––––––––––––––––
Analyzed: Henry Mancini / The Real… Henry Mancini (CD3)
––––––––––––––––––––––––––––––––––––––––

DR Peak RMS Duration Track
––––––––––––––––––––––––––––––––––––––––
DR11 -0.40 dB -14.70 dB 3:01 01-The Windmills of Your Mind
DR12 -0.20 dB -14.33 dB 2:19 02-Experiment in Terror
DR8 -1.03 dB -13.84 dB 3:02 03-Bagdad on Thames
DR11 -0.10 dB -13.82 dB 2:34 04-Mambo Parisienne
DR11 -1.48 dB -13.71 dB 2:07 05-Disco
DR13 -0.26 dB -18.14 dB 4:00 06-Theme from Shaft
DR11 -0.20 dB -17.46 dB 3:35 07-The Godfather Theme
DR11 -0.50 dB -13.57 dB 2:08 08-The Magnificent Seven
DR13 -0.69 dB -17.47 dB 3:09 09-The Good, the Bad and the Ugly
DR11 -0.40 dB -14.21 dB 2:53 10-Moonlight Sonata
DR11 -1.67 dB -17.82 dB 2:51 11-Theme from 'Love Story'
DR8 -1.34 dB -12.97 dB 2:34 12-Love Theme from 'Romeo and Juliet'
DR8 -2.54 dB -14.65 dB 2:09 13-Days of Wine and Roses
DR11 -0.20 dB -14.83 dB 3:08 14-Theme from 'The Molly Maguires'
DR10 -0.95 dB -14.02 dB 3:04 15-'The Thorn Birds' Theme
DR12 -0.48 dB -15.72 dB 3:28 16-The Summer Knows
DR14 -0.20 dB -17.67 dB 2:32 17-The Untouchables (Theme)
DR13 -0.20 dB -16.22 dB 1:59 18-Mystery Movie Theme
DR14 -0.20 dB -17.55 dB 2:04 19-Theme from 'Cade's County'
DR10 -1.18 dB -15.80 dB 3:15 20-Dream a Little Dream of Me
––––––––––––––––––––––––––––––––––––––––

Number of tracks: 20
Official DR value: DR11

Samplerate: 44100 Hz
Channels: 2
Bits per sample: 16
Bitrate: 662 kbps
Codec: FLAC
================================================================================

Henry Mancini - The Real... Henry Mancini: The Ultimate Collection (2014) 3CD Set

Henry Mancini - The Real... Henry Mancini: The Ultimate Collection (2014) 3CD Set

All thanks to original releaser - Olivierito

More interesting music in My Blog