Subcategories

Herb Alpert - Keep Your Eye On Me (1987)

Posted By: Designol
Herb Alpert - Keep Your Eye On Me (1987)

Herb Alpert - Keep Your Eye On Me (1987)
EAC | FLAC | Image (Cue&Log) ~ 275 Mb | Mp3 (CBR320) ~ 105 Mb | Scans ~ 44 Mb | 00:43:58
Instrumental Pop, Jazz-Pop, R&B, New Jack Swing | Label: A&M | # CD 5125

Keep Your Eye on Me is a pop/R&B/dance album by Herb Alpert, released in 1987. It contains two hit singles, "Diamonds" and "Making Love in the Rain" (both featuring lead and background vocals by Janet Jackson and Lisa Keith). These Billboard Top 40 hits, along with the title track and "Pillow" (featuring co-lead vocals by Alpert and singer/wife Lani Hall) were produced by Jimmy Jam & Terry Lewis.

The unbelievable sales success of this record is a testament to Herb Alpert's extraordinary ability to keep his ear to the ground – no doubt aided by his position as vice-chairman and co-owner of A&M Records – and adapt to the times. At a time when A&M's Janet Jackson was blazing up the charts, Alpert journeyed to Minneapolis and cut some tracks with Jackson's producers Jimmy Jam and Terry Lewis, producing the others himself in a mostly similar techno-pop vein. Presto!, three Top Ten R&B singles came out of the album, "Keep Your Eye on Me," "Making Love in the Rain," and the number one hit "Diamonds." The flashy, trashy "Diamonds" no doubt was aided on its rush up the charts by Jackson and Lisa Keith's bouncy lead vocals; it's really their record and that of Jam and Lewis, despite Alpert's top billing. Jackson and Keith also take the lead in the simple-minded lyrics of "Making Love in the Rain," which nevertheless has a haunting effect accented by Alpert's muted musings through an electronic gauze. At first, this seems like a gleaming digital machine of a record, loaded with repetitive sampling effects and drum machines churning out that ubiquitous '80s backbeat. But the techno stuff gradually gives way to Alpert's humane trumpet, which in a touching valentine to the '60s on Acker Bilk's "Stranger on the Shore," is eventually allowed to soar unimpeded over the electronics.

Review by Richard S. Ginell, Allmusic.com

Herb Alpert - Keep Your Eye On Me (1987)



Tracklist:

01. Keep Your Eye On Me (5:13)
02. Hot Shot (3:57)
03. Diamonds (4:53)
04. Traffic Jam (3:16)
05. Cat Man Do (5:27)
06. Pillow (4:33)
07. Our Song (3:55)
08. Making Love In The Rain (5:56)
09. Rocket To The Moon (3:54)
10. Stranger On The Shore (2:54)


Exact Audio Copy V1.1 from 23. June 2015

Отчёт EAC об извлечении, выполненном 5. мая 2017, 18:09

Herb Alpert / Keep Your Eye On Me

Дисковод: ASUS DRW-24B3ST Adapter: 0 ID: 0

Режим чтения : Достоверность
Использование точного потока : Да
Отключение кэша аудио : Да
Использование указателей C2 : Нет

Коррекция смещения при чтении : 6
Способность читать области Lead-in и Lead-out : Нет
Заполнение пропущенных сэмплов тишиной : Да
Удаление блоков с тишиной в начале и конце : Нет
При вычислениях CRC использовались нулевые сэмплы : Да
Интерфейс : Установленный внешний ASPI-интерфейс

Выходной формат : Пользовательский кодировщик
Выбранный битрейт : 1024 kBit/s
Качество : Высокий
Добавление ID3-тега : Нет
Утилита сжатия : C:\Program Files (x86)\Exact Audio Copy\Flac\flac.exe
Дополнительные параметры : -V -8 -T "Date=%year%" -T "Genre=%genre%" %source%


TOC извлечённого CD

Трек | Старт | Длительность | Начальный сектор | Конечный сектор
––––––––––––––––––––––––––––––––––-
1 | 0:00.33 | 5:13.32 | 33 | 23539
2 | 5:13.65 | 3:56.50 | 23540 | 41289
3 | 9:10.40 | 4:53.33 | 41290 | 63297
4 | 14:03.73 | 3:15.55 | 63298 | 77977
5 | 17:19.53 | 5:27.35 | 77978 | 102537
6 | 22:47.13 | 4:32.47 | 102538 | 122984
7 | 27:19.60 | 3:54.73 | 122985 | 140607
8 | 31:14.58 | 5:55.62 | 140608 | 167294
9 | 37:10.45 | 3:53.60 | 167295 | 184829
10 | 41:04.30 | 2:53.55 | 184830 | 197859


Характеристики диапазона извлечения и сообщения об ошибках

Выбранный диапазон

Имя файла C:\Torrents - my\Herb Alpert - 1987 - Keep Your Eye On Me\Herb Alpert - Keep Your Eye On Me.wav

Пиковый уровень 73.5 %
Скорость извлечения 8.0 X
Качество диапазона 100.0 %
CRC теста 370ABC7A
CRC копии 370ABC7A
Копирование… OK

Ошибок не произошло


AccurateRip: сводка

Трек 1 : извлечено точно (доверие 4) [9C232E36] (AR v2)
Трек 2 : извлечено точно (доверие 5) [FE9A3FD6] (AR v2)
Трек 3 : извлечено точно (доверие 4) [273D36AD] (AR v2)
Трек 4 : извлечено точно (доверие 5) [B6C9B136] (AR v2)
Трек 5 : извлечено точно (доверие 5) [963F8849] (AR v2)
Трек 6 : извлечено точно (доверие 5) [96052E8A] (AR v2)
Трек 7 : извлечено точно (доверие 5) [3548333C] (AR v2)
Трек 8 : извлечено точно (доверие 4) [83B4EDDE] (AR v2)
Трек 9 : извлечено точно (доверие 5) [11DC86AD] (AR v2)
Трек 10 : извлечено точно (доверие 5) [9FB7D1CF] (AR v2)

Все треки извлечены точно

Конец отчёта

==== Контрольная сумма отчёта 59ECFF554B4803CDAB70B9C4050F501A49CA9D6217C635CA2ABBEF0A7C061EDB ====

foobar2000 1.2 / Dynamic Range Meter 1.1.1
log date: 2017-05-05 22:34:21

––––––––––––––––––––––––––––––––––––––––
Analyzed: Herb Alpert / Keep Your Eye On Me
––––––––––––––––––––––––––––––––––––––––

DR Peak RMS Duration Track
––––––––––––––––––––––––––––––––––––––––
DR15 -3.20 dB -19.71 dB 5:13 01-Keep Your Eye On Me
DR10 -3.06 dB -17.43 dB 3:57 02-Hot Shot
DR13 -4.08 dB -19.18 dB 4:53 03-Diamonds
DR11 -5.06 dB -18.87 dB 3:16 04-Traffic Jam
DR10 -4.36 dB -16.64 dB 5:27 05-Cat Man Do
DR13 -2.67 dB -18.87 dB 4:33 06-Pillow
DR11 -3.44 dB -17.20 dB 3:55 07-Our Song
DR12 -3.21 dB -18.53 dB 5:56 08-Making Love In The Rain
DR12 -2.93 dB -17.56 dB 3:54 09-Rocket To The Moon
DR11 -3.91 dB -17.37 dB 2:54 10-Stranger On The Shore
––––––––––––––––––––––––––––––––––––––––

Number of tracks: 10
Official DR value: DR12

Samplerate: 44100 Hz
Channels: 2
Bits per sample: 16
Bitrate: 861 kbps
Codec: FLAC
================================================================================

Herb Alpert - Keep Your Eye On Me (1987)

Herb Alpert - Keep Your Eye On Me (1987)