Subcategories

Herbie Hancock - The Complete Columbia Album Collection 1972-1988 (2013) (34 CD Box Set)

Posted By: murena
Herbie Hancock - The Complete Columbia Album Collection 1972-1988 (2013) (34 CD Box Set)

Herbie Hancock - The Complete Columbia Album Collection 1972-1988 (2013) (34 CD Box Set)
XLD Rip | FLAC (Tracks+.cue, log) | 34 CDs, 27:41:32 min | Covers included | 8,73 Gb
Genre: Jazz, Jazz-Funk, Fusion, Jazz-Rock / Label: Columbia/Legacy

Herbie Hancock recorded for Columbia between 1972 and 1988. During that period, between the label's American and Japanese divisions, he released 31 albums, both solo and with an astonishing variety of players in an equally breathtaking panorama of styles, from straight-ahead post-bop, to fusion, jazz-funk, disco, R&B, smooth jazz, and even hip-hop. Though Hancock had a celebrated career before signing to Columbia, it was his longest label association; and during his tenure there, he experienced his greatest commercial success and his name was etched permanently into the history of popular music.

This box set contains 34 discs – 28 single and three double albums – all housed in handsome individual LP and gatefold sleeves. Among them are eight records never previously issued outside of Japan: the solo sans overdubs Dedication from 1974, Flood (Head Hunters band live, 1975); The Herbie Hancock Trio (with Ron Carter and Tony Williams, 1977); Tempest (with V.S.O.P, 1977), Directstep (a full band, live in the studio, direct-to-disc, 1978); Five Stars (V.S.O.P. studio, direct-to-disc, 1979), Butterfly (studio, with Kimiko Kasai, 1979), Herbie Hancock Trio with Ron Carter + Tony Williams (studio, 1981). Three more recordings, Sunlight (1978), Magic Windows (1981), and Lite Me Up (1982), have never been previously issued in the United States on compact disc.

There are several historic albums in this batch, among them, Sextant, Head Hunters, V.S.O.P.: The Quintet, the Death Wish soundtrack, Future Shock, and more. Many of these dates, particularly those from the disco and post-disco R&B eras, such as Feets Don't Fail Me Now, and Monster, deserve reappraisal for what they are in and of themselves – pop records. The same goes for the jazz-funk Man-Child and even the post-Monster, R&B, pop, and jazz experimentation that resulted in Mr. Hands. The accompanying booklet is 200 pages, divided into three sections. Its centerpiece is an exhaustive 5,500 word essay by noted musician, historian, and producer Bob Belden. In addition, there is an album-by-album commentary by Max Schlueter, Hancock's historian and discographer, as well as a complete discography by Richard Seidel, which includes lineups, detailed recording data, original release dates, chart positions, and a shorter discography of Hancock's pre-Columbia career. There is even a glossary of instrumentation and terminology used. There are loads of well-known and rare photographs and sidebar commentaries, including one on David Rubinson, who produced all but six of these records. While it's easy to note that a project of this size will likely only appeal to Hancock's most ardent fans, music historians, and librarians, it is also worth noting that inside The Complete Columbia Albums Collection 1972-1988 is a defining portrait of a musician so diverse, restless, and creative – one who has been profiled, emulated, imitated, sampled, and compiled so often – that there are few in his class.

Herbie Hancock - The Complete Columbia Album Collection 1972-1988 (2013) (34 CD Box Set)


CDs:
CD01 - Sextant (1972) {39:10}
CD02 - Head Hunters (1973) {41:46}
CD03 - Dedication (1974) {40:35}
CD04 - Thrust (1974) {38:50}
CD05 - Death Wish OST (1974) {40:44}
CD06 - Flood (1975) {74:10}
CD07 - Man-Child (1975) {45:21}
CD08 - Secrets (1976) {47:57}
CD09 - V.S.O.P. CD1 (1976) {41:51}
CD10 - V.S.O.P. CD2 (1976) {45:51}
CD11 - The Herbie Hancock Trio (1977) {46:11}
CD12 - V.S.O.P.: The Quintet (1977) {71:31}
CD13 - V.S.O.P.: Tempest in the Colosseum (1977) {69:46}
CD14 - An Evening with Herbie Hancock & Chick Corea in Concert CD1 (1978) {39:23}
CD15 - An Evening with Herbie Hancock & Chick Corea in Concert CD2 (1978) {52:06}
CD16 - Sunlight (1978) {39:32}
CD17 - Feets Don't Fail Me Now (1978) {47:47}
CD18 - Directstep (1978) {30:39}
CD19 - The Piano (1978) {52:14}
CD20 - V.S.O.P.: Live Under the Sky CD1 (1979) {77:55}
CD21 - V.S.O.P.: Live Under the Sky CD2 (1979) {76:23}
CD22 - V.S.O.P.: Five Stars (1979) {49:49}
CD23 - Butterfly (with Kimiko Kasai) (1979) {47:11}
CD24 - Monster (1980) {42:13}
CD25 - Mr. Hands (1980) {39:58}
CD26 - Magic Windows (1981) {42:29}
CD27 - Herbie Hancock Trio with Ron Carter & Tony Williams (1981) {45:44}
CD28 - Herbie Hancock Quartet (1981) {68:29}
CD29 - Lite Me Up (1981) {38:04}
CD30 - Future Shock (1983) {44:18}
CD31 - Sound-System (1984) {40:38}
CD32 - Village Life (with Foday Musa Suso) (1984) {40:40}
CD33 - Round Midnight OST (1985) {51:20}
CD34 - Perfect Machine (1988) {50:55}

Herbie Hancock - The Complete Columbia Album Collection 1972-1988 (2013) (34 CD Box Set)



Disc: 1
1. Rain Dance
2. Hidden Shadows
3. Hornets

Disc: 2
1. Chameleon
2. Watermelon Man
3. Sly
4. Vein Melter

Disc: 3
1. Maiden Voyage
2. Dolphin Dance
3. Nobu
4. Cantaloupe Island

Disc: 4
1. Palm Grease
2. Actual Proof
3. Butterfly
4. Spank-A-Lee

Disc: 5
1. Death Wish (Main Title)
2. Joanna's Theme
3. Do a Thing
4. Paint Her Mouth
5. Rich Country
6. Medley: Suite Revenge
7. Ochoa Knose
8. Party People
9. Fill Your Hand

Disc: 6
1. Introduction / Maiden Voyage
2. Actual Proof
3. Spank-A-Lee
4. Watermelon Man
5. Butterfly
6. Chameleon
7. Hang Up Your Hang Ups

Disc: 7
1. Hang Up Your Hang Ups
2. Sun Touch
3. The Traitor
4. Bubbles
5. Steppin' In It
6. Heartbeat

Disc: 8
1. Doin' It
2. People Music
3. Cantelope Island
4. Spider
5. Gentle Thoughts
6. Swamp Rat
7. Sansho Shima

Disc: 9
1. Piano Introduction
2. Maiden Voyage
3. Nefertiti
4. Introduction of Players / Eye of the Hurricane

Disc: 10
1. Toys
2. Introductions
3. You'll Know When You Get There
4. Hang Up Your Hang Ups
5. Spider

Disc: 11
1. Watch it
2. Speak Like a Child
3. Watcha Waitin' For
4. Look
5. Milestones

Disc: 12
1. One of a Kind - The V.S.O.P. Quintet
2. Third Plane - The V.S.O.P. Quintet
3. Jessica - The V.S.O.P. Quintet
4. Lawra - The V.S.O.P. Quintet
5. Introduction of Players / Darts - The V.S.O.P. Quintet
6. Dolores - The V.S.O.P. Quintet
7. Little Waltz - The V.S.O.P. Quintet
8. Byrdlike - The V.S.O.P. Quintet

Disc: 13
1. Eye of the Hurricane - The V.S.O.P. Quintet
2. Diana - The V.S.O.P. Quintet
3. Eighty-One - The V.S.O.P. Quintet
4. Maiden Voyage - The V.S.O.P. Quintet
5. Lawra - The V.S.O.P. Quintet
6. Red Clay - The V.S.O.P. Quintet

Disc: 14
1. Someday My Prince Will Come - Herbie Hancock & Chick Corea
2. Liza (All The Clouds'll Roll Away) - Herbie Hancock & Chick Corea
3. Button Up - Herbie Hancock & Chick Corea

Disc: 15
1. February Moment - Herbie Hancock & Chick Corea
2. Maiden Voyage - Herbie Hancock & Chick Corea
3. La Fiesta - Herbie Hancock & Chick Corea

Disc: 16
1. I Thought It Was You
2. Come Running to Me
3. Sunlight
4. No Means Yes
5. Good Question

Disc: 17
1. You Bet Your Love
2. Trust Me
3. Ready or Not
4. Tell Everybody
5. Honey from the Jar
6. Knee Deep
7. Tell Everybody

Disc: 18
1. Butterfly
2. Shiftless Shuffle
3. I Thought It Was You

Disc: 19
1. My Funny Valentine
2. On Green Dolphin Street
3. Someday My Prince Will Come
4. Harvest Time
5. Sonrisa
6. Manhattan Island
7. Blue Otani
8. My Funny Valentine
9. On Green Dolphin Street
10. Harvest Time
11. Someday My Prince Will Come

Disc: 20
1. Opening - The V.S.O.P. Quintet
2. Eye of the Hurricane - The V.S.O.P. Quintet
3. Tear Drop - The V.S.O.P. Quintet
4. Domo - The V.S.O.P. Quintet
5. Para Oriente - The V.S.O.P. Quintet
6. Pee Wee - The V.S.O.P. Quintet
7. One of Another Kind - The V.S.O.P. Quintet
8. Fragile - The V.S.O.P. Quintet

Disc: 21
1. Opening - The V.S.O.P. Quintet
2. Eye of the Hurricane - The V.S.O.P. Quintet
3. Tear Drop - The V.S.O.P. Quintet
4. Domo - The V.S.O.P. Quintet
5. Para Oriente - The V.S.O.P. Quintet
6. Pee Wee - The V.S.O.P. Quintet
7. One of Another Kind - The V.S.O.P. Quintet
8. Fragile - The V.S.O.P. Quintet
9. Stella by Starlight - The V.S.O.P. Quintet
10. On Green Dolphin Street - The V.S.O.P. Quintet

Disc: 22
1. Skagly - The V.S.O.P. Quintet
2. Finger Painting - The V.S.O.P. Quintet
3. Mutants on the Beach - The V.S.O.P. Quintet
4. Circe - The V.S.O.P. Quintet
5. Skagly - The V.S.O.P. Quintet
6. Finger Painting - The V.S.O.P. Quintet

Disc: 23
1. I Thought It Was You - Kimiko Kasai with Herbie Hancock
2. Tell Me a Bedtime Story - Kimiko Kasai with Herbie Hancock
3. Head in the Clouds - Kimiko Kasai with Herbie Hancock
4. Maiden Voyage - Kimiko Kasai with Herbie Hancock
5. Harvest Time - Kimiko Kasai with Herbie Hancock
6. Sunlight - Kimiko Kasai with Herbie Hancock
7. Butterfly - Kimiko Kasai with Herbie Hancock
8. As - Kimiko Kasai with Herbie Hancock

Disc: 24
1. Saturday Night
2. Stars in Your Eyes
3. Go for It
4. Don't Hold It In
5. Making Love
6. It All Comes Round

Disc: 25
1. Spiraling Prism
2. Calypso
3. Just Around the Corner
4. A.M.
5. Shiftless Shuffle
6. Textures

Disc: 26
1. Magic Number
2. Tonight's the Night
3. Everybody's Broke
4. Help Yourself
5. Satisfied with Love
6. The Twilight Clone

Disc: 27
1. Stable Mates
2. Dolphin Dance
3. A Slight Smile
4. That Old Black Magic
5. La Maison Goree

Disc: 28
1. Well You Needn't
2. 'Round Midnight
3. Clear Ways
4. A Quick Sketch
5. Eye of the Hurricane
6. Parade
7. The Sorcerer
8. Pee Wee
9. I Fall in Love Too Easily

Disc: 29
1. Lite Me Up!
2. The Bomb
3. Gettin' to the Good Part
4. Paradise
5. Can't Hide Your Love
6. The Fun Tracks
7. Motor Mouth
8. Give It All Your Heart

Disc: 30
1. Rockit
2. Future Shock
3. TFS
4. Earth Beat
5. Autodrive
6. Rough
7. Mega Mix (Includes: Rockit, Autodrive, Future Shock, TFS, Rough, & Chameleon)

Disc: 31
1. Hardrock
2. Metal Beat
3. Karabali
4. Junku
5. People Are Changing
6. Sound System
7. Metal Beat

Disc: 32
1. Moon / Light - Herbie Hancock and Foday Musa Suso
2. Ndan Ndan Nyaria - Herbie Hancock and Foday Musa Suso
3. Early Warning - Herbie Hancock and Foday Musa Suso
4. Kanatente - Herbie Hancock and Foday Musa Suso

Disc: 33
1. 'Round Midnight
2. Body and Soul
3. Bérangère's Nightmare
4. Fair Weather
5. Una Noche con Francis
6. The Peacocks
7. How Long Has This Been Going On?
8. Rhythm-A-Ning
9. Still Time
10. Minuit Aux Champs-Elysées
11. Chan's Song (Never Said)

Disc: 34
1. Perfect Machine
2. Obsession
3. Vibe Alive
4. Beat Wise
5. Maiden Voyage / P. Bop
6. Chemical Residue
7. Vibe Alive
8. Beat Wise



CD1
X Lossless Decoder version 20131102 (145.0)
XLD extraction logfile from 2014-01-27 10:37:32 -0500
Herbie Hancock / Sextant
Used drive : HL-DT-ST DVDRW GX30N (revision RP09)
Media type : Pressed CD
Ripper mode : XLD Secure Ripper
Disable audio cache : OK for the drive with a cache less than 1375KiB
Make use of C2 pointers : NO
Read offset correction : 6
Max retry count : 20
Gap status : Analyzed, Appended (except HTOA)
TOC of the extracted CD
Track | Start | Length | Start sector | End sector
––––––––––––––––––––––––––––-
1 | 00:00:00 | 09:19:36 | 0 | 41960
2 | 09:19:36 | 10:15:10 | 41961 | 88095
3 | 19:34:46 | 19:36:05 | 88096 | 176300
AccurateRip Summary (DiscID: 0004acb6-001012e7-1d092e03)
Track 01 : OK (v2, confidence 4/4)
Track 02 : OK (v2, confidence 4/4)
Track 03 : OK (v2, confidence 4/4)
->All tracks accurately ripped.
All Tracks
Album gain : -2.75 dB
Peak : 0.998871
Statistics
Read error : 0
Jitter error (maybe fixed) : 0
Retry sector count : 0
Damaged sector count : 0
Track 01
Filename : /Users/rog/Downloads/Herbie Hancock - Sextant [FLAC]/01 Rain Dance.flac
/Users/rog/Downloads/Herbie Hancock - Sextant [320k LAME]/01 Rain Dance.mp3
Pre-gap length : 00:02:00
Track gain : -1.32 dB
Peak : 0.998871
CRC32 hash (test run) : 7271264F
CRC32 hash : 7271264F
CRC32 hash (skip zero) : 96CB3A51
AccurateRip v1 signature : 6AAC6745
AccurateRip v2 signature : AFF24C29
->Accurately ripped (v2, confidence 4/4)
Statistics
Read error : 0
Jitter error (maybe fixed) : 0
Retry sector count : 0
Damaged sector count : 0
Track 02
Filename : /Users/rog/Downloads/Herbie Hancock - Sextant [FLAC]/02 Hidden Shadows.flac
/Users/rog/Downloads/Herbie Hancock - Sextant [320k LAME]/02 Hidden Shadows.mp3
Pre-gap length : 00:03:05
Track gain : -3.25 dB
Peak : 0.961212
CRC32 hash (test run) : 7A317DC7
CRC32 hash : 7A317DC7
CRC32 hash (skip zero) : 527F1C2A
AccurateRip v1 signature : 35AEC854
AccurateRip v2 signature : 50529047
->Accurately ripped (v2, confidence 4/4)
Statistics
Read error : 0
Jitter error (maybe fixed) : 0
Retry sector count : 0
Damaged sector count : 0
Track 03
Filename : /Users/rog/Downloads/Herbie Hancock - Sextant [FLAC]/03 Hornets.flac
/Users/rog/Downloads/Herbie Hancock - Sextant [320k LAME]/03 Hornets.mp3
Pre-gap length : 00:02:45
Track gain : -2.78 dB
Peak : 0.977631
CRC32 hash (test run) : F79CF6DB
CRC32 hash : F79CF6DB
CRC32 hash (skip zero) : B3595660
AccurateRip v1 signature : AA8941B2
AccurateRip v2 signature : E6877457
->Accurately ripped (v2, confidence 4/4)
Statistics
Read error : 0
Jitter error (maybe fixed) : 0
Retry sector count : 0
Damaged sector count : 0
No errors occurred
End of status report
––-BEGIN XLD SIGNATURE––-
6KaTnEFNmTZvtD_JVh5VXN17iK0nlc.Rj6tzJUyRSmC1KhAuMa8qt0_ZvBnQNiUaQvnlL20yr7aqPpbpqqCG2YacyGi3vFbs.Z.7jmW
––-END XLD SIGNATURE––-


CD2
X Lossless Decoder version 20131102 (145.0)
XLD extraction logfile from 2014-01-27 10:58:45 -0500
Herbie Hancock / Head Hunters
Used drive : HL-DT-ST DVDRW GX30N (revision RP09)
Media type : Pressed CD
Ripper mode : XLD Secure Ripper
Disable audio cache : OK for the drive with a cache less than 1375KiB
Make use of C2 pointers : NO
Read offset correction : 6
Max retry count : 20
Gap status : Analyzed, Appended (except HTOA)
TOC of the extracted CD
Track | Start | Length | Start sector | End sector
––––––––––––––––––––––––––––-
1 | 00:00:00 | 15:44:55 | 0 | 70854
2 | 15:44:55 | 06:30:32 | 70855 | 100136
3 | 22:15:12 | 10:21:07 | 100137 | 146718
4 | 32:36:19 | 09:09:73 | 146719 | 187966
AccurateRip Summary (DiscID: 0007b74e-001e0ac1-3a09ca04)
Track 01 : OK (v2, confidence 5/5)
Track 02 : OK (v2, confidence 5/5)
Track 03 : OK (v2, confidence 5/5)
Track 04 : OK (v2, confidence 5/5)
->All tracks accurately ripped.
All Tracks
Album gain : -3.50 dB
Peak : 0.998901
Statistics
Read error : 0
Jitter error (maybe fixed) : 0
Retry sector count : 0
Damaged sector count : 0
Track 01
Filename : /Users/rog/Downloads/Herbie Hancock - Head Hunters [FLAC]/01 Chameleon.flac
/Users/rog/Downloads/Herbie Hancock - Head Hunters [320k LAME]/01 Chameleon.mp3
Pre-gap length : 00:02:00
Track gain : -4.62 dB
Peak : 0.998871
CRC32 hash (test run) : E489620B
CRC32 hash : E489620B
CRC32 hash (skip zero) : 89FA4436
AccurateRip v1 signature : C212BE3C
AccurateRip v2 signature : ED754AD7
->Accurately ripped (v2, confidence 5/5)
Statistics
Read error : 0
Jitter error (maybe fixed) : 0
Retry sector count : 0
Damaged sector count : 0
Track 02
Filename : /Users/rog/Downloads/Herbie Hancock - Head Hunters [FLAC]/02 Watermelon Man.flac
/Users/rog/Downloads/Herbie Hancock - Head Hunters [320k LAME]/02 Watermelon Man.mp3
Pre-gap length : 00:02:04
Track gain : -2.57 dB
Peak : 0.998901
CRC32 hash (test run) : 2C5FBAA1
CRC32 hash : 2C5FBAA1
CRC32 hash (skip zero) : D83070D5
AccurateRip v1 signature : B5382D52
AccurateRip v2 signature : 284D5DCA
->Accurately ripped (v2, confidence 5/5)
Statistics
Read error : 0
Jitter error (maybe fixed) : 0
Retry sector count : 0
Damaged sector count : 0
Track 03
Filename : /Users/rog/Downloads/Herbie Hancock - Head Hunters [FLAC]/03 Sly.flac
/Users/rog/Downloads/Herbie Hancock - Head Hunters [320k LAME]/03 Sly.mp3
Pre-gap length : 00:01:32
Track gain : -3.08 dB
Peak : 0.998840
CRC32 hash (test run) : 6754CC12
CRC32 hash : 6754CC12
CRC32 hash (skip zero) : 2D2FD95E
AccurateRip v1 signature : BB443CB6
AccurateRip v2 signature : E9AAFA31
->Accurately ripped (v2, confidence 5/5)
Statistics
Read error : 0
Jitter error (maybe fixed) : 0
Retry sector count : 0
Damaged sector count : 0
Track 04
Filename : /Users/rog/Downloads/Herbie Hancock - Head Hunters [FLAC]/04 Vein Melter.flac
/Users/rog/Downloads/Herbie Hancock - Head Hunters [320k LAME]/04 Vein Melter.mp3
Pre-gap length : 00:01:28
Track gain : 1.60 dB
Peak : 0.855438
CRC32 hash (test run) : C29FAE4A
CRC32 hash : C29FAE4A
CRC32 hash (skip zero) : E44B6D76
AccurateRip v1 signature : AE7030A1
AccurateRip v2 signature : D347E697
->Accurately ripped (v2, confidence 5/5)
Statistics
Read error : 0
Jitter error (maybe fixed) : 0
Retry sector count : 0
Damaged sector count : 0
No errors occurred
End of status report
––-BEGIN XLD SIGNATURE––-
ZWkyOen4dNUROKJuC1JD3BkA3Qz57u8iTH4zH8nmo6Qno9xqUOUeYQKfKr0v_jSfuIubrJnF4_EM1MU5UuacpNxykfsm60eb5aQ71OS
––-END XLD SIGNATURE––-


CD3
X Lossless Decoder version 20131102 (145.0)
XLD extraction logfile from 2014-01-27 11:36:33 -0500
Herbie Hancock / Dedication
Used drive : HL-DT-ST DVDRW GX30N (revision RP09)
Media type : Pressed CD
Ripper mode : XLD Secure Ripper
Disable audio cache : OK for the drive with a cache less than 1375KiB
Make use of C2 pointers : NO
Read offset correction : 6
Max retry count : 20
Gap status : Analyzed, Appended (except HTOA)
TOC of the extracted CD
Track | Start | Length | Start sector | End sector
––––––––––––––––––––––––––––-
1 | 00:00:00 | 07:44:19 | 0 | 34818
2 | 07:44:19 | 11:17:28 | 34819 | 85621
3 | 19:01:47 | 07:38:36 | 85622 | 120007
4 | 26:40:08 | 13:56:09 | 120008 | 182716
AccurateRip Summary (DiscID: 000674fe-001a3f3a-24098404)
Track 01 : OK (v2, confidence 4/4)
Track 02 : OK (v2, confidence 4/4)
Track 03 : OK (v2, confidence 4/4)
Track 04 : OK (v2, confidence 4/4)
->All tracks accurately ripped.
All Tracks
Album gain : -0.52 dB
Peak : 0.977936
Statistics
Read error : 0
Jitter error (maybe fixed) : 0
Retry sector count : 0
Damaged sector count : 0
Track 01
Filename : /Users/rog/Downloads/Herbie Hancock - Dedication [FLAC]/01 Maiden Voyage.flac
/Users/rog/Downloads/Herbie Hancock - Dedication [320k LAME]/01 Maiden Voyage.mp3
Pre-gap length : 00:02:00
Track gain : 0.96 dB
Peak : 0.735565
CRC32 hash (test run) : CCAFC913
CRC32 hash : CCAFC913
CRC32 hash (skip zero) : 26A46F60
AccurateRip v1 signature : 1FA3027C
AccurateRip v2 signature : 8688DD87
->Accurately ripped (v2, confidence 4/4)
Statistics
Read error : 0
Jitter error (maybe fixed) : 0
Retry sector count : 0
Damaged sector count : 0
Track 02
Filename : /Users/rog/Downloads/Herbie Hancock - Dedication [FLAC]/02 Dolphin Dance.flac
/Users/rog/Downloads/Herbie Hancock - Dedication [320k LAME]/02 Dolphin Dance.mp3
Pre-gap length : 00:04:19
Track gain : 0.61 dB
Peak : 0.918976
CRC32 hash (test run) : A535D285
CRC32 hash : A535D285
CRC32 hash (skip zero) : 5F7BB489
AccurateRip v1 signature : F0B1AC0C
AccurateRip v2 signature : 831F6B25
->Accurately ripped (v2, confidence 4/4)
Statistics
Read error : 0
Jitter error (maybe fixed) : 0
Retry sector count : 0
Damaged sector count : 0
Track 03
Filename : /Users/rog/Downloads/Herbie Hancock - Dedication [FLAC]/03 Nobu.flac
/Users/rog/Downloads/Herbie Hancock - Dedication [320k LAME]/03 Nobu.mp3
Pre-gap length : 00:03:56
Track gain : -1.58 dB
Peak : 0.763367
CRC32 hash (test run) : 4E6334F1
CRC32 hash : 4E6334F1
CRC32 hash (skip zero) : 773F1FDC
AccurateRip v1 signature : 1A70196D
AccurateRip v2 signature : EF61A85B
->Accurately ripped (v2, confidence 4/4)
Statistics
Read error : 0
Jitter error (maybe fixed) : 0
Retry sector count : 0
Damaged sector count : 0
Track 04
Filename : /Users/rog/Downloads/Herbie Hancock - Dedication [FLAC]/04 Cantaloupe Island.flac
/Users/rog/Downloads/Herbie Hancock - Dedication [320k LAME]/04 Cantaloupe Island.mp3
Pre-gap length : 00:05:58
Track gain : -0.25 dB
Peak : 0.977936
CRC32 hash (test run) : 8C4E2DAA
CRC32 hash : 8C4E2DAA
CRC32 hash (skip zero) : 7EE53E46
AccurateRip v1 signature : 3DD0C570
AccurateRip v2 signature : F8634708
->Accurately ripped (v2, confidence 4/4)
Statistics
Read error : 0
Jitter error (maybe fixed) : 0
Retry sector count : 0
Damaged sector count : 0
No errors occurred
End of status report
––-BEGIN XLD SIGNATURE––-
E6Re2H71R254dbqE5liKKRvTJycY2nZ2VWMYM2colRG3jTx1X3b29Xxx7Tr6rmyqIHopvkfnXWtQaAruMuum.pFxchqRfIS9wn.Fc6m
––-END XLD SIGNATURE––-


CD4
X Lossless Decoder version 20131102 (145.0)
XLD extraction logfile from 2014-01-27 12:16:12 -0500
Herbie Hancock / Thrust
Used drive : HL-DT-ST DVDRW GX30N (revision RP09)
Media type : Pressed CD
Ripper mode : XLD Secure Ripper
Disable audio cache : OK for the drive with a cache less than 1375KiB
Make use of C2 pointers : NO
Read offset correction : 6
Max retry count : 20
Gap status : Analyzed, Appended (except HTOA)
TOC of the extracted CD
Track | Start | Length | Start sector | End sector
––––––––––––––––––––––––––––-
1 | 00:00:00 | 10:37:61 | 0 | 47835
2 | 10:37:61 | 09:41:54 | 47836 | 91464
3 | 20:19:40 | 11:18:20 | 91465 | 142334
4 | 31:37:60 | 07:12:21 | 142335 | 174755
AccurateRip Summary (DiscID: 0006f6c8-001baac4-35091a04)
Track 01 : OK (v2, confidence 5/5)
Track 02 : OK (v2, confidence 5/5)
Track 03 : OK (v2, confidence 5/5)
Track 04 : OK (v2, confidence 5/5)
->All tracks accurately ripped.
All Tracks
Album gain : -3.84 dB
Peak : 0.998901
Statistics
Read error : 0
Jitter error (maybe fixed) : 0
Retry sector count : 0
Damaged sector count : 0
Track 01
Filename : /Users/rog/Downloads/Herbie Hancock - Thrust [FLAC]/01 Palm Grease.flac
/Users/rog/Downloads/Herbie Hancock - Thrust [320k LAME]/01 Palm Grease.mp3
Pre-gap length : 00:02:00
Track gain : -4.27 dB
Peak : 0.998901
CRC32 hash (test run) : FACBA41E
CRC32 hash : FACBA41E
CRC32 hash (skip zero) : 6AF9EEB4
AccurateRip v1 signature : B05E53AD
AccurateRip v2 signature : C26BC117
->Accurately ripped (v2, confidence 5/5)
Statistics
Read error : 0
Jitter error (maybe fixed) : 0
Retry sector count : 0
Damaged sector count : 0
Track 02
Filename : /Users/rog/Downloads/Herbie Hancock - Thrust [FLAC]/02 Actual Proof.flac
/Users/rog/Downloads/Herbie Hancock - Thrust [320k LAME]/02 Actual Proof.mp3
Pre-gap length : 00:00:20
Track gain : -2.84 dB
Peak : 0.938965
CRC32 hash (test run) : C787BD9D
CRC32 hash : C787BD9D
CRC32 hash (skip zero) : 0DC6C58D
AccurateRip v1 signature : AC644FF3
AccurateRip v2 signature : D09D6598
->Accurately ripped (v2, confidence 5/5)
Statistics
Read error : 0
Jitter error (maybe fixed) : 0
Retry sector count : 0
Damaged sector count : 0
Track 03
Filename : /Users/rog/Downloads/Herbie Hancock - Thrust [FLAC]/03 Butterfly.flac
/Users/rog/Downloads/Herbie Hancock - Thrust [320k LAME]/03 Butterfly.mp3
Pre-gap length : 00:01:00
Track gain : -1.59 dB
Peak : 0.927094
CRC32 hash (test run) : E6B9D6AB
CRC32 hash : E6B9D6AB
CRC32 hash (skip zero) : AD438B45
AccurateRip v1 signature : 7BBC4D37
AccurateRip v2 signature : 9BA5FEAF
->Accurately ripped (v2, confidence 5/5)
Statistics
Read error : 0
Jitter error (maybe fixed) : 0
Retry sector count : 0
Damaged sector count : 0
Track 04
Filename : /Users/rog/Downloads/Herbie Hancock - Thrust [FLAC]/04 Spank-A-Lee.flac
/Users/rog/Downloads/Herbie Hancock - Thrust [320k LAME]/04 Spank-A-Lee.mp3
Track gain : -5.08 dB
Peak : 0.962189
CRC32 hash (test run) : ECE2F2DD
CRC32 hash : ECE2F2DD
CRC32 hash (skip zero) : 2A9A8486
AccurateRip v1 signature : 57ED16C1
AccurateRip v2 signature : A0AB4791
->Accurately ripped (v2, confidence 5/5)
Statistics
Read error : 0
Jitter error (maybe fixed) : 0
Retry sector count : 0
Damaged sector count : 0
No errors occurred
End of status report
––-BEGIN XLD SIGNATURE––-
yCPnXUZfrcPbzDLTk_3Lcq9ouQff1tCK4XnV._CfUxQ26aY9ej38pRS59zCTSvpM_oKzWHJxZdovTz4CVb9Lz_NbCrFlMimpYmbMD7O
––-END XLD SIGNATURE––-


CD5
X Lossless Decoder version 20131102 (145.0)
XLD extraction logfile from 2014-01-27 13:17:03 -0500
Herbie Hancock / ''Death Wish''
Used drive : HL-DT-ST DVDRW GX30N (revision RP09)
Media type : Pressed CD
Ripper mode : XLD Secure Ripper
Disable audio cache : OK for the drive with a cache less than 1375KiB
Make use of C2 pointers : NO
Read offset correction : 6
Max retry count : 20
Gap status : Analyzed, Appended (except HTOA)
TOC of the extracted CD
Track | Start | Length | Start sector | End sector
––––––––––––––––––––––––––––-
1 | 00:00:00 | 06:14:50 | 0 | 28099
2 | 06:14:50 | 04:47:00 | 28100 | 49624
3 | 11:01:50 | 02:14:00 | 49625 | 59674
4 | 13:15:50 | 02:17:40 | 59675 | 69989
5 | 15:33:15 | 03:46:59 | 69990 | 86998
6 | 19:19:74 | 09:27:48 | 86999 | 129571
7 | 28:47:47 | 02:07:35 | 129572 | 139131
8 | 30:55:07 | 03:32:59 | 139132 | 155090
9 | 34:27:66 | 06:15:30 | 155091 | 183245
AccurateRip Summary (DiscID: 000dc136-006428db-8b098b09)
Track 01 : OK (v2, confidence 4/4)
Track 02 : OK (v2, confidence 4/4)
Track 03 : OK (v2, confidence 4/4)
Track 04 : OK (v2, confidence 4/4)
Track 05 : OK (v2, confidence 4/4)
Track 06 : OK (v2, confidence 4/4)
Track 07 : OK (v2, confidence 4/4)
Track 08 : OK (v2, confidence 4/4)
Track 09 : OK (v2, confidence 4/4)
->All tracks accurately ripped.
All Tracks
Album gain : -1.80 dB
Peak : 0.955414
Statistics
Read error : 0
Jitter error (maybe fixed) : 0
Retry sector count : 0
Damaged sector count : 0
Track 01
Filename : /Users/rog/Downloads/Herbie Hancock - ''Death Wish'' [FLAC]/01 Death Wish (Main Title).flac
/Users/rog/Downloads/Herbie Hancock - ''Death Wish'' [320k LAME]/01 Death Wish (Main Title).mp3
Pre-gap length : 00:02:00
Track gain : -1.25 dB
Peak : 0.801666
CRC32 hash (test run) : 61801070
CRC32 hash : 61801070
CRC32 hash (skip zero) : 6A0116AC
AccurateRip v1 signature : D0BC030B
AccurateRip v2 signature : 63503B87
->Accurately ripped (v2, confidence 4/4)
Statistics
Read error : 0
Jitter error (maybe fixed) : 0
Retry sector count : 0
Damaged sector count : 0
Track 02
Filename : /Users/rog/Downloads/Herbie Hancock - ''Death Wish'' [FLAC]/02 Joanna's Theme.flac
/Users/rog/Downloads/Herbie Hancock - ''Death Wish'' [320k LAME]/02 Joanna's Theme.mp3
Pre-gap length : 00:02:63
Track gain : -1.92 dB
Peak : 0.757446
CRC32 hash (test run) : 816B223A
CRC32 hash : 816B223A
CRC32 hash (skip zero) : E903A332
AccurateRip v1 signature : 68AE2183
AccurateRip v2 signature : AB5668DB
->Accurately ripped (v2, confidence 4/4)
Statistics
Read error : 0
Jitter error (maybe fixed) : 0
Retry sector count : 0
Damaged sector count : 0
Track 03
Filename : /Users/rog/Downloads/Herbie Hancock - ''Death Wish'' [FLAC]/03 Do a Thing.flac
/Users/rog/Downloads/Herbie Hancock - ''Death Wish'' [320k LAME]/03 Do a Thing.mp3
Pre-gap length : 00:01:54
Track gain : 3.21 dB
Peak : 0.807343
CRC32 hash (test run) : 50FC2011
CRC32 hash : 50FC2011
CRC32 hash (skip zero) : 8DD41CBB
AccurateRip v1 signature : C582ABB5
AccurateRip v2 signature : E013DC0D
->Accurately ripped (v2, confidence 4/4)
Statistics
Read error : 0
Jitter error (maybe fixed) : 0
Retry sector count : 0
Damaged sector count : 0
Track 04
Filename : /Users/rog/Downloads/Herbie Hancock - ''Death Wish'' [FLAC]/04 Paint Her Mouth.flac
/Users/rog/Downloads/Herbie Hancock - ''Death Wish'' [320k LAME]/04 Paint Her Mouth.mp3
Pre-gap length : 00:00:34
Track gain : 1.93 dB
Peak : 0.800323
CRC32 hash (test run) : E86448C4
CRC32 hash : E86448C4
CRC32 hash (skip zero) : BC32AB01
AccurateRip v1 signature : 3BEE587B
AccurateRip v2 signature : F0DBC949
->Accurately ripped (v2, confidence 4/4)
Statistics
Read error : 0
Jitter error (maybe fixed) : 0
Retry sector count : 0
Damaged sector count : 0
Track 05
Filename : /Users/rog/Downloads/Herbie Hancock - ''Death Wish'' [FLAC]/05 Rich Country.flac
/Users/rog/Downloads/Herbie Hancock - ''Death Wish'' [320k LAME]/05 Rich Country.mp3
Pre-gap length : 00:00:21
Track gain : -2.06 dB
Peak : 0.840820
CRC32 hash (test run) : 851F0B02
CRC32 hash : 851F0B02
CRC32 hash (skip zero) : 2C8070BB
AccurateRip v1 signature : C88030AC
AccurateRip v2 signature : 239566DC
->Accurately ripped (v2, confidence 4/4)
Statistics
Read error : 0
Jitter error (maybe fixed) : 0
Retry sector count : 0
Damaged sector count : 0
Track 06
Filename : /Users/rog/Downloads/Herbie Hancock - ''Death Wish'' [FLAC]/06 Suite Revengeпјљ A. Striking Back, B. Riverside Park, C. The Alley, D. Last Stop, E. 8th Avenue Station.flac
/Users/rog/Downloads/Herbie Hancock - ''Death Wish'' [320k LAME]/06 Suite Revengeпјљ A. Striking Back, B. Riverside Park, C. The Alley, D. Last Stop, E. 8th Avenue Station.mp3
Pre-gap length : 00:01:49
Track gain : -1.93 dB
Peak : 0.864716
CRC32 hash (test run) : 5720C1CE
CRC32 hash : 5720C1CE
CRC32 hash (skip zero) : 3F52EEA6
AccurateRip v1 signature : 046485C2
AccurateRip v2 signature : 30B786B1
->Accurately ripped (v2, confidence 4/4)
Statistics
Read error : 0
Jitter error (maybe fixed) : 0
Retry sector count : 0
Damaged sector count : 0
Track 07
Filename : /Users/rog/Downloads/Herbie Hancock - ''Death Wish'' [FLAC]/07 Ochoa Knose.flac
/Users/rog/Downloads/Herbie Hancock - ''Death Wish'' [320k LAME]/07 Ochoa Knose.mp3
Pre-gap length : 00:03:09
Track gain : 3.37 dB
Peak : 0.534546
CRC32 hash (test run) : 2DEFE4B7
CRC32 hash : 2DEFE4B7
CRC32 hash (skip zero) : 11DD251E
AccurateRip v1 signature : C539E477
AccurateRip v2 signature : 3A634647
->Accurately ripped (v2, confidence 4/4)
Statistics
Read error : 0
Jitter error (maybe fixed) : 0
Retry sector count : 0
Damaged sector count : 0
Track 08
Filename : /Users/rog/Downloads/Herbie Hancock - ''Death Wish'' [FLAC]/08 Party People.flac
/Users/rog/Downloads/Herbie Hancock - ''Death Wish'' [320k LAME]/08 Party People.mp3
Pre-gap length : 00:00:15
Track gain : 3.98 dB
Peak : 0.896362
CRC32 hash (test run) : 70C76C93
CRC32 hash : 70C76C93
CRC32 hash (skip zero) : 1267D478
AccurateRip v1 signature : CDA0EA06
AccurateRip v2 signature : 54F9A1A0
->Accurately ripped (v2, confidence 4/4)
Statistics
Read error : 0
Jitter error (maybe fixed) : 0
Retry sector count : 0
Damaged sector count : 0
Track 09
Filename : /Users/rog/Downloads/Herbie Hancock - ''Death Wish'' [FLAC]/09 Filll Your Hand.flac
/Users/rog/Downloads/Herbie Hancock - ''Death Wish'' [320k LAME]/09 Filll Your Hand.mp3
Pre-gap length : 00:00:22
Track gain : -2.86 dB
Peak : 0.955414
CRC32 hash (test run) : 17C4F149
CRC32 hash : 17C4F149
CRC32 hash (skip zero) : D1DF1A6F
AccurateRip v1 signature : 04C232B3
AccurateRip v2 signature : 48EB56E4
->Accurately ripped (v2, confidence 4/4)
Statistics
Read error : 0
Jitter error (maybe fixed) : 0
Retry sector count : 0
Damaged sector count : 0
No errors occurred
End of status report
––-BEGIN XLD SIGNATURE––-
wpk_4A4HPShjOgoG7PHca96B8sJYNgZD5MPiHjuZmM8seC8uLFCxAsndXyjwuYrWnS6LFX41FCm59PIOJLIXuZckkE8fUNm_AK0zPfa
––-END XLD SIGNATURE––-


CD6
X Lossless Decoder version 20131102 (145.0)
XLD extraction logfile from 2014-01-27 13:53:05 -0500
Herbie Hancock / Flood
Used drive : HL-DT-ST DVDRW GX30N (revision RP09)
Media type : Pressed CD
Ripper mode : XLD Secure Ripper
Disable audio cache : OK for the drive with a cache less than 1375KiB
Make use of C2 pointers : NO
Read offset correction : 6
Max retry count : 20
Gap status : Analyzed, Appended (except HTOA)
TOC of the extracted CD
Track | Start | Length | Start sector | End sector
––––––––––––––––––––––––––––-
1 | 00:00:00 | 07:59:31 | 0 | 35955
2 | 07:59:31 | 08:29:25 | 35956 | 74155
3 | 16:28:56 | 08:48:31 | 74156 | 113786
4 | 25:17:12 | 05:49:25 | 113787 | 139986
5 | 31:06:37 | 12:45:44 | 139987 | 197405
6 | 43:52:06 | 10:22:52 | 197406 | 244107
7 | 54:14:58 | 19:55:40 | 244108 | 333772
AccurateRip Summary (DiscID: 001161e5-006b01e8-67116207)
Track 01 : OK (v2, confidence 4/4)
Track 02 : OK (v2, confidence 4/4)
Track 03 : OK (v2, confidence 4/4)
Track 04 : OK (v2, confidence 4/4)
Track 05 : OK (v2, confidence 4/4)
Track 06 : OK (v2, confidence 4/4)
Track 07 : OK (v2, confidence 4/4)
->All tracks accurately ripped.
All Tracks
Album gain : -2.43 dB
Peak : 0.998871
Statistics
Read error : 0
Jitter error (maybe fixed) : 0
Retry sector count : 0
Damaged sector count : 0
Track 01
Filename : /Users/rog/Downloads/Herbie Hancock - Flood [FLAC]/01 Introduction & Maiden Voyage.flac
/Users/rog/Downloads/Herbie Hancock - Flood [320k LAME]/01 Introduction & Maiden Voyage.mp3
Pre-gap length : 00:02:00
Track gain : 2.29 dB
Peak : 0.679230
CRC32 hash (test run) : F8069110
CRC32 hash : F8069110
CRC32 hash (skip zero) : C06ADB64
AccurateRip v1 signature : 341EACA8
AccurateRip v2 signature : 84B1F38C
->Accurately ripped (v2, confidence 4/4)
Statistics
Read error : 0
Jitter error (maybe fixed) : 0
Retry sector count : 0
Damaged sector count : 0
Track 02
Filename : /Users/rog/Downloads/Herbie Hancock - Flood [FLAC]/02 Actual Proof.flac
/Users/rog/Downloads/Herbie Hancock - Flood [320k LAME]/02 Actual Proof.mp3
Track gain : -0.63 dB
Peak : 0.946472
CRC32 hash (test run) : B832CDF5
CRC32 hash : B832CDF5
CRC32 hash (skip zero) : C0B02ED9
AccurateRip v1 signature : 4EDC6294
AccurateRip v2 signature : BBCCEEED
->Accurately ripped (v2, confidence 4/4)
Statistics
Read error : 0
Jitter error (maybe fixed) : 0
Retry sector count : 0
Damaged sector count : 0
Track 03
Filename : /Users/rog/Downloads/Herbie Hancock - Flood [FLAC]/03 Spank-A-Lee.flac
/Users/rog/Downloads/Herbie Hancock - Flood [320k LAME]/03 Spank-A-Lee.mp3
Pre-gap length : 00:03:35
Track gain : -1.87 dB
Peak : 0.970215
CRC32 hash (test run) : 4F7B9AB5
CRC32 hash : 4F7B9AB5
CRC32 hash (skip zero) : 5EBF781F
AccurateRip v1 signature : F191BB73
AccurateRip v2 signature : 0B50FC03
->Accurately ripped (v2, confidence 4/4)
Statistics
Read error : 0
Jitter error (maybe fixed) : 0
Retry sector count : 0
Damaged sector count : 0
Track 04
Filename : /Users/rog/Downloads/Herbie Hancock - Flood [FLAC]/04 Watermelon Man.flac
/Users/rog/Downloads/Herbie Hancock - Flood [320k LAME]/04 Watermelon Man.mp3
Track gain : -3.51 dB
Peak : 0.998871
CRC32 hash (test run) : A5E2E6B3
CRC32 hash : A5E2E6B3
CRC32 hash (skip zero) : F622440F
AccurateRip v1 signature : 9A9E2F04
AccurateRip v2 signature : 803E299C
->Accurately ripped (v2, confidence 4/4)
Statistics
Read error : 0
Jitter error (maybe fixed) : 0
Retry sector count : 0
Damaged sector count : 0
Track 05
Filename : /Users/rog/Downloads/Herbie Hancock - Flood [FLAC]/05 Butterfly.flac
/Users/rog/Downloads/Herbie Hancock - Flood [320k LAME]/05 Butterfly.mp3
Pre-gap length : 00:00:07
Track gain : 0.25 dB
Peak : 0.995667
CRC32 hash (test run) : 56640D46
CRC32 hash : 56640D46
CRC32 hash (skip zero) : 852DE186
AccurateRip v1 signature : 75043A1F
AccurateRip v2 signature : 252768C3
->Accurately ripped (v2, confidence 4/4)
Statistics
Read error : 0
Jitter error (maybe fixed) : 0
Retry sector count : 0
Damaged sector count : 0
Track 06
Filename : /Users/rog/Downloads/Herbie Hancock - Flood [FLAC]/06 Chameleon.flac
/Users/rog/Downloads/Herbie Hancock - Flood [320k LAME]/06 Chameleon.mp3
Track gain : -4.37 dB
Peak : 0.998871
CRC32 hash (test run) : E2D59038
CRC32 hash : E2D59038
CRC32 hash (skip zero) : DA55889E
AccurateRip v1 signature : BB22A6BA
AccurateRip v2 signature : 88BB21D8
->Accurately ripped (v2, confidence 4/4)
Statistics
Read error : 0
Jitter error (maybe fixed) : 0
Retry sector count : 0
Damaged sector count : 0
Track 07
Filename : /Users/rog/Downloads/Herbie Hancock - Flood [FLAC]/07 Hang Up Your Hang Ups.flac
/Users/rog/Downloads/Herbie Hancock - Flood [320k LAME]/07 Hang Up Your Hang Ups.mp3
Track gain : -2.54 dB
Peak : 0.998322
CRC32 hash (test run) : 68727B3F
CRC32 hash : 68727B3F
CRC32 hash (skip zero) : 40A4E1C4
AccurateRip v1 signature : CF541CF8
AccurateRip v2 signature : 27045BD6
->Accurately ripped (v2, confidence 4/4)
Statistics
Read error : 0
Jitter error (maybe fixed) : 0
Retry sector count : 0
Damaged sector count : 0
No errors occurred
End of status report
––-BEGIN XLD SIGNATURE––-
tYCrRuskorsoGgtEZsh4dVpocFzApX8t2ug0d6yB6yQAYWyKuyflEYpo4LcaItVnn5v11JkWamA25AXbkhFQVwQ6iwavJW4heqBMZXC
––-END XLD SIGNATURE––-


CD7
X Lossless Decoder version 20131102 (145.0)
XLD extraction logfile from 2014-01-27 14:36:22 -0500
Herbie Hancock / Man-Child
Used drive : HL-DT-ST DVDRW GX30N (revision RP09)
Media type : Pressed CD
Ripper mode : XLD Secure Ripper
Disable audio cache : OK for the drive with a cache less than 1375KiB
Make use of C2 pointers : NO
Read offset correction : 6
Max retry count : 20
Gap status : Analyzed, Appended (except HTOA)
TOC of the extracted CD
Track | Start | Length | Start sector | End sector
––––––––––––––––––––––––––––-
1 | 00:00:00 | 07:29:40 | 0 | 33714
2 | 07:29:40 | 05:12:00 | 33715 | 57114
3 | 12:41:40 | 09:38:20 | 57115 | 100484
4 | 22:19:60 | 09:02:36 | 100485 | 141170
5 | 31:22:21 | 08:42:06 | 141171 | 180326
6 | 40:04:27 | 05:16:59 | 180327 | 204085
AccurateRip Summary (DiscID: 000af063-003adaef-460aa106)
Track 01 : OK (v2, confidence 4/4)
Track 02 : OK (v2, confidence 4/4)
Track 03 : OK (v2, confidence 4/4)
Track 04 : OK (v2, confidence 4/4)
Track 05 : OK (v2, confidence 4/4)
Track 06 : OK (v2, confidence 4/4)
->All tracks accurately ripped.
All Tracks
Album gain : -4.00 dB
Peak : 0.998901
Statistics
Read error : 0
Jitter error (maybe fixed) : 0
Retry sector count : 0
Damaged sector count : 0
Track 01
Filename : /Users/rog/Downloads/Herbie Hancock - Man-Child [FLAC]/01 Hang Up Your Hang Ups.flac
/Users/rog/Downloads/Herbie Hancock - Man-Child [320k LAME]/01 Hang Up Your Hang Ups.mp3
Pre-gap length : 00:02:00
Track gain : -5.00 dB
Peak : 0.998871
CRC32 hash (test run) : 669A5391
CRC32 hash : 669A5391
CRC32 hash (skip zero) : 1E34F923
AccurateRip v1 signature : 84D7208D
AccurateRip v2 signature : E66BC52D
->Accurately ripped (v2, confidence 4/4)
Statistics
Read error : 0
Jitter error (maybe fixed) : 0
Retry sector count : 0
Damaged sector count : 0
Track 02
Filename : /Users/rog/Downloads/Herbie Hancock - Man-Child [FLAC]/02 Sun Touch.flac
/Users/rog/Downloads/Herbie Hancock - Man-Child [320k LAME]/02 Sun Touch.mp3
Pre-gap length : 00:01:71
Track gain : -0.64 dB
Peak : 0.998901
CRC32 hash (test run) : 986A0948
CRC32 hash : 986A0948
CRC32 hash (skip zero) : 9F6F4F50
AccurateRip v1 signature : 2FD5387F
AccurateRip v2 signature : 05D5D78A
->Accurately ripped (v2, confidence 4/4)
Statistics
Read error : 0
Jitter error (maybe fixed) : 0
Retry sector count : 0
Damaged sector count : 0
Track 03
Filename : /Users/rog/Downloads/Herbie Hancock - Man-Child [FLAC]/03 The Trailor.flac
/Users/rog/Downloads/Herbie Hancock - Man-Child [320k LAME]/03 The Trailor.mp3
Pre-gap length : 00:01:60
Track gain : -4.03 dB
Peak : 0.998871
CRC32 hash (test run) : 311B5886
CRC32 hash : 311B5886
CRC32 hash (skip zero) : A239C504
AccurateRip v1 signature : BDE21827
AccurateRip v2 signature : 913EAF25
->Accurately ripped (v2, confidence 4/4)
Statistics
Read error : 0
Jitter error (maybe fixed) : 0
Retry sector count : 0
Damaged sector count : 0
Track 04
Filename : /Users/rog/Downloads/Herbie Hancock - Man-Child [FLAC]/04 Bubbles.flac
/Users/rog/Downloads/Herbie Hancock - Man-Child [320k LAME]/04 Bubbles.mp3
Pre-gap length : 00:01:46
Track gain : -1.88 dB
Peak : 0.964905
CRC32 hash (test run) : 9204B48B
CRC32 hash : 9204B48B
CRC32 hash (skip zero) : 605E0F49
AccurateRip v1 signature : 6C2C5CBA
AccurateRip v2 signature : 4BEE67C8
->Accurately ripped (v2, confidence 4/4)
Statistics
Read error : 0
Jitter error (maybe fixed) : 0
Retry sector count : 0
Damaged sector count : 0
Track 05
Filename : /Users/rog/Downloads/Herbie Hancock - Man-Child [FLAC]/05 Steppin' In It.flac
/Users/rog/Downloads/Herbie Hancock - Man-Child [320k LAME]/05 Steppin' In It.mp3
Pre-gap length : 00:02:04
Track gain : -4.75 dB
Peak : 0.998901
CRC32 hash (test run) : B3028C89
CRC32 hash : B3028C89
CRC32 hash (skip zero) : 8BCACA05
AccurateRip v1 signature : 38AA7999
AccurateRip v2 signature : 8BBBE746
->Accurately ripped (v2, confidence 4/4)
Statistics
Read error : 0
Jitter error (maybe fixed) : 0
Retry sector count : 0
Damaged sector count : 0
Track 06
Filename : /Users/rog/Downloads/Herbie Hancock - Man-Child [FLAC]/06 Heartbeat.flac
/Users/rog/Downloads/Herbie Hancock - Man-Child [320k LAME]/06 Heartbeat.mp3
Pre-gap length : 00:01:65
Track gain : -3.82 dB
Peak : 0.962402
CRC32 hash (test run) : 494DE006
CRC32 hash : 494DE006
CRC32 hash (skip zero) : B73E4E57
AccurateRip v1 signature : 355BA926
AccurateRip v2 signature : 81D7088D
->Accurately ripped (v2, confidence 4/4)
Statistics
Read error : 0
Jitter error (maybe fixed) : 0
Retry sector count : 0
Damaged sector count : 0
No errors occurred
End of status report
––-BEGIN XLD SIGNATURE––-
9GKVRykgKPhCdrpYbKzukyPSx5Imsk8uo3crBo..dKfl8TXcuyN6uivuDyHUmszpsT4E.GFL6iywShLDIryonIaz6aigylqBSfnIfdu
––-END XLD SIGNATURE––-


CD8
X Lossless Decoder version 20131102 (145.0)
XLD extraction logfile from 2014-01-27 16:13:11 -0500
Herbie Hancock / Secrets
Used drive : HL-DT-ST DVDRW GX30N (revision RP09)
Media type : Pressed CD
Ripper mode : XLD Secure Ripper
Disable audio cache : OK for the drive with a cache less than 1375KiB
Make use of C2 pointers : NO
Read offset correction : 6
Max retry count : 20
Gap status : Analyzed, Appended (except HTOA)
TOC of the extracted CD
Track | Start | Length | Start sector | End sector
––––––––––––––––––––––––––––-
1 | 00:00:00 | 08:03:43 | 0 | 36267
2 | 08:03:43 | 07:09:32 | 36268 | 68474
3 | 15:13:00 | 07:06:67 | 68475 | 100491
4 | 22:19:67 | 07:20:73 | 100492 | 133564
5 | 29:40:65 | 07:02:34 | 133565 | 165248
6 | 36:43:24 | 06:24:00 | 165249 | 194048
7 | 43:07:24 | 04:49:68 | 194049 | 215791
AccurateRip Summary (DiscID: 000df1e2-0052c338-5e0b3d07)
Track 01 : OK (v2, confidence 5/5)
Track 02 : OK (v2, confidence 5/5)
Track 03 : OK (v2, confidence 5/5)
Track 04 : OK (v2, confidence 5/5)
Track 05 : OK (v2, confidence 5/5)
Track 06 : OK (v2, confidence 5/5)
Track 07 : OK (v2, confidence 5/5)
->All tracks accurately ripped.
All Tracks
Album gain : -3.47 dB
Peak : 0.979797
Statistics
Read error : 0
Jitter error (maybe fixed) : 0
Retry sector count : 0
Damaged sector count : 0
Track 01
Filename : /Users/rog/Downloads/Herbie Hancock - Secrets [FLAC]/01 Doin' It.flac
/Users/rog/Downloads/Herbie Hancock - Secrets [320k LAME]/01 Doin' It.mp3
Pre-gap length : 00:02:00
Track gain : -3.28 dB
Peak : 0.976776
CRC32 hash (test run) : BBCDA81A
CRC32 hash : BBCDA81A
CRC32 hash (skip zero) : 82DAE6CD
AccurateRip v1 signature : C78C1B11
AccurateRip v2 signature : 0F6D1625
->Accurately ripped (v2, confidence 5/5)
Statistics
Read error : 0
Jitter error (maybe fixed) : 0
Retry sector count : 0
Damaged sector count : 0
Track 02
Filename : /Users/rog/Downloads/Herbie Hancock - Secrets [FLAC]/02 People Music.flac
/Users/rog/Downloads/Herbie Hancock - Secrets [320k LAME]/02 People Music.mp3
Pre-gap length : 00:00:64
Track gain : -2.13 dB
Peak : 0.976776
CRC32 hash (test run) : 93905E0A
CRC32 hash : 93905E0A
CRC32 hash (skip zero) : 94B2467B
AccurateRip v1 signature : 6C379804
AccurateRip v2 signature : F2825DB2
->Accurately ripped (v2, confidence 5/5)
Statistics
Read error : 0
Jitter error (maybe fixed) : 0
Retry sector count : 0
Damaged sector count : 0
Track 03
Filename : /Users/rog/Downloads/Herbie Hancock - Secrets [FLAC]/03 Cantelope Island.flac
/Users/rog/Downloads/Herbie Hancock - Secrets [320k LAME]/03 Cantelope Island.mp3
Pre-gap length : 00:01:04
Track gain : -4.71 dB
Peak : 0.979797
CRC32 hash (test run) : BAB7137A
CRC32 hash : BAB7137A
CRC32 hash (skip zero) : 0C263689
AccurateRip v1 signature : EDE17EDC
AccurateRip v2 signature : FABAA487
->Accurately ripped (v2, confidence 5/5)
Statistics
Read error : 0
Jitter error (maybe fixed) : 0
Retry sector count : 0
Damaged sector count : 0
Track 04
Filename : /Users/rog/Downloads/Herbie Hancock - Secrets [FLAC]/04 Spider.flac
/Users/rog/Downloads/Herbie Hancock - Secrets [320k LAME]/04 Spider.mp3
Pre-gap length : 00:01:24
Track gain : -2.56 dB
Peak : 0.977295
CRC32 hash (test run) : E2FC2F9C
CRC32 hash : E2FC2F9C
CRC32 hash (skip zero) : EF55310C
AccurateRip v1 signature : 6F0DD735
AccurateRip v2 signature : AB47C3B6
->Accurately ripped (v2, confidence 5/5)
Statistics
Read error : 0
Jitter error (maybe fixed) : 0
Retry sector count : 0
Damaged sector count : 0
Track 05
Filename : /Users/rog/Downloads/Herbie Hancock - Secrets [FLAC]/05 Gentle Thoughts.flac
/Users/rog/Downloads/Herbie Hancock - Secrets [320k LAME]/05 Gentle Thoughts.mp3
Track gain : -3.98 dB
Peak : 0.978577
CRC32 hash (test run) : A33DE8E1
CRC32 hash : A33DE8E1
CRC32 hash (skip zero) : 01B17AF4
AccurateRip v1 signature : E0882CF1
AccurateRip v2 signature : 2F4FF947
->Accurately ripped (v2, confidence 5/5)
Statistics
Read error : 0
Jitter error (maybe fixed) : 0
Retry sector count : 0
Damaged sector count : 0
Track 06
Filename : /Users/rog/Downloads/Herbie Hancock - Secrets [FLAC]/06 Swamp Rat.flac
/Users/rog/Downloads/Herbie Hancock - Secrets [320k LAME]/06 Swamp Rat.mp3
Track gain : -3.29 dB
Peak : 0.978729
CRC32 hash (test run) : 7AFCC6D6
CRC32 hash : 7AFCC6D6
CRC32 hash (skip zero) : 7611AFDC
AccurateRip v1 signature : 0D1DEED8
AccurateRip v2 signature : 6603EDBF
->Accurately ripped (v2, confidence 5/5)
Statistics
Read error : 0
Jitter error (maybe fixed) : 0
Retry sector count : 0
Damaged sector count : 0
Track 07
Filename : /Users/rog/Downloads/Herbie Hancock - Secrets [FLAC]/07 Sonsho Shima.flac
/Users/rog/Downloads/Herbie Hancock - Secrets [320k LAME]/07 Sonsho Shima.mp3
Track gain : -3.25 dB
Peak : 0.884277
CRC32 hash (test run) : 3FE38896
CRC32 hash : 3FE38896
CRC32 hash (skip zero) : 8FAF08E8
AccurateRip v1 signature : 45C31951
AccurateRip v2 signature : D3F0BD81
->Accurately ripped (v2, confidence 5/5)
Statistics
Read error : 0
Jitter error (maybe fixed) : 0
Retry sector count : 0
Damaged sector count : 0
No errors occurred
End of status report
––-BEGIN XLD SIGNATURE––-
KPpWQM36vsKWvFpc.GctqWEu0jBA81iSYQgeWmckkIw9gUOY5PYW0_NocW31hh4B1QXKWXS9.nLpDCgpRmpgklizoa98cHEcemr0KpG
––-END XLD SIGNATURE––-


CD9
X Lossless Decoder version 20131102 (145.0)
XLD extraction logfile from 2014-01-27 16:42:58 -0500
Herbie Hancock / V.S.O.P. (Disc 1)
Used drive : HL-DT-ST DVDRW GX30N (revision RP09)
Media type : Pressed CD
Ripper mode : XLD Secure Ripper
Disable audio cache : OK for the drive with a cache less than 1375KiB
Make use of C2 pointers : NO
Read offset correction : 6
Max retry count : 20
Gap status : Analyzed, Appended (except HTOA)
TOC of the extracted CD
Track | Start | Length | Start sector | End sector
––––––––––––––––––––––––––––-
1 | 00:00:00 | 04:33:29 | 0 | 20503
2 | 04:33:29 | 13:26:30 | 20504 | 80983
3 | 17:59:59 | 05:19:01 | 80984 | 104909
4 | 23:18:60 | 18:32:59 | 104910 | 188368
AccurateRip Summary (DiscID: 0006060f-00191b86-1f09cf04)
Track 01 : OK (v2, confidence 4/4)
Track 02 : OK (v2, confidence 4/4)
Track 03 : OK (v2, confidence 4/4)
Track 04 : OK (v2, confidence 4/4)
->All tracks accurately ripped.
All Tracks
Album gain : -2.80 dB
Peak : 0.998871
Statistics
Read error : 0
Jitter error (maybe fixed) : 0
Retry sector count : 0
Damaged sector count : 0
Track 01
Filename : /Users/rog/Downloads/Herbie Hancock - V.S.O.P. (Disc 1) [FLAC]/01 Piano Introduction.flac
/Users/rog/Downloads/Herbie Hancock - V.S.O.P. (Disc 1) [320k LAME]/01 Piano Introduction.mp3
Pre-gap length : 00:02:00
Track gain : 1.33 dB
Peak : 0.598450
CRC32 hash (test run) : 86D33D5E
CRC32 hash : 86D33D5E
CRC32 hash (skip zero) : F77133C6
AccurateRip v1 signature : BE31B9A4
AccurateRip v2 signature : D3EBAA8F
->Accurately ripped (v2, confidence 4/4)
Statistics
Read error : 0
Jitter error (maybe fixed) : 0
Retry sector count : 0
Damaged sector count : 0
Track 02
Filename : /Users/rog/Downloads/Herbie Hancock - V.S.O.P. (Disc 1) [FLAC]/02 Maiden Voyage.flac
/Users/rog/Downloads/Herbie Hancock - V.S.O.P. (Disc 1) [320k LAME]/02 Maiden Voyage.mp3
Track gain : -3.06 dB
Peak : 0.998871
CRC32 hash (test run) : 900FC233
CRC32 hash : 900FC233
CRC32 hash (skip zero) : 0191202B
AccurateRip v1 signature : 53FE1B6D
AccurateRip v2 signature : 940F0DF3
->Accurately ripped (v2, confidence 4/4)
Statistics
Read error : 0
Jitter error (maybe fixed) : 0
Retry sector count : 0
Damaged sector count : 0
Track 03
Filename : /Users/rog/Downloads/Herbie Hancock - V.S.O.P. (Disc 1) [FLAC]/03 Nefertiti.flac
/Users/rog/Downloads/Herbie Hancock - V.S.O.P. (Disc 1) [320k LAME]/03 Nefertiti.mp3
Track gain : -3.88 dB
Peak : 0.871521
CRC32 hash (test run) : 80D737B6
CRC32 hash : 80D737B6
CRC32 hash (skip zero) : 8EEACC36
AccurateRip v1 signature : 1B77A7BA
AccurateRip v2 signature : 901043F3
->Accurately ripped (v2, confidence 4/4)
Statistics
Read error : 0
Jitter error (maybe fixed) : 0
Retry sector count : 0
Damaged sector count : 0
Track 04
Filename : /Users/rog/Downloads/Herbie Hancock - V.S.O.P. (Disc 1) [FLAC]/04 Eye Of The Hurricane.flac
/Users/rog/Downloads/Herbie Hancock - V.S.O.P. (Disc 1) [320k LAME]/04 Eye Of The Hurricane.mp3
Pre-gap length : 00:02:09
Track gain : -2.49 dB
Peak : 0.937256
CRC32 hash (test run) : 51AF21FC
CRC32 hash : 51AF21FC
CRC32 hash (skip zero) : AD2A8E3E
AccurateRip v1 signature : 795D6FEA
AccurateRip v2 signature : B6305118
->Accurately ripped (v2, confidence 4/4)
Statistics
Read error : 0
Jitter error (maybe fixed) : 0
Retry sector count : 0
Damaged sector count : 0
No errors occurred
End of status report
––-BEGIN XLD SIGNATURE––-
vHsWqgnGRsLi.gPgi553rDTeIQpvzwbNKwOERDZyzO4n6Ig_60JJ2rn8jsL5rextcvJ_0l0iJ.Xf4UQK0f_7hdK.p2sW26sVRvbj.Xi
––-END XLD SIGNATURE––-


CD10
X Lossless Decoder version 20131102 (145.0)
XLD extraction logfile from 2014-01-27 17:48:54 -0500
Herbie Hancock / V.S.O.P. (Disc 2)
Used drive : HL-DT-ST DVDRW GX30N (revision RP09)
Media type : Pressed CD
Ripper mode : XLD Secure Ripper
Disable audio cache : OK for the drive with a cache less than 1375KiB
Make use of C2 pointers : NO
Read offset correction : 6
Max retry count : 20
Gap status : Analyzed, Appended (except HTOA)
TOC of the extracted CD
Track | Start | Length | Start sector | End sector
––––––––––––––––––––––––––––-
1 | 00:00:00 | 13:58:55 | 0 | 62904
2 | 13:58:55 | 01:47:39 | 62905 | 70968
3 | 15:46:19 | 08:02:25 | 70969 | 107143
4 | 23:48:44 | 11:51:73 | 107144 | 160541
5 | 35:40:42 | 10:10:25 | 160542 | 206316
AccurateRip Summary (DiscID: 00094685-002ad862-340abe05)
Track 01 : OK (v2, confidence 4/4)
Track 02 : OK (v2, confidence 4/4)
Track 03 : OK (v2, confidence 4/4)
Track 04 : OK (v2, confidence 4/4)
Track 05 : OK (v2, confidence 4/4)
->All tracks accurately ripped.
All Tracks
Album gain : -2.42 dB
Peak : 0.998871
Statistics
Read error : 0
Jitter error (maybe fixed) : 0
Retry sector count : 0
Damaged sector count : 0
Track 01
Filename : /Users/rog/Downloads/Herbie Hancock - V.S.O.P. (Disc 2) [FLAC]/01 Toys.flac
/Users/rog/Downloads/Herbie Hancock - V.S.O.P. (Disc 2) [320k LAME]/01 Toys.mp3
Pre-gap length : 00:02:00
Track gain : -1.41 dB
Peak : 0.867859
CRC32 hash (test run) : 87868599
CRC32 hash : 87868599
CRC32 hash (skip zero) : E05A670A
AccurateRip v1 signature : 5F4273AB
AccurateRip v2 signature : 9E11C7EE
->Accurately ripped (v2, confidence 4/4)
Statistics
Read error : 0
Jitter error (maybe fixed) : 0
Retry sector count : 0
Damaged sector count : 0
Track 02
Filename : /Users/rog/Downloads/Herbie Hancock - V.S.O.P. (Disc 2) [FLAC]/02 Introductions.flac
/Users/rog/Downloads/Herbie Hancock - V.S.O.P. (Disc 2) [320k LAME]/02 Introductions.mp3
Track gain : 5.10 dB
Peak : 0.523987
CRC32 hash (test run) : D9A2B3F5
CRC32 hash : D9A2B3F5
CRC32 hash (skip zero) : C988B390
AccurateRip v1 signature : 4254D5B6
AccurateRip v2 signature : 0B84F6EF
->Accurately ripped (v2, confidence 4/4)
Statistics
Read error : 0
Jitter error (maybe fixed) : 0
Retry sector count : 0
Damaged sector count : 0
Track 03
Filename : /Users/rog/Downloads/Herbie Hancock - V.S.O.P. (Disc 2) [FLAC]/03 You'll Know When You Get There.flac
/Users/rog/Downloads/Herbie Hancock - V.S.O.P. (Disc 2) [320k LAME]/03 You'll Know When You Get There.mp3
Track gain : -0.95 dB
Peak : 0.851349
CRC32 hash (test run) : C02AC835
CRC32 hash : C02AC835
CRC32 hash (skip zero) : 874E10E5
AccurateRip v1 signature : CF8209A9
AccurateRip v2 signature : 09306E90
->Accurately ripped (v2, confidence 4/4)
Statistics
Read error : 0
Jitter error (maybe fixed) : 0
Retry sector count : 0
Damaged sector count : 0
Track 04
Filename : /Users/rog/Downloads/Herbie Hancock - V.S.O.P. (Disc 2) [FLAC]/04 Hang Up Your Hang Ups.flac
/Users/rog/Downloads/Herbie Hancock - V.S.O.P. (Disc 2) [320k LAME]/04 Hang Up Your Hang Ups.mp3
Pre-gap length : 00:01:11
Track gain : -2.99 dB
Peak : 0.994263
CRC32 hash (test run) : 05C55B69
CRC32 hash : 05C55B69
CRC32 hash (skip zero) : 96922923
AccurateRip v1 signature : 40535E13
AccurateRip v2 signature : 25CC91BC
->Accurately ripped (v2, confidence 4/4)
Statistics
Read error : 0
Jitter error (maybe fixed) : 0
Retry sector count : 0
Damaged sector count : 0
Track 05
Filename : /Users/rog/Downloads/Herbie Hancock - V.S.O.P. (Disc 2) [FLAC]/05 Spider.flac
/Users/rog/Downloads/Herbie Hancock - V.S.O.P. (Disc 2) [320k LAME]/05 Spider.mp3
Track gain : -3.36 dB
Peak : 0.998871
CRC32 hash (test run) : 3CA79283
CRC32 hash : 3CA79283
CRC32 hash (skip zero) : 4C68B2E8
AccurateRip v1 signature : 39C259B6
AccurateRip v2 signature : FEB34AE0
->Accurately ripped (v2, confidence 4/4)
Statistics
Read error : 0
Jitter error (maybe fixed) : 0
Retry sector count : 0
Damaged sector count : 0
No errors occurred
End of status report
––-BEGIN XLD SIGNATURE––-
Ld3skrETtUPdEYHVNnatg_uGEpR43GLDOI4.kXYamElTPtJo0cAH_vDtM.FUGjV6ve87Yfl7VRpns8NGZPJkiWEiWK2.A6LAEYgwir0
––-END XLD SIGNATURE––-


all 34 log files included…

Herbie Hancock - The Complete Columbia Album Collection 1972-1988 (2013) (34 CD Box Set)


Thanks to original ripper.