Subcategories

Herbie Mann / Joao Gilberto / Antonio Carlos Jobim - Recorded In Rio De Janeiro (1965) {Atlantic}

Posted By: tiburon
Herbie Mann / Joao Gilberto / Antonio Carlos Jobim - Recorded In Rio De Janeiro (1965) {Atlantic}

Herbie Mann / Joao Gilberto / Antonio Carlos Jobim - Recorded In Rio De Janeiro (1965) {Atlantic}
EAC 1.3 | FLAC tracks level 8 | Cue+Log+M3U | Full Scans 300dpi | 182MB + 5% Recovery
MP3 CBR 320 Kbps | 87MB + 5% Recovery
Genre: Latin Jazz, Bossa Nova
Herbie Mann / Joao Gilberto / Antonio Carlos Jobim - Recorded In Rio De Janeiro (1965) {Atlantic}

Nice, more light than emphatic Afro-Latin and jazz mixture by flutist Herbie Mann and composer/vocalist Joao Gilberto from 1965. The two make an effective team, with Gilberto's sometimes sentimental, sometimes impressionistic works effectively supported by Mann's lithe flute solos.
Track List
01. Amor Em Paz 2:36
02. Desafinado 1:58
03. Bolinha De Papel 1:15
04. Insensatez 3:05
05. Maria Ninguem 2:20
06. O Barquinho 2:27
07. Samba Da Minha Terra 2:20
08. Rosa Morena 2:02
09. Consolacao (4:26
10. One Note Samba 3:20
11. Bim Bom 1:12
12. Deve Ser Amor 4:19

musicians
Herbie Mann - flute, alto flute
Joao Gilberto - guitar, vocals
Antonio Carlos Jobim - piano, vocals
Baden Powell - guitar on 12


Exact Audio Copy V1.3 from 2. September 2016

EAC extraction logfile from 4. October 2017, 18:53

Herbie Mann & Joao Gilberto / Recorded In Rio De Janeiro

Used drive : HL-DT-STDVDRAM GH20NS10 Adapter: 1 ID: 0

Read mode : Secure
Utilize accurate stream : Yes
Defeat audio cache : Yes
Make use of C2 pointers : No

Read offset correction : 667
Overread into Lead-In and Lead-Out : No
Fill up missing offset samples with silence : Yes
Delete leading and trailing silent blocks : No
Null samples used in CRC calculations : Yes
Used interface : Native Win32 interface for Win NT & 2000
Gap handling : Appended to previous track

Used output format : User Defined Encoder
Selected bitrate : 1024 kBit/s
Quality : High
Add ID3 tag : No
Command line compressor : C:\Program Files\Exact Audio Copy\Flac\flac.exe
Additional command line options : -8 -V -T "ARTIST=%artist%" -T "TITLE=%title%" -T "ALBUM=%albumtitle%" -T "DATE=%year%" -T "TRACKNUMBER=%tracknr%" -T "TOTALTRACKS=%numtracks%" -T "GENRE=%genre%" -T "ALBUMARTIST=%albumartist%" -T "ALBUM ARTIST=%albumartist%" -T "COMMENT=EAC Secure Mode, Test & Copy, AccurateRip, FLAC -8" %source%


TOC of the extracted CD

Track | Start | Length | Start sector | End sector
––––––––––––––––––––––––––––-
1 | 0:00.00 | 2:39.47 | 0 | 11971
2 | 2:39.47 | 1:59.53 | 11972 | 20949
3 | 4:39.25 | 1:25.65 | 20950 | 27389
4 | 6:05.15 | 3:06.37 | 27390 | 41376
5 | 9:11.52 | 2:22.38 | 41377 | 52064
6 | 11:34.15 | 2:31.17 | 52065 | 63406
7 | 14:05.32 | 2:22.73 | 63407 | 74129
8 | 16:28.30 | 2:05.65 | 74130 | 83569
9 | 18:34.20 | 4:27.07 | 83570 | 103601
10 | 23:01.27 | 3:22.50 | 103602 | 118801
11 | 26:24.02 | 1:14.40 | 118802 | 124391
12 | 27:38.42 | 4:17.18 | 124392 | 143684


Track 1

Filename G:\Herbie Mann & Joao Gilberto - Recorded In Rio De Janeiro (1965) [FLAC]\01 - Amor Em Paz.wav

Pre-gap length 0:00:02.00

Peak level 100.0 %
Extraction speed 4.0 X
Track quality 100.0 %
Test CRC A2C1360C
Copy CRC A2C1360C
Accurately ripped (confidence 2) [4BA448D6] (AR v2)
Copy OK

Track 2

Filename G:\Herbie Mann & Joao Gilberto - Recorded In Rio De Janeiro (1965) [FLAC]\02 - Desafinado.wav

Pre-gap length 0:00:03.12

Peak level 100.0 %
Extraction speed 4.0 X
Track quality 100.0 %
Test CRC F4A7B364
Copy CRC F4A7B364
Accurately ripped (confidence 2) [13117A9E] (AR v2)
Copy OK

Track 3

Filename G:\Herbie Mann & Joao Gilberto - Recorded In Rio De Janeiro (1965) [FLAC]\03 - Bolinha De Papel.wav

Pre-gap length 0:00:04.00

Peak level 100.0 %
Extraction speed 3.8 X
Track quality 100.0 %
Test CRC A03B69DE
Copy CRC A03B69DE
Accurately ripped (confidence 2) [F5956C23] (AR v2)
Copy OK

Track 4

Filename G:\Herbie Mann & Joao Gilberto - Recorded In Rio De Janeiro (1965) [FLAC]\04 - Insensatez.wav

Pre-gap length 0:00:08.18

Peak level 100.0 %
Extraction speed 4.8 X
Track quality 100.0 %
Test CRC DD10843C
Copy CRC DD10843C
Accurately ripped (confidence 2) [ACFF93F6] (AR v2)
Copy OK

Track 5

Filename G:\Herbie Mann & Joao Gilberto - Recorded In Rio De Janeiro (1965) [FLAC]\05 - Maria Ninguem.wav

Pre-gap length 0:00:03.47

Peak level 100.0 %
Extraction speed 4.9 X
Track quality 100.0 %
Test CRC D89DBC2C
Copy CRC D89DBC2C
Accurately ripped (confidence 2) [618B3C09] (AR v2)
Copy OK

Track 6

Filename G:\Herbie Mann & Joao Gilberto - Recorded In Rio De Janeiro (1965) [FLAC]\06 - O Barquinho.wav

Pre-gap length 0:00:03.30

Peak level 100.0 %
Extraction speed 5.2 X
Track quality 100.0 %
Test CRC 5BDE6035
Copy CRC 5BDE6035
Accurately ripped (confidence 2) [BB67E5E9] (AR v2)
Copy OK

Track 7

Filename G:\Herbie Mann & Joao Gilberto - Recorded In Rio De Janeiro (1965) [FLAC]\07 - Samba Da Minha Terra.wav

Pre-gap length 0:00:02.12

Peak level 100.0 %
Extraction speed 4.8 X
Track quality 100.0 %
Test CRC F1F9893F
Copy CRC F1F9893F
Accurately ripped (confidence 2) [19DAE77E] (AR v2)
Copy OK

Track 8

Filename G:\Herbie Mann & Joao Gilberto - Recorded In Rio De Janeiro (1965) [FLAC]\08 - Rosa Morena.wav

Pre-gap length 0:00:03.58

Peak level 100.0 %
Extraction speed 5.2 X
Track quality 100.0 %
Test CRC B4C76E0D
Copy CRC B4C76E0D
Accurately ripped (confidence 2) [C43C942A] (AR v2)
Copy OK

Track 9

Filename G:\Herbie Mann & Joao Gilberto - Recorded In Rio De Janeiro (1965) [FLAC]\09 - Consolacao.wav

Pre-gap length 0:00:03.15

Peak level 100.0 %
Extraction speed 6.0 X
Track quality 100.0 %
Test CRC B0CEFCCF
Copy CRC B0CEFCCF
Accurately ripped (confidence 2) [9CE872CA] (AR v2)
Copy OK

Track 10

Filename G:\Herbie Mann & Joao Gilberto - Recorded In Rio De Janeiro (1965) [FLAC]\10 - One Note Samba.wav

Pre-gap length 0:00:02.62

Peak level 100.0 %
Extraction speed 6.3 X
Track quality 100.0 %
Test CRC 747CA2FB
Copy CRC 747CA2FB
Accurately ripped (confidence 2) [6F24283F] (AR v2)
Copy OK

Track 11

Filename G:\Herbie Mann & Joao Gilberto - Recorded In Rio De Janeiro (1965) [FLAC]\11 - Bim Bom.wav

Pre-gap length 0:00:02.55

Peak level 100.0 %
Extraction speed 4.9 X
Track quality 100.0 %
Test CRC 8B9F74A8
Copy CRC 8B9F74A8
Accurately ripped (confidence 2) [5651B98C] (AR v2)
Copy OK

Track 12

Filename G:\Herbie Mann & Joao Gilberto - Recorded In Rio De Janeiro (1965) [FLAC]\12 - Deve Ser Amor.wav

Pre-gap length 0:00:02.15

Peak level 100.0 %
Extraction speed 6.9 X
Track quality 100.0 %
Test CRC 591066E1
Copy CRC 591066E1
Accurately ripped (confidence 2) [B6AC1E2D] (AR v2)
Copy OK


All tracks accurately ripped

No errors occurred

End of status report

–– CUETools DB Plugin V2.1.6

[CTDB TOCID: 3AyD_nNt9NO_t.fb8yj8cFxmEO0-] found
Submit result: 3AyD_nNt9NO_t.fb8yj8cFxmEO0- has been confirmed
Track | CTDB Status
1 | (1/1) Accurately ripped
2 | (1/1) Accurately ripped
3 | (1/1) Accurately ripped
4 | (1/1) Accurately ripped
5 | (1/1) Accurately ripped
6 | (1/1) Accurately ripped
7 | (1/1) Accurately ripped
8 | (1/1) Accurately ripped
9 | (1/1) Accurately ripped
10 | (1/1) Accurately ripped
11 | (1/1) Accurately ripped
12 | (1/1) Accurately ripped


==== Log checksum F346EC1040AAC70A48C5EA599C068271FD7E687A06CE7688447D66CAF5DC9083 ====

Herbie Mann / Joao Gilberto / Antonio Carlos Jobim - Recorded In Rio De Janeiro (1965) {Atlantic}
Herbie Mann / Joao Gilberto / Antonio Carlos Jobim - Recorded In Rio De Janeiro (1965) {Atlantic}