Subcategories

Heretic - A Time Of Crisis (2012)

Posted By: Andi_Deris
Heretic - A Time Of Crisis (2012)

Heretic - A Time Of Crisis (2012)
EAC Rip | FLAC: Image+Cue+Log | 361 Mb | MP3 CBR 320 kbps | 122 Mb | Scans | 46:10
Metal On Metal Records | MOMR12034
Power/Thrash Metal

"A Time Of Crisis", the comeback album of the US power/thrash metal legends HERETIC. They have stayed true to their roots and created a really solid album in the best US metal tradition: heavy, melodic and aggressive.

The band's founder, guitarist and composer Brian Korban recruited Julian Mendez who sang on their first EP, as well as prominent musicians: guitarist Glenn Rogers (ex-HIRAX, ex-DELIVERENCE and many others) and bassist Angelo Espino (BITCH, ex-REVEREND, ex-HIRAX, etc.). What the band presents here is not only top-notch musicianship, but most of all very classic and solid songwriting without any modern experiments. This perfectly balanced blend of power and thrash metal in the best US tradition should appeal to all fans of METAL CHURCH, REVEREND, WAYNE, old METALLICA, MELIAH RAGE and ARMORED SAINT, but influences from BLACK SABBATH, JUDAS PRIEST and MOTÖRHEAD are quite clear too.

Heretic - A Time Of Crisis (2012)




Heretic - A Time Of Crisis (2012)


Track Listing

01. The Divine Inquisition (01:02)
02. Tomorrow's Plague (05:18)
03. Betrayed (04:38)
04. Remains (05:21)
05. A Time Of Crisis (04:33)
06. For Your Faith (04:38)
07. Raise Your Fist (04:22)
08. Heretic (02:29)
09. Child Of War (03:23)
10. Police State (03:34)
11. The End Of The World (04:15)
12. Let Me Begin Again (02:37)

The Band

• Julian Mendez - Vocals
• Brian Korban - Guitars
• Glenn Rogers - Guitars
• Angelo Espino - Bass
• Ignazio Iggy Coppola - Drums

Heretic - A Time Of Crisis (2012)


Exact Audio Copy V0.99 prebeta 5 from 4. May 2009

EAC extraction logfile from 29. August 2012, 18:00

Heretic / A Time Of Crisis

Used drive : Optiarc DVD RW AD-7240S Adapter: 0 ID: 0

Read mode : Secure
Utilize accurate stream : Yes
Defeat audio cache : Yes
Make use of C2 pointers : No

Read offset correction : 48
Overread into Lead-In and Lead-Out : No
Fill up missing offset samples with silence : Yes
Delete leading and trailing silent blocks : No
Null samples used in CRC calculations : No
Used interface : Native Win32 interface for Win NT & 2000

Used output format : User Defined Encoder
Selected bitrate : 32 kBit/s
Quality : High
Add ID3 tag : No
Command line compressor : C:\FLAC.EXE
Additional command line options : -6 -V %s


TOC of the extracted CD

Track | Start | Length | Start sector | End sector
––––––––––––––––––––––––––––-
1 | 0:00.00 | 1:01.39 | 0 | 4613
2 | 1:01.39 | 5:18.17 | 4614 | 28480
3 | 6:19.56 | 4:37.66 | 28481 | 49321
4 | 10:57.47 | 5:21.07 | 49322 | 73403
5 | 16:18.54 | 4:32.69 | 73404 | 93872
6 | 20:51.48 | 4:38.25 | 93873 | 114747
7 | 25:29.73 | 4:21.49 | 114748 | 134371
8 | 29:51.47 | 2:29.01 | 134372 | 145547
9 | 32:20.48 | 3:23.32 | 145548 | 160804
10 | 35:44.05 | 3:33.51 | 160805 | 176830
11 | 39:17.56 | 4:14.62 | 176831 | 195942
12 | 43:32.43 | 2:36.46 | 195943 | 207688


Range status and errors

Selected range

Filename D:\Heretic - A Time Of Crisis.wav

Peak level 100.0 %
Range quality 100.0 %
Copy CRC 4B5C3AC6
Copy OK

No errors occurred


AccurateRip summary

Track 1 not present in database
Track 2 not present in database
Track 3 not present in database
Track 4 not present in database
Track 5 not present in database
Track 6 not present in database
Track 7 not present in database
Track 8 not present in database
Track 9 not present in database
Track 10 not present in database
Track 11 not present in database
Track 12 not present in database

None of the tracks are present in the AccurateRip database

End of status report


Many thanks to the original uploader: Exploded



Password: pass