Subcategories

Herve Sellin Tentet - Marciac New-York Express (2008) {Cristal}

Posted By: tiburon
Herve Sellin Tentet - Marciac New-York Express (2008) {Cristal}

Herve Sellin Tentet - Marciac New-York Express (2008) {Cristal}
EAC 0.99pb4 | FLAC tracks level 8 | Cue+Log+M3u | Full Scans 600dpi | 605MB + 5% Recovery
MP3 CBR 320 Kbps | 177MB + 5% Recovery
Genre: Jazz, Post-Bop

Today, in France, they are at least three pianists to have this talent of jazz musician and composer for great formation: Jean-Pierre Como, Antoine Herve and Herve Sellin. If you liked “L'âme soeur” of the first and “Road Movie” of the second, then, inevitably, you will like this “Marciac New York Express”. The compositions remarkable, are inspired (the four movements are connected with masterliness), and never fall into the repetition. The musicians are given some to heart joy: Stephan Guillaume with the clarinet and sax soprano, Stéphane Chausson and Sylvain Beuf with the sax tenor, Claude Egéa with the trumpet, Gueorgui Kornazov with the trombone, Michael Felberbaum with the guitar, Stéphan Caracci with the vibraphone, and the rhythmic made up one of Bruno Rousselet (double bass) and Karl Jannuska (drums) is at this remarkable point. Noticed by Wynton Marsalis in Marciac, Herve Sellin sees himself proposing by this one a continuation for tentet. And here the “result”: a disc which breathes, which swingue, and which makes hot in the heart.
Track List
01. Les Deux Clochers
02. Entre Boués, Laüs et Arros
03. It's All in Your Mind
04. The King's Lament
05. Tryptic: Hugo's Apple
06. Little Boy Plays Chess
07. Anniversary
08. Bouncing with Jim
09. Le Sorcier de La Case-Dieu
10. La Maison du Roi

musicians
Piano – Hervé Sellin
Alto Saxophone, Clarinet [Clarinettes], Flute – Stéphane Chausse
Alto Saxophone, Soprano Saxophone, Flute – Stéphane Guillaume
Contrabass – Bruno Rousselet
Drums – Karl Jannuska
Guitar – Michael Felberbaum
Tenor Saxophone, Soprano Saxophone – Sylvain Beuf
Trombone – Gueorgui Kornazov*
Trumpet – Claude Egéa
Vibraphone – Stéphan Caracci


Exact Audio Copy V0.99 prebeta 4 from 23. January 2008

EAC extraction logfile from 17. December 2008, 21:26

Herve Sellin Tentet / Marciac New-York express

Used drive : _NEC DVD_RW ND-3500AG Adapter: 0 ID: 1

Read mode : Secure
Utilize accurate stream : Yes
Defeat audio cache : Yes
Make use of C2 pointers : No

Read offset correction : 48
Overread into Lead-In and Lead-Out : No
Fill up missing offset samples with silence : Yes
Delete leading and trailing silent blocks : No
Null samples used in CRC calculations : Yes
Used interface : Native Win32 interface for Win NT & 2000
Gap handling : Appended to previous track

Used output format : User Defined Encoder
Selected bitrate : 128 kBit/s
Quality : High
Add ID3 tag : No
Command line compressor : C:\Program Files\FLAC\flac.exe
Additional command line options : -8 -V -T "ARTIST=%a" -T "TITLE=%t" -T "ALBUM=%g" -T "DATE=%y" -T "TRACKNUMBER=%n" -T "GENRE=%m" -T "COMMENT=EAC FLAC -8" %s


TOC of the extracted CD

Track | Start | Length | Start sector | End sector
––––––––––––––––––––––––––––-
1 | 0:00.00 | 7:58.49 | 0 | 35898
2 | 7:58.49 | 8:32.49 | 35899 | 74347
3 | 16:31.23 | 4:34.64 | 74348 | 94961
4 | 21:06.12 | 6:46.47 | 94962 | 125458
5 | 27:52.59 | 5:48.00 | 125459 | 151558
6 | 33:40.59 | 9:08.60 | 151559 | 192718
7 | 42:49.44 | 11:06.16 | 192719 | 242684
8 | 53:55.60 | 9:02.30 | 242685 | 283364
9 | 62:58.15 | 7:44.68 | 283365 | 318232
10 | 70:43.08 | 6:41.47 | 318233 | 348354


Track 1

Filename F:\DL\Herve Sellin Tentet - Marciac New-York express (2008) [FLAC]\01 - Les Deux Clochers.wav

Pre-gap length 0:00:02.00

Peak level 97.3 %
Track quality 99.9 %
Test CRC E19BBD22
Copy CRC E19BBD22
Track not present in AccurateRip database
Copy OK

Track 2

Filename F:\DL\Herve Sellin Tentet - Marciac New-York express (2008) [FLAC]\02 - Entre Bouees, Laus et Arros.wav

Pre-gap length 0:00:01.34

Peak level 97.1 %
Track quality 100.0 %
Test CRC 96FDDD67
Copy CRC 96FDDD67
Track not present in AccurateRip database
Copy OK

Track 3

Filename F:\DL\Herve Sellin Tentet - Marciac New-York express (2008) [FLAC]\03 - It's All In Your Mind.wav

Pre-gap length 0:00:03.94

Peak level 97.2 %
Track quality 100.0 %
Test CRC 5139D538
Copy CRC 5139D538
Track not present in AccurateRip database
Copy OK

Track 4

Filename F:\DL\Herve Sellin Tentet - Marciac New-York express (2008) [FLAC]\04 - The King's Lament.wav

Peak level 96.1 %
Track quality 100.0 %
Test CRC 3ACBF239
Copy CRC 3ACBF239
Track not present in AccurateRip database
Copy OK

Track 5

Filename F:\DL\Herve Sellin Tentet - Marciac New-York express (2008) [FLAC]\05 - Hugo's Apple.wav

Peak level 97.9 %
Track quality 99.9 %
Test CRC F4B6EB77
Copy CRC F4B6EB77
Track not present in AccurateRip database
Copy OK

Track 6

Filename F:\DL\Herve Sellin Tentet - Marciac New-York express (2008) [FLAC]\06 - Little Boy Plays Chess.wav

Pre-gap length 0:00:04.02

Peak level 96.3 %
Track quality 100.0 %
Test CRC 838A046F
Copy CRC 838A046F
Track not present in AccurateRip database
Copy OK

Track 7

Filename F:\DL\Herve Sellin Tentet - Marciac New-York express (2008) [FLAC]\07 - Anniversary.wav

Pre-gap length 0:00:03.86

Peak level 97.9 %
Track quality 99.8 %
Test CRC E5615D86
Copy CRC E5615D86
Track not present in AccurateRip database
Copy OK

Track 8

Filename F:\DL\Herve Sellin Tentet - Marciac New-York express (2008) [FLAC]\08 - Bouncing With JIM.wav

Pre-gap length 0:00:03.60

Peak level 97.3 %
Track quality 100.0 %
Test CRC 0EE971B3
Copy CRC 0EE971B3
Track not present in AccurateRip database
Copy OK

Track 9

Filename F:\DL\Herve Sellin Tentet - Marciac New-York express (2008) [FLAC]\09 - Le Sorcier De La Case-Dieu.wav

Pre-gap length 0:00:03.28

Peak level 97.3 %
Track quality 99.9 %
Test CRC F709EE4E
Copy CRC F709EE4E
Track not present in AccurateRip database
Copy OK

Track 10

Filename F:\DL\Herve Sellin Tentet - Marciac New-York express (2008) [FLAC]\10 - La Maison Du Roi (bonus).wav

Pre-gap length 0:00:07.25

Peak level 97.1 %
Track quality 100.0 %
Test CRC 471A06D4
Copy CRC 471A06D4
Track not present in AccurateRip database
Copy OK


None of the tracks are present in the AccurateRip database

No errors occurred

End of status report

Herve Sellin Tentet - Marciac New-York Express (2008) {Cristal}
Herve Sellin Tentet - Marciac New-York Express (2008) {Cristal}


Thanks to the original ripper