Subcategories

Hille Perl, Christine Schornsheim, Lee Santana- J.S. Bach - Trio Sonatas Nos. 1-6 (2009)

Posted By: tirexiss
Hille Perl, Christine Schornsheim, Lee Santana- J.S. Bach - Trio Sonatas Nos. 1-6 (2009)

Hille Perl, Christine Schornsheim, Lee Santana- J.S. Bach - Trio Sonatas Nos. 1-6 (2009)
EAC | FLAC (image+.cue, log) | Covers Included | 74:24 | 531 MB
Genre: Classical | Label: Deutsche Harmonia Mundi | Catalog: 88697526972 2

Hille Perl is widely regarded as one of the leading viola da gambists in the world. Because of the prominence of her instrument in the Baroque era, her repertory is rich in works from that period, with the names, J.S. Bach, Telemann, Marin Marais, Sainte-Colombe, and other 17th and 18th century composers headlining her concert programs and recordings. Perl also plays the treble viol, the seven-string bass viol, Baroque guitar, Lirone, and Xarana. She often performs with her husband, lutenist Lee Santana, in duo repertory, and together the pair have formed two other ensembles: Los Otros, with guitarist Steve Player, and the Age of Passions, with violinist/conductor Petra Mullejans and flutist Karl Kaiser. Perl has also appeared with some of the leading Baroque ensembles in Europe, like the Freiburger Barockorchester and the Harp Consort. She has made numerous recordings, many of them available from Deutsche Harmonia Mundi (DHM).
Hille Perl was born in Bremen, Germany, in 1965. Her father Helmuth was a harpsichordist, organist, and musicologist. Hille began playing the viola da gamba at five. She had studies with Niklas Trustedt (Berlin) and with Pere Ros and Ingrid Stampa (Hamburg). Perl earned a degree in 1990 at Bremen's Academy for Early Music, where she studied with Sarah Cunningham and Jaap ter Linden.
Perl steadily built her career, and soon began appearing on recordings. Among the earliest was a 1997 Deutsche Harmonia Mundi CD, Spanish Gypsies, with Santana, Player, Andrew Lawrence-King, and other notables. Perl and Santana formed Los Otros (The Others) in 2001 and their first recording, Tinto, a collection of works by Kapsberger, Corbetta, and others, appeared on RCA Special Imports in 2003. From 2002, Perl has taught viola da gamba at the University of the Arts in Bremen, while remaining busy both in the concert hall and recording studio.
In 2004 Perl appeared on one of her most acclaimed recordings, Marais' Pour La Violle, with Santana, on DHM. Perl and Santana's daughter, Marthe Perl, is also an acclaimed viola da gambist. She joined her parents on a highly praised 2010 DHM CD entitled Loves Alchymie.
Perl's busy concert schedule includes appearances at many of the major Baroque festivals. She performed with Santana and harpsichordist Patrick Ayrton to great acclaim at the May 2011 Lufthansa Festival of Baroque Music, held at St. John's Smith Square in London. Their performances in an all-J.S. Bach program were later broadcast over BBC Radio 3.

Hille Perl, Christine Schornsheim, Lee Santana- J.S. Bach - Trio Sonatas Nos. 1-6 (2009)

Track List:

BWV 525
1. 1. (ohne Satzbezeichnung)
2. 2. Adagio
3. 3. Allegro

BWV 526
4. 1. Vivace
5. 2. Largo
6. 3. Allegro

BWV 527
7. 1. Andante
8. 2. Adagio e dolce
9. 3. Vivace

BWV 528
10. 1. Adagio
11. 2. Andante
12. 3. Un poco allegro

BWV 529
13. 1. Allegro
14. 2. Largo
15. 3. Allegro

BWV 530
16. 1. Vivace
17. 2. Lento
18. 3. Allegro

Performers:
Hille Perl - Viola da gamba
Christine Schornsheim - Harpsichord
Lee Santana - Lute

Exact Audio Copy V1.1 from 23. June 2015

EAC extraction logfile from 7. October 2016, 1:14

Hille Perl et al / Bach JS - Trio Sonatas

Used drive : HL-DT-STDVDRAM GP57EB40 Adapter: 1 ID: 1

Read mode : Secure
Utilize accurate stream : Yes
Defeat audio cache : Yes
Make use of C2 pointers : No

Read offset correction : 6
Overread into Lead-In and Lead-Out : No
Fill up missing offset samples with silence : Yes
Delete leading and trailing silent blocks : No
Null samples used in CRC calculations : Yes
Used interface : Native Win32 interface for Win NT & 2000

Used output format : User Defined Encoder
Selected bitrate : 1024 kBit/s
Quality : High
Add ID3 tag : No
Command line compressor : C:\Program Files (x86)\Exact Audio Copy\FLAC\FLAC.EXE
Additional command line options : -6 -V -T "ARTIST=%artist%" -T "TITLE=%title%" -T "ALBUM=%albumtitle%" -T "DATE=%year%" -T "TRACKNUMBER=%tracknr%" -T "GENRE=%genre%" -T "COMMENT=%comment%" -T "BAND=%albuminterpret%" -T "ALBUMARTIST=%albuminterpret%" -T "COMPOSER=%composer%" %haslyrics%–tag-from-file=LYRICS="%lyricsfile%"%haslyrics% -T "DISCNUMBER=%cdnumber%" -T "TOTALDISCS=%totalcds%" -T "TOTALTRACKS=%numtracks%" %hascover%–picture="%coverfile%"%hascover% %source% -o %dest%


TOC of the extracted CD

Track | Start | Length | Start sector | End sector
––––––––––––––––––––––––––––-
1 | 0:00.00 | 2:47.61 | 0 | 12585
2 | 2:47.61 | 6:44.29 | 12586 | 42914
3 | 9:32.15 | 3:39.60 | 42915 | 59399
4 | 13:12.00 | 4:07.40 | 59400 | 77964
5 | 17:19.40 | 3:07.24 | 77965 | 92013
6 | 20:26.64 | 4:03.03 | 92014 | 110241
7 | 24:29.67 | 4:41.29 | 110242 | 131345
8 | 29:11.21 | 5:18.33 | 131346 | 155228
9 | 34:29.54 | 3:50.10 | 155229 | 172488
10 | 38:19.64 | 2:38.53 | 172489 | 184391
11 | 40:58.42 | 4:28.26 | 184392 | 204517
12 | 45:26.68 | 2:27.34 | 204518 | 215576
13 | 47:54.27 | 4:41.72 | 215577 | 236723
14 | 52:36.24 | 5:21.18 | 236724 | 260816
15 | 57:57.42 | 3:27.10 | 260817 | 276351
16 | 61:24.52 | 3:39.01 | 276352 | 292777
17 | 65:03.53 | 6:07.49 | 292778 | 320351
18 | 71:11.27 | 3:10.53 | 320352 | 334654


Range status and errors

Selected range

Filename C:\EAC\Hille Perl et al - Bach JS - Trio Sonatas.wav

Peak level 98.9 %
Extraction speed 3.5 X
Range quality 99.9 %
Test CRC F7463710
Copy CRC F7463710
Copy OK

No errors occurred


AccurateRip summary

Track 1 accurately ripped (confidence 8) [3A2F9BA4] (AR v2)
Track 2 accurately ripped (confidence 8) [1D578258] (AR v2)
Track 3 accurately ripped (confidence 8) [C77C0811] (AR v2)
Track 4 accurately ripped (confidence 8) [63698DCA] (AR v2)
Track 5 accurately ripped (confidence 8) [390A75C8] (AR v2)
Track 6 accurately ripped (confidence 8) [817E6A85] (AR v2)
Track 7 accurately ripped (confidence 8) [58ABFF1C] (AR v2)
Track 8 accurately ripped (confidence 8) [2F298DF7] (AR v2)
Track 9 accurately ripped (confidence 8) [EEBBA632] (AR v2)
Track 10 accurately ripped (confidence 8) [E20DDACA] (AR v2)
Track 11 accurately ripped (confidence 8) [D433030F] (AR v2)
Track 12 accurately ripped (confidence 8) [92E1E1EC] (AR v2)
Track 13 accurately ripped (confidence 8) [2F0B4FB0] (AR v2)
Track 14 accurately ripped (confidence 8) [2AAD5E78] (AR v2)
Track 15 accurately ripped (confidence 8) [B3DAEF2A] (AR v2)
Track 16 accurately ripped (confidence 8) [C884715F] (AR v2)
Track 17 accurately ripped (confidence 8) [A407AAB9] (AR v2)
Track 18 accurately ripped (confidence 8) [27282403] (AR v2)

All tracks accurately ripped

End of status report

–– CUETools DB Plugin V2.1.6

[CTDB TOCID: nDtfAyDlkEdhb8y57wpALsgC2Jw-] found
Submit result: nDtfAyDlkEdhb8y57wpALsgC2Jw- has been confirmed
Track | CTDB Status
1 | (26/26) Accurately ripped
2 | (26/26) Accurately ripped
3 | (26/26) Accurately ripped
4 | (26/26) Accurately ripped
5 | (26/26) Accurately ripped
6 | (26/26) Accurately ripped
7 | (26/26) Accurately ripped
8 | (26/26) Accurately ripped
9 | (26/26) Accurately ripped
10 | (26/26) Accurately ripped
11 | (26/26) Accurately ripped
12 | (26/26) Accurately ripped
13 | (26/26) Accurately ripped
14 | (26/26) Accurately ripped
15 | (26/26) Accurately ripped
16 | (26/26) Accurately ripped
17 | (25/26) Accurately ripped
18 | (26/26) Accurately ripped


==== Log checksum C3D4AB0A992D1450F250693A7EFF4A336D7D1D9C22E0F9C1AF6D0813D8D8076C ====

[CUETools log; Date: 20.09.2017 12:25:01; Version: 2.1.5]
[CTDB TOCID: nDtfAyDlkEdhb8y57wpALsgC2Jw-] found.
Track | CTDB Status
1 | (30/30) Accurately ripped
2 | (30/30) Accurately ripped
3 | (30/30) Accurately ripped
4 | (30/30) Accurately ripped
5 | (30/30) Accurately ripped
6 | (30/30) Accurately ripped
7 | (30/30) Accurately ripped
8 | (30/30) Accurately ripped
9 | (30/30) Accurately ripped
10 | (30/30) Accurately ripped
11 | (30/30) Accurately ripped
12 | (30/30) Accurately ripped
13 | (30/30) Accurately ripped
14 | (30/30) Accurately ripped
15 | (30/30) Accurately ripped
16 | (30/30) Accurately ripped
17 | (29/30) Accurately ripped
18 | (30/30) Accurately ripped
[AccurateRip ID: 0030873f-0285a4c3-0d116e12] found.
Track [ CRC | V2 ] Status
01 [fb29967f|3a2f9ba4] (00+10/25) Accurately ripped
02 [89b7d6b7|1d578258] (00+10/25) Accurately ripped
03 [c1c406f8|c77c0811] (00+10/25) Accurately ripped
04 [137f7f8e|63698dca] (00+10/25) Accurately ripped
05 [2dcc226c|390a75c8] (00+10/25) Accurately ripped
06 [1398d1b2|817e6a85] (00+10/25) Accurately ripped
07 [c7727c12|58abff1c] (00+10/25) Accurately ripped
08 [4cf0e9b4|2f298df7] (00+10/25) Accurately ripped
09 [9c2527b1|eebba632] (00+10/25) Accurately ripped
10 [261fa296|e20ddaca] (00+10/25) Accurately ripped
11 [adfa7f1e|d433030f] (00+10/25) Accurately ripped
12 [fac90847|92e1e1ec] (00+10/25) Accurately ripped
13 [5c5e694b|2f0b4fb0] (00+10/25) Accurately ripped
14 [f85fb44f|2aad5e78] (00+10/25) Accurately ripped
15 [7089f4fd|b3daef2a] (00+10/25) Accurately ripped
16 [f366ef76|c884715f] (00+10/24) Accurately ripped
17 [822405d2|a407aab9] (00+10/25) Accurately ripped
18 [40749aed|27282403] (00+10/25) Accurately ripped
Offsetted by -12:
01 [c69abd61] (05/25) Accurately ripped
02 [17f448e2] (05/25) Accurately ripped
03 [0f8db5b2] (05/25) Accurately ripped
04 [66eca2cc] (05/25) Accurately ripped
05 [c89a2187] (05/25) Accurately ripped
06 [312d089c] (05/25) Accurately ripped
07 [e529ddb8] (05/25) Accurately ripped
08 [41c9ca31] (05/25) Accurately ripped
09 [b45e50be] (05/25) Accurately ripped
10 [f715ca03] (05/25) Accurately ripped
11 [ba336b20] (05/25) Accurately ripped
12 [9858e099] (05/25) Accurately ripped
13 [2eb7e0d1] (05/25) Accurately ripped
14 [8195cea8] (05/25) Accurately ripped
15 [6e9c8eb7] (05/25) Accurately ripped
16 [e89f8fb6] (04/24) Accurately ripped
17 [e569bb8c] (05/25) Accurately ripped
18 [bfb91055] (05/25) Accurately ripped

Track Peak [ CRC32 ] [W/O NULL] [ LOG ]
– 98,9 [F7463710] [597D0850] CRC32
01 98,9 [A636EA29] [57435900]
02 98,9 [795FE541] [103A043A]
03 98,9 [B958A50C] [6774E532]
04 98,9 [935DAFE2] [0EF13F6C]
05 72,9 [A212B3AB] [D85B9EF7]
06 98,9 [F212B2C1] [0AE88B84]
07 98,9 [79506C14] [F137F4A5]
08 98,9 [AA35D161] [DBE95720]
09 98,9 [488D0F88] [794B916E]
10 94,1 [D951D08A] [A680D47C]
11 86,9 [46F90521] [5EECADB7]
12 98,9 [4556D100] [CF62BC17]
13 98,9 [73B16048] [35A56861]
14 85,5 [851DB1F5] [4D544DAC]
15 78,2 [ACF0C83B] [975B3B94]
16 98,9 [96EDC40E] [0DAEC6AC]
17 98,9 [67DBC553] [07D9F3C9]
18 98,9 [AFF35B47] [94DC47AB]

Thanks to the Original ripper (unknown)!

Download: