Subcategories

Holly Williams - Here With Me (2009)

Posted By: popsakov
Holly Williams - Here With Me (2009)

Holly Williams - Here With Me (2009)
EAC Rip | WavPack (Img) + Cue + Log ~ 235 Mb | MP3 CBR320 ~ 90 Mb
Full Scans (PNG, 400 dpi) ~ 166 Mb | RAR 5% Recovery
Country, Folk | Mercury #0602517963900

If it's hard to follow in the footsteps of a famous parent, it must be even tougher to do so when said parent is the offspring of a music legend. Singer/songwriter Holly Williams not only faces the daunting task of standing in the long shadow cast by her father, rough-and-tumble country outlaw Hank Jr., but the even longer shadow cast by the grandfather she never knew, country progenitor Hank Williams. While most famous offspring are lacking in the talent department and have to lean heavily on their family name, Williams doesn't. The comely singer drips talent on her Mercury Nashville debut, Here with Me. Her music is a pop-Americana hybrid, raw and real while at the same time polished to a beautiful shine. The singer's songs don't even hint at the contrived candyfloss schlock of 21st century Nashville. This is music straight from the gut, via the heart. Williams tackles her parents' divorce on "Mama," a clear-headed cut that gives a nod to the way her mother and father handled their breakup. The poignant "Without Jesus Here with Me," written about a March 2006 automobile accident that nearly took the lives of Williams and her sister Hilary, is a powerful spiritual number. Sparingly decorated with piano, percussion, and weeping steel guitar, the song packs an emotional punch. Other standout tracks include the rattling "Keep the Change," a pointed kiss-off tune, and the vocally stunning "Three Days in Bed," a folk-blues track anchored by a single acoustic guitar and a soul-consuming melody. Forget about long shadows – Williams steps out into the light on Here with Me and proves she doesn't need to use the family name as a crutch.
~ Todd Sterling, All Music

***************

Holly Williams - Here With Me (2009)

Holly Williams - Here With Me (2009)

Track List:

01. He's Making A Fool Out of You [0:03:57.07]
02. Mama [0:02:52.68]
03. I Hold On [0:02:46.09]
04. Keep The Change [0:03:33.74]
05. Let Her Go [0:03:32.51]
06. Three Days In Bed [0:02:51.39]
07. Alone [0:04:26.67]
08. Love I Think Will Last [0:02:51.23]
09. Gone With The Morning Sun [0:03:38.38]
10. Without Jesus Here With Me [0:03:25.55]
11. Birds [0:02:35.68]

Exact Audio Copy V1.3 from 2. September 2016

EAC extraction logfile from 3. March 2017, 18:30

Holly Williams / Here With Me

Used drive : HL-DT-STDVDRAM GH24NSC0 Adapter: 1 ID: 0

Read mode : Secure
Utilize accurate stream : Yes
Defeat audio cache : Yes
Make use of C2 pointers : No

Read offset correction : 6
Overread into Lead-In and Lead-Out : No
Fill up missing offset samples with silence : Yes
Delete leading and trailing silent blocks : No
Null samples used in CRC calculations : Yes
Used interface : Native Win32 interface for Win NT & 2000

Used output format : Internal WAV Routines
Sample format : 44.100 Hz; 16 Bit; Stereo


TOC of the extracted CD

Track | Start | Length | Start sector | End sector
––––––––––––––––––––––––––––-
1 | 0:00.00 | 3:57.07 | 0 | 17781
2 | 3:57.07 | 2:52.68 | 17782 | 30749
3 | 6:50.00 | 2:46.09 | 30750 | 43208
4 | 9:36.09 | 3:33.74 | 43209 | 59257
5 | 13:10.08 | 3:32.51 | 59258 | 75208
6 | 16:42.59 | 2:51.39 | 75209 | 88072
7 | 19:34.23 | 4:26.67 | 88073 | 108089
8 | 24:01.15 | 2:51.23 | 108090 | 120937
9 | 26:52.38 | 3:38.38 | 120938 | 137325
10 | 30:31.01 | 3:25.55 | 137326 | 152755
11 | 33:56.56 | 2:35.68 | 152756 | 164448


Range status and errors

Selected range

Filename C:\Music CD\Holly Williams - Here With Me.wav

Peak level 99.9 %
Extraction speed 6.5 X
Range quality 100.0 %
Test CRC CDB806E1
Copy CRC CDB806E1
Copy OK

No errors occurred


AccurateRip summary

Track 1 accurately ripped (confidence 21) [68823F39] (AR v2)
Track 2 accurately ripped (confidence 20) [C144AD51] (AR v2)
Track 3 accurately ripped (confidence 20) [776BA163] (AR v2)
Track 4 accurately ripped (confidence 20) [E1BBF87D] (AR v2)
Track 5 accurately ripped (confidence 20) [307A4300] (AR v2)
Track 6 accurately ripped (confidence 20) [E9F5BBD6] (AR v2)
Track 7 accurately ripped (confidence 20) [77A6BE16] (AR v2)
Track 8 accurately ripped (confidence 20) [50A3ABE8] (AR v2)
Track 9 accurately ripped (confidence 21) [C078E769] (AR v2)
Track 10 accurately ripped (confidence 21) [16D63EE4] (AR v2)
Track 11 accurately ripped (confidence 21) [731E355C] (AR v2)

All tracks accurately ripped

End of status report

–– CUETools DB Plugin V2.1.6

[CTDB TOCID: Iyp0u4N7ZdS44qjoX.SyCXcyxeM-] found
Submit result: Iyp0u4N7ZdS44qjoX.SyCXcyxeM- has been confirmed
Track | CTDB Status
1 | (23/23) Accurately ripped
2 | (23/23) Accurately ripped
3 | (23/23) Accurately ripped
4 | (23/23) Accurately ripped
5 | (23/23) Accurately ripped
6 | (23/23) Accurately ripped
7 | (23/23) Accurately ripped
8 | (23/23) Accurately ripped
9 | (23/23) Accurately ripped
10 | (23/23) Accurately ripped
11 | (23/23) Accurately ripped


==== Log checksum A3CB27E307EB623692C6706A05F186992749061534407B97D84017F4FB358BF6 ====

foobar2000 1.3.14 / Dynamic Range Meter 1.1.1
log date: 2017-03-03 18:32:21

––––––––––––––––––––––––––––––––––––––––
Analyzed: Holly Williams / Here With Me
––––––––––––––––––––––––––––––––––––––––

DR Peak RMS Duration Track
––––––––––––––––––––––––––––––––––––––––
DR9 -0.01 dB -12.57 dB 3:57 01-He's Making A Fool Out of You
DR8 -0.01 dB -9.60 dB 2:53 02-Mama
DR9 -0.41 dB -11.60 dB 2:46 03-I Hold On
DR8 -0.51 dB -10.02 dB 3:34 04-Keep The Change
DR7 -0.01 dB -8.33 dB 3:33 05-Let Her Go
DR10 -2.74 dB -15.45 dB 2:52 06-Three Days In Bed
DR9 -0.01 dB -12.61 dB 4:27 07-Alone
DR9 -0.01 dB -10.09 dB 2:51 08-Love I Think Will Last
DR7 -0.01 dB -9.83 dB 3:39 09-Gone With The Morning Sun
DR9 -0.21 dB -12.39 dB 3:26 10-Without Jesus Here With Me
DR11 -0.01 dB -13.98 dB 2:36 11-Birds
––––––––––––––––––––––––––––––––––––––––

Number of tracks: 11
Official DR value: DR9

Samplerate: 44100 Hz
Channels: 2
Bits per sample: 16
Bitrate: 1411 kbps
Codec: PCM
================================================================================

[CUETools log; Date: 19.11.2017 18:06:19; Version: 2.1.5]
[CTDB TOCID: Iyp0u4N7ZdS44qjoX.SyCXcyxeM-] found.
Track | CTDB Status
1 | (28/28) Accurately ripped
2 | (28/28) Accurately ripped
3 | (28/28) Accurately ripped
4 | (28/28) Accurately ripped
5 | (28/28) Accurately ripped
6 | (28/28) Accurately ripped
7 | (28/28) Accurately ripped
8 | (28/28) Accurately ripped
9 | (28/28) Accurately ripped
10 | (28/28) Accurately ripped
11 | (28/28) Accurately ripped
[AccurateRip ID: 000f39d0-0083e8e0-8508900b] found.
Track [ CRC | V2 ] Status
01 [a0220fbe|68823f39] (10+22/52) Accurately ripped
02 [f312478f|c144ad51] (10+21/50) Accurately ripped
03 [e115dfbd|776ba163] (10+21/51) Accurately ripped
04 [baa06043|e1bbf87d] (09+21/49) Accurately ripped
05 [5eb44636|307a4300] (09+21/49) Accurately ripped
06 [2d37fb7c|e9f5bbd6] (10+21/50) Accurately ripped
07 [180581ff|77a6be16] (10+21/50) Accurately ripped
08 [e8885ac8|50a3abe8] (09+21/49) Accurately ripped
09 [3cbca213|c078e769] (10+22/51) Accurately ripped
10 [69ee6629|16d63ee4] (10+22/51) Accurately ripped
11 [44d7ea8c|731e355c] (10+22/51) Accurately ripped
Offsetted by -58:
01 [18896b84] (09/52) Accurately ripped
02 [44fcdaa5] (09/50) Accurately ripped
03 [4ee5508c] (09/51) Accurately ripped
04 [0af36cd3] (09/49) Accurately ripped
05 [9dc2aeb9] (09/49) Accurately ripped
06 [e24da4a2] (09/50) Accurately ripped
07 [fe5201f5] (09/50) Accurately ripped
08 [af422dc1] (09/49) Accurately ripped
09 [7b5624d0] (09/51) Accurately ripped
10 [1e2713a2] (09/51) Accurately ripped
11 [a0064a12] (09/51) Accurately ripped
Offsetted by 600:
01 [0763f455] (00/52) No match (V2 was not tested)
02 [6f7e08c2] (00/50) No match (V2 was not tested)
03 [ace9aec2] (00/51) No match (V2 was not tested)
04 [80d66ce7] (00/49) No match (V2 was not tested)
05 [845ee296] (00/49) No match (V2 was not tested)
06 [9d860764] (00/50) No match (V2 was not tested)
07 [44d3e0c4] (00/50) No match (V2 was not tested)
08 [b13b98f5] (00/49) No match (V2 was not tested)
09 [557c01e0] (00/51) No match (V2 was not tested)
10 [553d0b0e] (00/51) No match (V2 was not tested)
11 [43f83505] (00/51) No match (V2 was not tested)

Track Peak [ CRC32 ] [W/O NULL] [ LOG ]
– 99,9 [CDB806E1] [E6CD2589] CRC32
01 99,9 [7FCC87A7] [2678D78A]
02 99,9 [F9B62DC6] [534894DD]
03 95,3 [037E6B0E] [A4EDBC1F]
04 94,2 [D32A7E0A] [FEAB7808]
05 99,9 [116FDADB] [DF2BCC3B]
06 72,9 [9D80B6E4] [59DD9DCE]
07 99,8 [00D92231] [7B608F81]
08 99,9 [85F07987] [70382BC4]
09 99,9 [BAFB6CA0] [63A278A9]
10 97,6 [684F6687] [12BA9946]
11 99,9 [A4348774] [9DA3FECB]

Holly Williams - Here With Me (2009)

All thanks go to edenika

>>> My Blog <<<

Download from icerbox.com: