Subcategories

Jimmy Duck Holmes - Done Got Tired of Tryin' (2007)

Posted By: mfrwiz
Jimmy Duck Holmes - Done Got Tired of Tryin' (2007)

Jimmy Duck Holmes - Done Got Tired of Tryin' (2007)
Loseless (Flac Image File + Cue + Log + Audiochecker Log): 252 Mb | EAC Secure Mode Rip | Mp3 (CBR 320 kbps): 103 Mb | Covers
Audio CD (August 14, 2007) - Number of Discs: 1 - Label: Broke & Hungry Records - ASIN: B000U1ZL30
Blues, Delta Blues, Acoustic Blues
Notes: A year after the release of his critically lauded debut CD, blues guitarist Jimmy “Duck” Holmes returns with a second slab of deep country blues. Done Got Tired of Tryin’ features 10 new songs performed in the haunting Bentonia, Mississippi style of Holmes’ predecessors, Skip James and Jack Owens. But Holmes also incorporates strong rhythmic elements into his music, thanks to the rousing accompaniment of drummer Lightnin’ Malcolm on several tracks.
The songs on Done Got Tired of Tryin’ stem from two recording sessions held at the Blue Front Café, the rural juke joint Jimmy’s family has operated since 1948. The juke is believed to be the oldest operating juke joint in Mississippi. The CD includes Holmes’ interpretations of several blues classics including “Catfish Blues,” “Train I Ride” and the Bentonia classic, “Cherry Ball.” The remaining tracks spotlight Holmes’ powerful songwriting. Tracks such as “Pencil and Paper” and “Biscuit Roller” display a songwriting voice as strong as any in the country blues world today.
Done Got Tired of Tryin’, like Holmes’ debut Back to Bentonia, will be released by St. Louis-based Broke & Hungry Records. The label also is responsible for Searching for Odell Harris, the debut from 66-year-old Odell Harris and Meet Me in the Cotton Field by Clarksdale blues veterans Terry “Big T” Williams and Wesley “Junebug” Jefferson.
Jimmy Duck Holmes - Done Got Tired of Tryin' (2007)

Review: Jimmy “Duck” Holmes continues his single-handed resurrection of the fabled Bentonia country blues tradition with his second release for Broke & Hungry Records, Done Got Tired of Tryin’, as thrilling a set of country blues as you’ll hear this year. Holmes’ debut release, Back To Bentonia, was also the label’s first and was a pleasant surprise, making several Top Ten Best CD lists for 2006.
For his sophomore effort, Holmes shows that the Bentonia style is alive and well and still has much to offer listeners, writing several new compositions that hold up very well next to much-loved classics performed by purveyors Skip James and Jack Owens. “Pencil and Paper,” “Could’ve Been Married,” and “Wake Up Woman” are welcome additions to the Bentonia catalog of songs. Holmes adds a little twist to the style by integrating percussion on several tracks (provided by Lightnin’ Malcolm), which proves to be a refreshing ingredient, particularly on the instrumental workout “Blue Front Breakdown!”
Holmes also offers his own interpretation of several blues standards, including James’ “Cherry Ball,” Junior Parker’s “Train I Ride,” and the Delta classic, “Catfish Blues,” which features Bud Spires on harmonica. The latter two tracks show that Holmes is very capable of stretching beyond the limits of Bentonia blues.
Vocally, while Holmes doesn’t quite possess the upper register of James or Owens (reminiscent of Honeyboy Edwards at times), his deeper and huskier vocals distinguish him from his predecessors and enable to put his own distinctive stamp on the style. His guitar work is in the Bentonia tradition with the intricate fingerpicking, but he can also pick it up a notch quite well on the more upbeat tracks here.
It’s extraordinary that Jimmy “Duck” Holmes has revived this wonderful style and, with a few fine touches here and there, is revitalizing it in the process. Done Got Tired of Tryin’ is another exceptional effort, and will delight traditional country blues fans.
Track listing

01. Cherry Ball
02. Pencil and Paper
03. Baby Gal
04. Biscuit Roller
05. Blue Front Breakdown!
06. Train I Ride
07. Catfish Blues
08. Wake Up, Woman
09. Could've Been Married
10. It's Over

TT: 51 minutes
Jimmy Duck Holmes - Done Got Tired of Tryin' (2007)
Rapidshare Links

Jimmy Duck Holmes - Done Got Tired of Tryin' (2007)
Filefactory Links

Pass: guaza

Have a nice day.

Exact Audio Copy V0.99 prebeta 5 from 4. May 2009

EAC extraction logfile from 28. May 2009, 18:53

- / -

Used drive : Pioneer BDR-203BK Adapter: 7 ID: 0

Read mode : Secure
Utilize accurate stream : Yes
Defeat audio cache : Yes
Make use of C2 pointers : No

Read offset correction : 6
Overread into Lead-In and Lead-Out : No
Fill up missing offset samples with silence : Yes
Delete leading and trailing silent blocks : No
Null samples used in CRC calculations : Yes
Used interface : Native Win32 interface for Win NT & 2000

Used output format : User Defined Encoder
Selected bitrate : 128 kBit/s
Quality : High
Add ID3 tag : No
Command line compressor : C:\Programmi\FLAC\flac.exe
Additional command line options : -T "artist=%a" -T "title=%t" -T "album=%g" -T "date=%y" -T "tracknumber=%n" -T "genre=%m" -5 %s


TOC of the extracted CD

Track | Start | Length | Start sector | End sector
––––––––––––––––––––––––––––-
1 | 0:00.00 | 3:53.25 | 0 | 17499
2 | 3:53.25 | 7:22.05 | 17500 | 50654
3 | 11:15.30 | 3:54.52 | 50655 | 68256
4 | 15:10.07 | 4:43.15 | 68257 | 89496
5 | 19:53.22 | 4:12.50 | 89497 | 108446
6 | 24:05.72 | 7:18.03 | 108447 | 141299
7 | 31:24.00 | 3:21.67 | 141300 | 156441
8 | 34:45.67 | 4:49.33 | 156442 | 178149
9 | 39:35.25 | 7:00.15 | 178150 | 209664
10 | 46:35.40 | 4:47.15 | 209665 | 231204


Range status and errors

Selected range

Filename M:\Musica_3\=Da Condividere\HQ\temp\Jimmy Duck Holmes - Done Got Tired of Tryin'\Nuova Cartella\Done Got Tired of Tryin'.wav

Peak level 100.0 %
Range quality 100.0 %
Copy CRC E4EE1213
Copy OK

No errors occurred

End of status report


AUDIOCHECKER v2.0 beta (build 457) - by Dester - opdester@freemail.hu
~~~~~~~~~~~~~~~~~~~~~~~~~~~~~~~~~~
-=== NON MODIFICARE QUESTO FILE! ===-

Percorso: …\Nuova Cartella

1 -=- Done Got Tired of Tryin'.flac -=- CDDA (100%)

50622852