Subcategories

Hughes Turner Project - HTP 2 (2003)

Posted By: popsakov
Hughes Turner Project - HTP 2 (2003)

Hughes Turner Project - HTP 2 (2003)
EAC Rip | FLAC (Img) + Cue + Log ~ 435 Mb | MP3 CBR320 ~ 140 Mb
Full Scans (JPG, 300 dpi) ~ 30 Mb | RAR 5% Recovery
Hard Rock | CD-Maximum CDM #0903-1507

HTP 2 is the second album by the Hughes Turner Project, a collaboration between Glenn Hughes (Deep Purple, Black Sabbath, etc.) and Joe Lynn Turner (Rainbow, Yngwie Malmsteen, etc.); it was released in 2003 on MTM Music and Pony Canyon Records.

The second album followed 2002’s HTP and the Live In Tokyo recording. Between the two releases both Hughes and Turner had issued solo albums, Hughes’ Songs In The Key Of Rock and Turner’s JLT. HTP 2 follows similar musical territory to the debut; a retro hard rock sound infused with AOR and some funk, with vocal trade-offs between the two singers.

JJ Marsh, Hughes’ regular guitarist features on the record and co-wrote many of the songs. Other musicians include Hughes’ keyboardist of the time Ed Roth and drummer Shane Gaalaas. There are special guest appearances from guitarists Steve Vai and Jeff Kollman and Red Hot Chili Peppers (now Hughes’ regular) drummer Chad Smith.

After the subsequent tour for the album Hughes and Turner agreed to put their collaboration on a permanent hiatus, so this is, to date, the final Hughes Turner Project recording.
~ Wiki
Hughes Turner Project - HTP 2 (2003)


***************

Hughes Turner Project - HTP 2 (2003)

Track List:

01. Revelation [4:09]
02. Alone I Breathe [4:15]
03. Losing My Head [5:29]
04. Going My Way [4:27]
05. Hold On [5:29]
06. Lost Dreams [6:35]
07. Time And Time Again [5:46]
08. Goodbye Friday [4:59]
09. Burning The Sky [6:14]
10. Sofia [4:47]
11. Let's Talk About It Later [5:55]

Personnel:
Glenn Hughes – vocals, Bass
Joe Lynn Turner – vocals
JJ Marsh – guitars
Shane Gaalaas – drums
Ed Roth – keyboards
Steve Vai – guitar solo on track 3
Jeff Kollman – Guitar outro on track 9, Guitar solo on track 12
Chad Smith – drums on tracks 3

Exact Audio Copy V1.3 from 2. September 2016

EAC extraction logfile from 7. April 2018, 18:32

Hughes Turner Project / HTP 2

Used drive : TSSTcorpCDDVDW SH-224GB Adapter: 1 ID: 0

Read mode : Secure
Utilize accurate stream : Yes
Defeat audio cache : Yes
Make use of C2 pointers : No

Read offset correction : 6
Overread into Lead-In and Lead-Out : No
Fill up missing offset samples with silence : Yes
Delete leading and trailing silent blocks : No
Null samples used in CRC calculations : Yes
Used interface : Native Win32 interface for Win NT & 2000

Used output format : User Defined Encoder
Selected bitrate : 128 kBit/s
Quality : High
Add ID3 tag : No
Command line compressor : C:\Program Files (x86)\Exact Audio Copy\FLAC\FLAC.EXE
Additional command line options : -V -8 -T "Date=%year%" -T "Genre=%genre%" %source%


TOC of the extracted CD

Track | Start | Length | Start sector | End sector
––––––––––––––––––––––––––––-
1 | 0:00.00 | 4:09.07 | 0 | 18681
2 | 4:09.07 | 4:15.15 | 18682 | 37821
3 | 8:24.22 | 5:28.68 | 37822 | 62489
4 | 13:53.15 | 4:26.60 | 62490 | 82499
5 | 18:20.00 | 5:28.47 | 82500 | 107146
6 | 23:48.47 | 6:35.25 | 107147 | 136796
7 | 30:23.72 | 5:46.28 | 136797 | 162774
8 | 36:10.25 | 4:58.57 | 162775 | 185181
9 | 41:09.07 | 6:14.33 | 185182 | 213264
10 | 47:23.40 | 4:47.15 | 213265 | 234804
11 | 52:10.55 | 5:54.52 | 234805 | 261406


Range status and errors

Selected range

Filename F:\ЕАС\rwa12\Hughes Turner Project - HTP 2.wav

Peak level 100.0 %
Extraction speed 6.9 X
Range quality 100.0 %
Test CRC A55B41DE
Copy CRC A55B41DE
Copy OK

No errors occurred


AccurateRip summary

Track 1 accurately ripped (confidence 3) [67F84C59] (AR v2)
Track 2 accurately ripped (confidence 3) [6B18DBB6] (AR v2)
Track 3 accurately ripped (confidence 3) [19B76235] (AR v2)
Track 4 accurately ripped (confidence 3) [913B9FAF] (AR v2)
Track 5 accurately ripped (confidence 3) [6A78A124] (AR v2)
Track 6 accurately ripped (confidence 3) [318F495C] (AR v2)
Track 7 accurately ripped (confidence 3) [2FC75F1A] (AR v2)
Track 8 accurately ripped (confidence 3) [BFF6E647] (AR v2)
Track 9 accurately ripped (confidence 3) [0E679C4A] (AR v2)
Track 10 accurately ripped (confidence 3) [DAFF3039] (AR v2)
Track 11 accurately ripped (confidence 3) [1FA2CB29] (AR v2)

All tracks accurately ripped

End of status report

–– CUETools DB Plugin V2.1.6

[CTDB TOCID: yULR0N89SWL2F44Zz9oG4.XoL4Y-] found
Submit result: yULR0N89SWL2F44Zz9oG4.XoL4Y- has been confirmed
Track | CTDB Status
1 | (25/25) Accurately ripped
2 | (25/25) Accurately ripped
3 | (25/25) Accurately ripped
4 | (25/25) Accurately ripped
5 | (25/25) Accurately ripped
6 | (25/25) Accurately ripped
7 | (25/25) Accurately ripped
8 | (25/25) Accurately ripped
9 | (25/25) Accurately ripped
10 | (25/25) Accurately ripped
11 | (25/25) Accurately ripped


==== Log checksum E76A5A654A5F1F2FF695A3B9819C4E9D17DAA7B8B3FFDF0072AD3410AF0C158C ====

foobar2000 1.3.16 / Dynamic Range Meter 1.1.1
log date: 2018-04-12 01:23:35

––––––––––––––––––––––––––––––––––––––––
Analyzed: Hughes Turner Project / HTP 2
––––––––––––––––––––––––––––––––––––––––

DR Peak RMS Duration Track
––––––––––––––––––––––––––––––––––––––––
DR6 -0.10 dB -8.02 dB 4:09 01-Revelation
DR6 -0.10 dB -7.31 dB 4:15 02-Alone I Breathe
DR6 -0.10 dB -7.85 dB 5:29 03-Losing My Head
DR5 -0.10 dB -6.52 dB 4:27 04-Going My Way
DR7 0.00 dB -8.52 dB 5:29 05-Hold On
DR7 -0.10 dB -8.25 dB 6:35 06-Lost Dreams
DR7 0.00 dB -8.55 dB 5:46 07-Time And Time Again
DR6 -0.10 dB -7.24 dB 4:59 08-Goodbye Friday
DR5 -0.10 dB -7.19 dB 6:14 09-Burning The Sky
DR7 -0.10 dB -9.14 dB 4:47 10-Sofia
DR7 -0.10 dB -9.66 dB 5:55 11-Let's Talk About It Later
––––––––––––––––––––––––––––––––––––––––

Number of tracks: 11
Official DR value: DR6

Samplerate: 44100 Hz
Channels: 2
Bits per sample: 16
Bitrate: 997 kbps
Codec: FLAC
================================================================================

[CUETools log; Date: 12.04.2018 1:23:47; Version: 2.1.6]
[CTDB TOCID: yULR0N89SWL2F44Zz9oG4.XoL4Y-] found.
Track | CTDB Status
1 | (27/27) Accurately ripped
2 | (27/27) Accurately ripped
3 | (27/27) Accurately ripped
4 | (27/27) Accurately ripped
5 | (27/27) Accurately ripped
6 | (27/27) Accurately ripped
7 | (27/27) Accurately ripped
8 | (27/27) Accurately ripped
9 | (27/27) Accurately ripped
10 | (27/27) Accurately ripped
11 | (27/27) Accurately ripped
[AccurateRip ID: 0016ee98-00c9f323-770d9d0b] found.
Track [ CRC | V2 ] Status
01 [8661fb3f|67f84c59] (07+03/38) Accurately ripped
02 [8428bcbb|6b18dbb6] (07+03/38) Accurately ripped
03 [df3a4dd6|19b76235] (07+03/38) Accurately ripped
04 [192c0e62|913b9faf] (07+03/38) Accurately ripped
05 [911420a9|6a78a124] (07+03/38) Accurately ripped
06 [336b0c00|318f495c] (07+03/38) Accurately ripped
07 [ce2fc1a0|2fc75f1a] (07+03/38) Accurately ripped
08 [5e4ae4cc|bff6e647] (07+03/38) Accurately ripped
09 [be4511ab|0e679c4a] (07+03/38) Accurately ripped
10 [b05090d0|daff3039] (07+03/38) Accurately ripped
11 [c2aa30a2|1fa2cb29] (07+03/38) Accurately ripped
Offsetted by 664:
01 [847b55bf] (13/38) Accurately ripped
02 [46be97f3] (13/38) Accurately ripped
03 [cb8d0d56] (13/38) Accurately ripped
04 [a36d31fa] (13/38) Accurately ripped
05 [de3c55b9] (13/38) Accurately ripped
06 [23f6f5c8] (13/38) Accurately ripped
07 [d9aec020] (13/38) Accurately ripped
08 [6738ad4c] (13/38) Accurately ripped
09 [b1356763] (13/38) Accurately ripped
10 [f71b91c0] (13/38) Accurately ripped
11 [6259e5c2] (13/38) Accurately ripped
Offsetted by -686:
01 [a980d91f] (00/38) No match (V2 was not tested)
02 [7054db05] (00/38) No match (V2 was not tested)
03 [ae28ab76] (00/38) No match (V2 was not tested)
04 [60b2c874] (00/38) No match (V2 was not tested)
05 [b37c52b5] (00/38) No match (V2 was not tested)
06 [43623576] (00/38) No match (V2 was not tested)
07 [6e42ea80] (00/38) No match (V2 was not tested)
08 [fd2a0d2c] (00/38) No match (V2 was not tested)
09 [725165d5] (00/38) No match (V2 was not tested)
10 [306ddf44] (00/38) No match (V2 was not tested)
11 [f97258fa] (00/38) No match (V2 was not tested)
Offsetted by -12:
01 [de5219ff] (00/38) No match (V2 was not tested)
02 [cc35735f] (00/38) No match (V2 was not tested)
03 [455dd216] (00/38) No match (V2 was not tested)
04 [ba24b5d6] (00/38) No match (V2 was not tested)
05 [70d741a1] (00/38) No match (V2 was not tested)
06 [33b28adc] (00/38) No match (V2 was not tested)
07 [5a50ee60] (00/38) No match (V2 was not tested)
08 [4574dc8c] (00/38) No match (V2 was not tested)
09 [30a0570f] (00/38) No match (V2 was not tested)
10 [ee43a4d8] (00/38) No match (V2 was not tested)
11 [7d773512] (00/38) No match (V2 was not tested)

Track Peak [ CRC32 ] [W/O NULL] [ LOG ]
– 100,0 [A55B41DE] [6ACBE20B] CRC32
01 98,9 [1A36248F] [09AC8D25]
02 98,9 [DE85584B] [F8FE5586]
03 98,9 [55A8637D] [819CB873]
04 98,9 [0586D95F] [4F92D62E]
05 100,0 [75328EB7] [12E1B9DD]
06 98,9 [EE421882] [EC1582E1]
07 100,0 [7DBDE907] [5D28C540]
08 98,9 [2CC050FD] [351A0491]
09 98,9 [C82D24FC] [FF6D9BB2]
10 98,9 [3B189F48] [6C428999]
11 98,9 [6CB87691] [24EE55C1]

Hughes Turner Project - HTP 2 (2003)

All thanks go to rwa12

>>> My Blog <<<

Download from icerbox.com: