Subcategories

Humble Pie - Performance: Rockin' The Fillmore (1971) {2007, Japanese Reissue, 24-bit Remastered} Repost

Posted By: popsakov
Humble Pie - Performance: Rockin' The Fillmore (1971) {2007, Japanese Reissue, 24-bit Remastered} Repost

Humble Pie - Performance: Rockin' The Fillmore (1971) {2007, Japanese Reissue, 24-bit Remastered}
EAC Rip | FLAC (Tracks) + Cue + m3u + Log ~ 481 Mb | MP3 CBR320 ~ 181 Mb
Full Scans | 01:12:30 | RAR 5% Recovery
Blues Rock, Hard Rock, Classic Rock | A&M Records / Universal Music K.K. #UICY-93221

Performance Rockin' the Fillmore is the 1971 live double-LP/single-CD by English blues-rock group Humble Pie. It reached #21 on the Billboard 200, and hit the UK Top 40. The hour-long set contains one original song and several covers. "I Don't Need No Doctor" was the biggest hit from the album, having been issued as an edited single and reaching #73 on the Billboard Hot 100 in October 1971. Shortly before the album's release, guitarist Peter Frampton left due to growing friction between him and Marriott. The album's steady sales helped Performance: Rockin' the Fillmore to become the band's first gold record. Its popularity helped the band's previous album, Rock On, reach gold album status.

Recorded while Peter Frampton was still in the band, Performance: Rockin' the Fillmore captures an early performance by Humble Pie where Steve Marriot's lyricism and ideas where balanced by Frampton's searing lead guitar. This is hardly as engaging as As Safe Yesterday Is, which had studiocraft along with songcraft, but as a document of a band at a pivotal point in their existence, this is valuable and at times insightful.

~ Stephen Thomas Erlewine, All Music

***************

Track List:

01. Four day creep [3:46]
02. I'm ready [8:30]
03. Stone cold fever [6:17]
04. I walk on gilded splinters [23:25]
05. Rolling stone [16:07]
06. Hallelujah (I love her so) [5:07]
07. I don't need no doctor [9:17]

EAC extraction logfile from 21. February 2009, 7:33 for CD
Humble Pie / Performance - Rockin' the Fillmore

Used drive : HL-DT-STDVD-RW GSA-H11N Adapter: 1 ID: 0
Read mode : Secure with NO C2, accurate stream, disable cache
Read offset correction : 667
Overread into Lead-In and Lead-Out : No

Used output format : Internal WAV Routines
44.100 Hz; 16 Bit; Stereo

Other options :
Fill up missing offset samples with silence : Yes
Delete leading and trailing silent blocks : No
Installed external ASPI interface


Track 1
Filename C:\Documents and Settings\Eric\My Documents\Downloads\Humble Pie - Performance Rockin' The Fillmore (1971) [FLAC] {A&M Records Japan 2007 UICY-93221 mini-lp CD}\01 - Four day creep.wav

Pre-gap length 0:00:02.00

Peak level 99.8 %
Track quality 100.0 %
Test CRC 33CF13FC
Copy CRC 33CF13FC
Copy OK

Track 2
Filename C:\Documents and Settings\Eric\My Documents\Downloads\Humble Pie - Performance Rockin' The Fillmore (1971) [FLAC] {A&M Records Japan 2007 UICY-93221 mini-lp CD}\02 - I'm ready.wav

Peak level 99.8 %
Track quality 100.0 %
Test CRC C7696D85
Copy CRC C7696D85
Copy OK

Track 3
Filename C:\Documents and Settings\Eric\My Documents\Downloads\Humble Pie - Performance Rockin' The Fillmore (1971) [FLAC] {A&M Records Japan 2007 UICY-93221 mini-lp CD}\03 - Stone cold fever.wav

Peak level 99.8 %
Track quality 100.0 %
Test CRC 520E551F
Copy CRC 520E551F
Copy OK

Track 4
Filename C:\Documents and Settings\Eric\My Documents\Downloads\Humble Pie - Performance Rockin' The Fillmore (1971) [FLAC] {A&M Records Japan 2007 UICY-93221 mini-lp CD}\04 - I walk on gilded splinters.wav

Pre-gap length 0:00:04.00

Peak level 99.8 %
Track quality 99.9 %
Test CRC F9320C4C
Copy CRC F9320C4C
Copy OK

Track 5
Filename C:\Documents and Settings\Eric\My Documents\Downloads\Humble Pie - Performance Rockin' The Fillmore (1971) [FLAC] {A&M Records Japan 2007 UICY-93221 mini-lp CD}\05 - Rolling stone.wav

Pre-gap length 0:00:02.53

Peak level 99.8 %
Track quality 100.0 %
Test CRC AA97D811
Copy CRC AA97D811
Copy OK

Track 6
Filename C:\Documents and Settings\Eric\My Documents\Downloads\Humble Pie - Performance Rockin' The Fillmore (1971) [FLAC] {A&M Records Japan 2007 UICY-93221 mini-lp CD}\06 - Hallelujah (I love her so).wav

Pre-gap length 0:00:03.10

Peak level 99.8 %
Track quality 99.9 %
Test CRC 0A6CFBFD
Copy CRC 0A6CFBFD
Copy OK

Track 7
Filename C:\Documents and Settings\Eric\My Documents\Downloads\Humble Pie - Performance Rockin' The Fillmore (1971) [FLAC] {A&M Records Japan 2007 UICY-93221 mini-lp CD}\07 - I don't need no doctor.wav

Peak level 99.8 %
Track quality 100.0 %
Test CRC F15D0136
Copy CRC F15D0136
Copy OK

No errors occured


End of status report

[CUETools log; Date: 07.12.2019 23:48:10; Version: 2.1.6]
[CTDB TOCID: F25dSTlE0r9K4KV0rcLQU2.jI_k-] found.
Track | CTDB Status
1 | (24/24) Accurately ripped
2 | (24/24) Accurately ripped
3 | (23/24) Accurately ripped
4 | (23/24) Accurately ripped
5 | (23/24) Accurately ripped
6 | (23/24) Accurately ripped
7 | (24/24) Accurately ripped
[AccurateRip ID: 00129bcf-0074f868-60110707] found.
Track [ CRC | V2 ] Status
01 [f62e2054|8b40f572] (05+09/19) Accurately ripped
02 [0e559138|241f3b73] (05+09/20) Accurately ripped
03 [4dc348d2|8139da51] (05+09/20) Accurately ripped
04 [43f200cf|f5e3c9c6] (05+09/20) Accurately ripped
05 [96089131|27dd273b] (05+09/20) Accurately ripped
06 [03f171fd|20b00f3a] (05+09/20) Accurately ripped
07 [67300459|2a4b5023] (00+00/17) No match
Offsetted by -664:
01 [1dd1dfcf] (02/19) Accurately ripped
02 [36c8340a] (03/20) Accurately ripped
03 [367174b5] (03/20) Accurately ripped
04 [5d48286f] (03/20) Accurately ripped
05 [af141af9] (03/20) Accurately ripped
06 [8d1841a5] (03/20) Accurately ripped
07 [357a1875] (00/17) No match (V2 was not tested)

Track Peak [ CRC32 ] [W/O NULL] [ LOG ]
– 99,8 [2A1E283D] [BB2DED61]
01 99,8 [33CF13FC] [6E451468] CRC32
02 99,8 [C7696D85] [F0498E69] CRC32
03 99,8 [520E551F] [69B93E4C] CRC32
04 99,8 [F9320C4C] [69EED8F8] CRC32
05 99,8 [AA97D811] [D256E311] CRC32
06 99,8 [0A6CFBFD] [0C9632E6] CRC32
07 99,8 [F15D0136] [6521731B] CRC32

Humble Pie - Performance: Rockin' The Fillmore (1971) {2007, Japanese Reissue, 24-bit Remastered} Repost


All thanks go to the original ripper(s) …

>>> "Humble Pie" in my Blog <<<

DOWNLOAD: