Subcategories
Tags
Language
Tags

Humble Pie - Rock On (1971) {1994, Reissue}

Posted By: popsakov
Humble Pie - Rock On (1971) {1994, Reissue}

Humble Pie - Rock On (1971) {1994, Reissue}
EAC Rip | FLAC (Img) + Cue + Log ~ 255 Mb | MP3 CBR320 ~ 104 Mb
Scans Included | 00:38:49 | RAR 5% Recovery
Blues Rock, Hard Rock | A&M Records / Rebound Records #314 520 240-2

On this, their second album for A&M, Humble Pie proved that they were not the "minor league Rolling Stones" as people often described them. Led by the soulful Steve Marriot, the Pie was a great band in every sense of the word. Although Peter Frampton elevated himself to superstar status in just a few years, this album proves what an excellent lead guitarist he was. The record has an undeniable live feel to it, due in part to Glyn Johns' humble yet precise recording, framing the group as if they were a boogie version of the Band. When all of these elements come together on songs such as "Sour Grain" and "Stone Cold Fever," it's an unbeatable combination.

~ Matthew Greenwald, All Music

***************

Humble Pie - Rock On (1971) {1994, Reissue}

Humble Pie - Rock On (1971) {1994, Reissue}

Track List:

01. Shine On [3:04]
02. Sour Grain [2:43]
03. 79th And Sunset [3:03]
04. Stone Cold Fever [4:10]
05. Rollin' Stone [6:01]
06. A Song For Jenny [2:36]
07. The Light [3:19]
08. Big George [4:09]
09. Strange Days [6:37]
10. Red Neck Jump [3:07]

Personnel:
Steve Marriott - guitar, Lead & Backing vocals, keyboards, organ on (1), harmonica
Peter Frampton - guitar, backing vocals, keyboards, Lead Vocal on (1) & (7)
Greg Ridley - bass, guitar, backing vocals, Lead Vocal on (8)
Jerry Shirley - drums, piano on "79th and Sunset"
Guests:
Alexis Korner - backing vocals
Bobby Keys - saxophone
B.J. Cole - pedal steel guitar
Soul Sisters:
P.P. Arnold - chorus
Claudia Lennear - chorus
Doris Troy - chorus

Exact Audio Copy V1.3 from 2. September 2016

EAC extraction logfile from 20. August 2018, 12:47

Humble Pie / Rock On

Used drive : TSSTcorpCDDVDW TS-L633B Adapter: 1 ID: 0

Read mode : Secure
Utilize accurate stream : Yes
Defeat audio cache : Yes
Make use of C2 pointers : No

Read offset correction : 6
Overread into Lead-In and Lead-Out : No
Fill up missing offset samples with silence : Yes
Delete leading and trailing silent blocks : No
Null samples used in CRC calculations : Yes
Used interface : Native Win32 interface for Win NT & 2000

Used output format : Internal WAV Routines
Sample format : 44.100 Hz; 16 Bit; Stereo


TOC of the extracted CD

Track | Start | Length | Start sector | End sector
––––––––––––––––––––––––––––-
1 | 0:00.32 | 3:04.35 | 32 | 13866
2 | 3:04.67 | 2:42.58 | 13867 | 26074
3 | 5:47.50 | 3:02.40 | 26075 | 39764
4 | 8:50.15 | 4:09.57 | 39765 | 58496
5 | 12:59.72 | 6:00.58 | 58497 | 85554
6 | 19:00.55 | 2:36.32 | 85555 | 97286
7 | 21:37.12 | 3:18.38 | 97287 | 112174
8 | 24:55.50 | 4:09.27 | 112175 | 130876
9 | 29:05.02 | 6:36.55 | 130877 | 160631
10 | 35:41.57 | 3:07.18 | 160632 | 174674


Range status and errors

Selected range

Filename F:\Alexharvey\Humble Pie - Rock On.wav

Peak level 99.2 %
Extraction speed 2.7 X
Range quality 99.9 %
Test CRC F347D6F7
Copy CRC F347D6F7
Copy OK

No errors occurred


AccurateRip summary

Track 1 accurately ripped (confidence 19) [9D9D090A] (AR v2)
Track 2 accurately ripped (confidence 19) [346041D8] (AR v2)
Track 3 accurately ripped (confidence 19) [E6E51E10] (AR v2)
Track 4 accurately ripped (confidence 19) [04324DE9] (AR v2)
Track 5 accurately ripped (confidence 19) [F2D9ADFD] (AR v2)
Track 6 accurately ripped (confidence 18) [021BFAC3] (AR v2)
Track 7 accurately ripped (confidence 19) [FF54866F] (AR v2)
Track 8 accurately ripped (confidence 19) [7A49406F] (AR v2)
Track 9 accurately ripped (confidence 19) [C85CE19B] (AR v2)
Track 10 accurately ripped (confidence 19) [BB8870FE] (AR v2)

All tracks accurately ripped

End of status report

–– CUETools DB Plugin V2.1.6

[CTDB TOCID: AiO788A9hmtlp6R3uUSR_h.AYHw-] found
Submit result: AiO788A9hmtlp6R3uUSR_h.AYHw- has been confirmed
Track | CTDB Status
1 | (67/68) Accurately ripped
2 | (67/68) Accurately ripped
3 | (67/68) Accurately ripped
4 | (67/68) Accurately ripped
5 | (67/68) Accurately ripped
6 | (66/68) Accurately ripped
7 | (67/68) Accurately ripped
8 | (67/68) Accurately ripped
9 | (67/68) Accurately ripped
10 | (67/68) Accurately ripped


==== Log checksum 4FC4BFC44C62E50083762DBD199F92B5B541DFEC90EFF617B331D49443006F6A ====

foobar2000 1.3.19 / Dynamic Range Meter 1.1.1
log date: 2018-08-20 12:57:38

––––––––––––––––––––––––––––––––––––––––
Analyzed: Humble Pie / Rock On
––––––––––––––––––––––––––––––––––––––––

DR Peak RMS Duration Track
––––––––––––––––––––––––––––––––––––––––
DR9 -2.15 dB -12.95 dB 3:04 01-Shine On
DR9 -0.89 dB -12.20 dB 2:43 02-Sour Grain
DR10 -0.06 dB -12.88 dB 3:03 03-79th And Sunset
DR10 -0.68 dB -12.57 dB 4:10 04-Stone Cold Fever
DR10 -2.35 dB -16.89 dB 6:01 05-Rollin' Stone
DR10 -1.97 dB -15.25 dB 2:36 06-A Song For Jenny
DR10 -1.27 dB -13.28 dB 3:19 07-The Light
DR9 -1.70 dB -13.82 dB 4:09 08-Big George
DR9 -3.61 dB -15.69 dB 6:37 09-Strange Days
DR10 -1.83 dB -15.15 dB 3:07 10-Red Neck Jump
––––––––––––––––––––––––––––––––––––––––

Number of tracks: 10
Official DR value: DR10

Samplerate: 44100 Hz
Channels: 2
Bits per sample: 16
Bitrate: 835 kbps
Codec: FLAC
================================================================================

[CUETools log; Date: 25.09.2018 1:17:52; Version: 2.1.6]
Pregap length 00:00:32.
[CTDB TOCID: AiO788A9hmtlp6R3uUSR_h.AYHw-] found.
Track | CTDB Status
1 | (70/71) Accurately ripped
2 | (70/71) Accurately ripped
3 | (70/71) Accurately ripped
4 | (70/71) Accurately ripped
5 | (70/71) Accurately ripped
6 | (69/71) Accurately ripped
7 | (70/71) Accurately ripped
8 | (70/71) Accurately ripped
9 | (70/71) Accurately ripped
10 | (70/71) Accurately ripped
[AccurateRip ID: 000db96d-00703a21-8a09190a] found.
Track [ CRC | V2 ] Status
01 [6977f9ea|9d9d090a] (10+19/89) Accurately ripped
02 [fa77ef6a|346041d8] (10+19/89) Accurately ripped
03 [c8eb40eb|e6e51e10] (10+19/88) Accurately ripped
04 [980ad778|04324de9] (10+19/89) Accurately ripped
05 [0027a605|f2d9adfd] (10+19/88) Accurately ripped
06 [3f9075eb|021bfac3] (10+18/87) Accurately ripped
07 [083226fd|ff54866f] (10+19/88) Accurately ripped
08 [629e5906|7a49406f] (10+19/87) Accurately ripped
09 [d94d459b|c85ce19b] (10+19/89) Accurately ripped
10 [1393fc0a|bb8870fe] (10+19/87) Accurately ripped
Offsetted by -664:
01 [c9c08a3a] (00/89) No match (V2 was not tested)
02 [37499ea2] (00/89) No match (V2 was not tested)
03 [d08d027b] (00/88) No match (V2 was not tested)
04 [2e2c584e] (00/89) No match (V2 was not tested)
05 [2f27427f] (00/88) No match (V2 was not tested)
06 [378878cb] (00/87) No match (V2 was not tested)
07 [aa4f4f25] (00/88) No match (V2 was not tested)
08 [835330f6] (00/87) No match (V2 was not tested)
09 [282a08f5] (00/89) No match (V2 was not tested)
10 [44d2c2eb] (00/87) No match (V2 was not tested)

Track Peak [ CRC32 ] [W/O NULL] [ LOG ]
– 99,2 [F347D6F7] [92935132] CRC32
01 78,0 [8EF07945] [E7FE263A]
02 90,2 [ADB1E4ED] [4E8C82AC]
03 99,2 [5AEF1C73] [E7D5657C]
04 92,4 [263EA476] [F6458ED6]
05 76,3 [9777C3F1] [C03F8D17]
06 79,7 [EA4FC756] [6AAA6327]
07 86,3 [CA3A5A7E] [1F75B4B0]
08 82,2 [4816F18D] [4F2AB444]
09 65,9 [DC777DDF] [1486196C]
10 81,0 [0AF010CB] [617161C6]

Humble Pie - Rock On (1971) {1994, Reissue}


All thanks go to Alexharvey

>>> Humble Pie in my Blog <<<

DOWNLOAD: