Subcategories

Hurricane - Over The Edge (1988) [Japan 1st Press]

Posted By: Andi_Deris
Hurricane - Over The Edge (1988) [Japan 1st Press]

Hurricane - Over The Edge (1988) [Japan 1st Press]
EAC Rip | FLAC: Image+Cue+Log | 337 Mb | MP3 CBR 320 kbps | 133 Mb | Scans | Time: 45:47
Genre: Hard Rock, Hair Metal | Label: Enigma Records/Alfa | Cat.: 32XB-255

Over the Edge is the second studio album by the heavy metal band Hurricane. It was released in 1988 on Enigma Records. The album peaked at number 92 on the Billboard The Billboard 200 chart. Over the Edge is a superb ten-song collection of album rock from the latter end of the 1980s, melodic metal with hooks and clever twists that bring it a cut above the expected fare that the plethora of hair bands gave the audience in that era.



Hurricane - Over The Edge (1988) [Japan 1st Press]


Track Listing

01. Over The Edge (5:35)
02. I'm Eighteen (Alice Cooper cover) (4:16)
03. I'm On To You (3:55)
04. Messin' With A Hurricane (5:04)
05. Insane (3:49)
06. We Are Strong (4:42)
07. Spark In My Heart (4:56)
08. Give Me An Inch (Robert Palmer cover) (4:17)
09. Shout (4:46)
10. Baby Snakes (4:28)

Produced by Mike Clink and Bob Ezrin (Lou Reed, Alice Cooper, Kiss, Pink Floyd, Deep Purple, Peter Gabriel)

The Band

• Kelly Hansen - lead vocals
• Tony Cavazo - bass and vocals
• Robert Sarzo - guitar and vocals
• Jay Schellen - drums and vocals

Exact Audio Copy V1.1 from 23. June 2015

Отчёт EAC об извлечении, выполненном 14. ноября 2015, 10:46

Hurricane / Over The Edge

Дисковод: PLEXTOR BD-R PX-B950SA Adapter: 1 ID: 0

Режим чтения : Достоверность
Использование точного потока : Да
Отключение кэша аудио : Да
Использование указателей C2 : Нет

Коррекция смещения при чтении : 6
Способность читать области Lead-in и Lead-out : Нет
Заполнение пропущенных сэмплов тишиной : Да
Удаление блоков с тишиной в начале и конце : Нет
При вычислениях CRC использовались нулевые сэмплы : Да
Интерфейс : Встроенный Win32-интерфейс для Win NT/2000

Выходной формат : Пользовательский кодировщик
Выбранный битрейт : 1024 kBit/s
Качество : Высокий
Добавление ID3-тега : Нет
Утилита сжатия : C:\Program Files (x86)\Exact Audio Copy\FLAC\FLAC.EXE
Дополнительные параметры : -6 -V -T "ARTIST=%artist%" -T "TITLE=%title%" -T "ALBUM=%albumtitle%" -T "DATE=%year%" -T "TRACKNUMBER=%tracknr%" -T "GENRE=%genre%" -T "COMMENT=%comment%" -T "BAND=%albuminterpret%" -T "ALBUMARTIST=%albuminterpret%" -T "COMPOSER=%composer%" %haslyrics%–tag-from-file=LYRICS="%lyricsfile%"%haslyrics% -T "DISCNUMBER=%cdnumber%" -T "TOTALDISCS=%totalcds%" -T "TOTALTRACKS=%numtracks%" %hascover%–picture="%coverfile%"%hascover% %source% -o %dest%


TOC извлечённого CD

Трек | Старт | Длительность | Начальный сектор | Конечный сектор
––––––––––––––––––––––––––––––––––-
1 | 0:00.00 | 5:35.05 | 0 | 25129
2 | 5:35.05 | 4:15.47 | 25130 | 44301
3 | 9:50.52 | 3:54.65 | 44302 | 61916
4 | 13:45.42 | 5:03.33 | 61917 | 84674
5 | 18:49.00 | 3:48.47 | 84675 | 101821
6 | 22:37.47 | 4:41.63 | 101822 | 122959
7 | 27:19.35 | 4:56.30 | 122960 | 145189
8 | 32:15.65 | 4:16.70 | 145190 | 164459
9 | 36:32.60 | 4:46.25 | 164460 | 185934
10 | 41:19.10 | 4:27.42 | 185935 | 206001


Характеристики диапазона извлечения и сообщения об ошибках

Выбранный диапазон

Имя файла G:\RIP\Hurricane 1988 Japanese Pressing FLAC by alzal\Hurricane - Over The Edge.wav

Пиковый уровень 96.2 %
Скорость извлечения 8.2 X
Качество диапазона 100.0 %
CRC теста B11932FD
CRC копии B11932FD
Копирование… OK

Ошибок не произошло


AccurateRip: сводка

Трек 1 : извлечено точно (доверие 1) [B0719B07] (AR v2)
Трек 2 : извлечено точно (доверие 1) [8B6C317B] (AR v2)
Трек 3 : извлечено точно (доверие 1) [2AC68E50] (AR v2)
Трек 4 : извлечено точно (доверие 1) [2CEFDDE8] (AR v2)
Трек 5 : извлечено точно (доверие 1) [221A6E27] (AR v2)
Трек 6 : извлечено точно (доверие 1) [DAC76B56] (AR v2)
Трек 7 : извлечено точно (доверие 1) [827CD106] (AR v2)
Трек 8 : извлечено точно (доверие 1) [B1CC4962] (AR v2)
Трек 9 : извлечено точно (доверие 1) [997FE78B] (AR v2)
Трек 10 : извлечено точно (доверие 1) [CA236A96] (AR v2)

Все треки извлечены точно

Конец отчёта

–– CUETools DB Plugin V2.1.6

[CTDB TOCID: NE7OQfc2Wv3y8P0dEswWAyD7jR0-] disk not present in database
Submit result: NE7OQfc2Wv3y8P0dEswWAyD7jR0- has been uploaded


Many thanks to the original uploader: alzal

See also:
Hurricane 1990 Slave To The Thrill [Japan 1st Press]