Subcategories

I Solisti Italiani - Christmas Concertos: Torelli, Vivaldi, Handel, Manfredini, Tartini, Locatelli, Corelli (1993) [Repost]

Posted By: Designol
I Solisti Italiani - Christmas Concertos: Torelli, Vivaldi, Handel, Manfredini, Tartini, Locatelli, Corelli (1993) [Repost]

I Solisti Italiani - Christmas Concertos (1993) Reissue 2005
Giuseppe Torelli - Antonio Vivaldi - Georg Friedrich Händel - Francesco Manfredini
Giuseppe Tartini - Pietro Antonio Locatelli - Arcangelo Corelli

EAC | FLAC | Image (Cue&Log) ~ 295 Mb | Mp3 (CBR320) ~ 125 Mb | Scans included
Classical, Baroque | Label: Denon | # COCO-70776 | Time: 00:52:34

The Italian ensemble I Virtuosi di Roma's long tradition of performing classics of the Italian Baroque pioneered in many ways the contemporary revival of early music. When its founder, Renato Fazzano, passed away the group disbanded, but a regrouping of sorts took place in the early 80s with eight members of the original group. The new ensemble, which calls itself I Solisti Italiani, has continued the Fazzano legacy, emphasizing line and grace in presenting particularly the works of Vivaldi.

I Solisti Italiani - Christmas Concertos: Torelli, Vivaldi, Handel, Manfredini, Tartini, Locatelli, Corelli (1993) [Repost]


I Solisti Italiani

violins:
Antonio De Secondi [Torelli II]
Luca Fanfoni [Locatelli II]
Fedrico Guglielmo [Vivaldi, Manfredini II, Corelli II]
Giovanni Gugiielmo [Torelli I, Locatelli I, Tartini, Corelli I]
Carlo Lazari
Giqino Maestri [Manfredini I]

violas:
Alfonso Ghedin, Marcello Turio

violoncellos:
Giorgio Ravenna
Alfredo Riccardi [Manfredini, Torelli, Locatelli, Corelli]

double bass:
Gianni Amadio

positive organ:
Edoardo Farina

Andrea Bressan, basson [Handel]

Tracklist:

Giuseppe Torelli (1658-1709)
Concerto grosso in G minor, Op.8 No.6
for 2 Violins, Violoncello, Strings and Continuo
(Concerto a quattro in forma di Pastorale, per il Santo Natale)
01. Grave - Vivace - Adagio
02. Largo
03. Vivace

Antonio Vivaldi (1678-1741)
Concerto in E major, RV.270 F. I-4, "Il Riposo - Per il Natale"
for Violin, Strings and Basso
04. Allegro (molto moderato)
05. Adagio
06. Allegro

Georg Friedrich Händel (1685-1762)
07. Pifa (Sinfonia Pastorale; Larghetto e mezzo piano) from Messiah, HWV56

Francesco Manfredini (1684-1762)
Concerto grosso in C major, Op.3 No.12
for 2 Violins, Violoncello, Strings and Continuo
08. Largo (Pastorale per il Santissimo Natale)
09. Largo
10. Allegro

Giuseppe Tartini (1692-1770)
11. Allegro from Concerto in A major, D.94
for Violin, Strings and Basso Continuo

Pietro Antonio Locatelli (1695-1764)
Concerto grosso in F minor, Op.1 No.8
for 2 Violins, 2 Violas, Violoncello, Strings and Continuo
12. Largo
13. Grave
14. Vivace
15. Grave
16. Largo andante
17. Andante
18. Pastorale; Andante

Arcangelo Corelli (1653-1713)
19. Pastorale (Largo) from Concerto grosso in G minor, Op.6 No.8
for 2 Violins, Violoncello, Strings and Continuo (Fatto per la notte di Natale)


Exact Audio Copy V1.0 beta 3 from 29. August 2011

EAC extraction logfile from 26. November 2013, 19:18

I Solisti Italiani / Christmas Concertos

Used drive : Optiarc DVD RW AD-7173A Adapter: 3 ID: 0

Read mode : Secure
Utilize accurate stream : Yes
Defeat audio cache : Yes
Make use of C2 pointers : No

Read offset correction : 48
Overread into Lead-In and Lead-Out : No
Fill up missing offset samples with silence : Yes
Delete leading and trailing silent blocks : No
Null samples used in CRC calculations : Yes
Used interface : Native Win32 interface for Win NT & 2000

Used output format : Internal WAV Routines
Sample format : 44.100 Hz; 16 Bit; Stereo


TOC of the extracted CD

Track | Start | Length | Start sector | End sector
––––––––––––––––––––––––––––-
1 | 0:00.00 | 3:02.52 | 0 | 13701
2 | 3:02.52 | 2:13.08 | 13702 | 23684
3 | 5:15.60 | 1:40.00 | 23685 | 31184
4 | 6:55.60 | 5:01.12 | 31185 | 53771
5 | 11:56.72 | 1:05.43 | 53772 | 58689
6 | 13:02.40 | 2:35.07 | 58690 | 70321
7 | 15:37.47 | 2:48.63 | 70322 | 82984
8 | 18:26.35 | 4:17.72 | 82985 | 102331
9 | 22:44.32 | 2:30.28 | 102332 | 113609
10 | 25:14.60 | 2:31.30 | 113610 | 124964
11 | 27:46.15 | 6:19.70 | 124965 | 153459
12 | 34:06.10 | 0:48.67 | 153460 | 157126
13 | 34:55.02 | 2:00.68 | 157127 | 166194
14 | 36:55.70 | 1:28.10 | 166195 | 172804
15 | 38:24.05 | 2:04.40 | 172805 | 182144
16 | 40:28.45 | 3:05.05 | 182145 | 196024
17 | 43:33.50 | 1:53.57 | 196025 | 204556
18 | 45:27.32 | 3:37.35 | 204557 | 220866
19 | 49:04.67 | 3:29.18 | 220867 | 236559


Range status and errors

Selected range

Filename C:\Scanned\1\I Solisti Italiani - Christmas Concertos.wav

Peak level 94.8 %
Extraction speed 5.1 X
Range quality 100.0 %
Copy CRC BABCD80F
Copy OK

No errors occurred


AccurateRip summary

Track 1 accurately ripped (confidence 2) [7A578C2F] (AR v2)
Track 2 accurately ripped (confidence 2) [22F3078A] (AR v2)
Track 3 accurately ripped (confidence 2) [2D481DCA] (AR v2)
Track 4 accurately ripped (confidence 2) [98E1629C] (AR v2)
Track 5 accurately ripped (confidence 2) [31E8889B] (AR v2)
Track 6 accurately ripped (confidence 2) [D3F65223] (AR v2)
Track 7 accurately ripped (confidence 2) [8FF8D498] (AR v2)
Track 8 accurately ripped (confidence 2) [7718FA40] (AR v2)
Track 9 accurately ripped (confidence 2) [805596CD] (AR v2)
Track 10 accurately ripped (confidence 2) [06C37AEF] (AR v2)
Track 11 accurately ripped (confidence 2) [E5C6CF21] (AR v2)
Track 12 accurately ripped (confidence 2) [CA69CEEF] (AR v2)
Track 13 accurately ripped (confidence 2) [3B57AAB9] (AR v2)
Track 14 accurately ripped (confidence 2) [125EF77C] (AR v2)
Track 15 accurately ripped (confidence 2) [E104C08D] (AR v2)
Track 16 accurately ripped (confidence 2) [22B3C8F6] (AR v2)
Track 17 accurately ripped (confidence 2) [432F0E79] (AR v2)
Track 18 accurately ripped (confidence 2) [BAC6FFAC] (AR v2)
Track 19 accurately ripped (confidence 2) [5CCABB72] (AR v2)

All tracks accurately ripped

End of status report

==== Log checksum 8EC046229158A97ED4A92C9D87D5AA114604E900668644845E62A902325D9C10 ====

[CUETools log; Date: 24.12.2017 22:20:10; Version: 2.1.4]
[CTDB TOCID: _rSAuk8GHy0N.Axi6Yx9YpRt0E4-] found.
Track | CTDB Status
1 | (14/14) Accurately ripped
2 | (14/14) Accurately ripped
3 | (14/14) Accurately ripped
4 | (14/14) Accurately ripped
5 | (14/14) Accurately ripped
6 | (14/14) Accurately ripped
7 | (14/14) Accurately ripped
8 | (14/14) Accurately ripped
9 | (14/14) Accurately ripped
10 | (14/14) Accurately ripped
11 | (13/14) Accurately ripped
12 | (14/14) Accurately ripped
13 | (14/14) Accurately ripped
14 | (14/14) Accurately ripped
15 | (14/14) Accurately ripped
16 | (14/14) Accurately ripped
17 | (14/14) Accurately ripped
18 | (14/14) Accurately ripped
19 | (14/14) Accurately ripped
[AccurateRip ID: 0024163d-01f8ef81-120c5213] found.
Track [ CRC | V2 ] Status
01 [5aa8a637|7a578c2f] (00+05/12) Accurately ripped
02 [6179c027|22f3078a] (00+05/13) Accurately ripped
03 [0229809b|2d481dca] (00+05/13) Accurately ripped
04 [98d0dc2d|98e1629c] (00+05/13) Accurately ripped
05 [209c53b4|31e8889b] (00+05/13) Accurately ripped
06 [6b7c7f9b|d3f65223] (00+05/13) Accurately ripped
07 [74b793f1|8ff8d498] (00+05/13) Accurately ripped
08 [0b457682|7718fa40] (00+05/13) Accurately ripped
09 [692d66bc|805596cd] (00+05/13) Accurately ripped
10 [332204db|06c37aef] (00+05/13) Accurately ripped
11 [34c1ca43|e5c6cf21] (00+05/13) Accurately ripped
12 [fba1d569|ca69ceef] (00+05/13) Accurately ripped
13 [7884263e|3b57aab9] (00+05/13) Accurately ripped
14 [3d9d2d41|125ef77c] (00+05/13) Accurately ripped
15 [05904b1f|e104c08d] (00+05/13) Accurately ripped
16 [c1e90ee0|22b3c8f6] (00+05/13) Accurately ripped
17 [7e0d41ce|432f0e79] (00+05/13) Accurately ripped
18 [68b564f2|bac6ffac] (00+05/13) Accurately ripped
19 [2acb53bf|5ccabb72] (00+05/13) Accurately ripped
Offsetted by -853:
01 [447a42bf] (03/12) Accurately ripped
02 [d7981852] (04/13) Accurately ripped
03 [af205dd5] (04/13) Accurately ripped
04 [5c2785d8] (04/13) Accurately ripped
05 [85805b05] (04/13) Accurately ripped
06 [da8bcafc] (04/13) Accurately ripped
07 [e7e3dda1] (04/13) Accurately ripped
08 [da035876] (04/13) Accurately ripped
09 [20938671] (04/13) Accurately ripped
10 [dfc59354] (04/13) Accurately ripped
11 [8f3fc3a9] (04/13) Accurately ripped
12 [b59ca757] (04/13) Accurately ripped
13 [deb50df4] (04/13) Accurately ripped
14 [ab76b804] (04/13) Accurately ripped
15 [e048ee8a] (04/13) Accurately ripped
16 [333550f4] (04/13) Accurately ripped
17 [e391bafc] (04/13) Accurately ripped
18 [2f924049] (04/13) Accurately ripped
19 [c02452ef] (04/13) Accurately ripped
Offsetted by 230:
01 [03da4ef6] (00/12) No match (V2 was not tested)
02 [1edd712c] (00/13) No match (V2 was not tested)
03 [3b6cfd1d] (00/13) No match (V2 was not tested)
04 [735107c6] (00/13) No match (V2 was not tested)
05 [a026ae5c] (00/13) No match (V2 was not tested)
06 [bd183310] (00/13) No match (V2 was not tested)
07 [a9b1f051] (00/13) No match (V2 was not tested)
08 [87d0d4b3] (00/13) No match (V2 was not tested)
09 [baeae1f1] (00/13) No match (V2 was not tested)
10 [15d32d89] (00/13) No match (V2 was not tested)
11 [0e8d372f] (00/13) No match (V2 was not tested)
12 [475c7f2d] (00/13) No match (V2 was not tested)
13 [38a75856] (00/13) No match (V2 was not tested)
14 [4e6c82eb] (00/13) No match (V2 was not tested)
15 [735a48da] (00/13) No match (V2 was not tested)
16 [51ad03f3] (00/13) No match (V2 was not tested)
17 [15f125bc] (00/13) No match (V2 was not tested)
18 [eeaf1d42] (00/13) No match (V2 was not tested)
19 [7444e31f] (00/13) No match (V2 was not tested)

Track Peak [ CRC32 ] [W/O NULL] [ LOG ]
– 94,8 [BABCD80F] [89268911] CRC32
01 84,1 [581D1D59] [E5B47BAD]
02 68,4 [716C04A8] [CCDCBDF1]
03 93,1 [0D19D115] [8C9744BB]
04 91,1 [23B0B544] [631B614C]
05 45,6 [DB92EACD] [5C6FEB56]
06 82,7 [F40B6863] [888EB266]
07 79,1 [2AA35604] [5A56AB03]
08 93,0 [164A1C3B] [FCAF1EB2]
09 53,8 [3BF7835D] [E0901DCD]
10 68,9 [58492801] [16424B0A]
11 73,8 [F9D8D87F] [8D4F678D]
12 33,8 [ABDB5187] [09CFB002]
13 47,5 [65DFCB76] [984E3A4E]
14 86,8 [B41EE65F] [A6810E80]
15 65,1 [9BE299D3] [060B9280]
16 56,8 [621EC2E3] [ACDDAF91]
17 94,8 [AEC4DDDA] [FACF8C0B]
18 71,1 [46140B29] [3129207A]
19 72,8 [4627FDB4] [01F891AE]

foobar2000 1.2 / Dynamic Range Meter 1.1.1
log date: 2017-12-24 22:27:22

––––––––––––––––––––––––––––––––––––––––
Analyzed: I Solisti Italiani / Christmas Concertos
––––––––––––––––––––––––––––––––––––––––

DR Peak RMS Duration Track
––––––––––––––––––––––––––––––––––––––––
DR12 -1.50 dB -18.85 dB 3:03 01-Torelli: Concerto grosso in G minor, Op.8 No.6 - Grave
DR11 -3.29 dB -19.70 dB 2:13 02-Torelli: Concerto grosso in G minor, Op.8 No.6 - Largo
DR13 -0.61 dB -17.23 dB 1:40 03-Torelli: Concerto grosso in G minor, Op.8 No.6 - Vivace
DR13 -0.81 dB -19.67 dB 5:01 04-Vivaldi: Concerto in E major, RV.270 - Allegro (molto moderato)
DR11 -6.81 dB -22.11 dB 1:06 05-Vivaldi: Concerto in E major, RV.270 - Adagio
DR13 -1.64 dB -20.69 dB 2:35 06-Vivaldi: Concerto in E major, RV.270 - Allegro
DR12 -2.03 dB -17.94 dB 2:49 07-Handel: Pifa (Sinfonia Pastorale)
DR12 -0.62 dB -16.71 dB 4:18 08-Manfredini: Concerto grosso in С major, Op.3 No.12 - Largo (Pastorale Per Il Santissimo Natale)
DR11 -5.38 dB -18.60 dB 2:30 09-Manfredini: Concerto grosso in С major, Op.3 No.12 - Largo
DR13 -3.23 dB -19.92 dB 2:31 10-Manfredini: Concerto grosso in С major, Op.3 No.12 - Allegro
DR13 -2.63 dB -19.93 dB 6:20 11-Tartini: Allegro from Concerto in A Major D. 94
DR8 -9.41 dB -21.19 dB 0:49 12-Locatelli: Concerto Grosso in F Major, Op. 1, No. 8 - Largo
DR11 -6.46 dB -20.97 dB 2:01 13-Locatelli: Concerto Grosso in F Major, Op. 1, No. 8 - Grave
DR11 -1.22 dB -15.36 dB 1:28 14-Locatelli: Concerto Grosso in F Major, Op. 1, No. 8 - Vivace
DR11 -3.72 dB -18.81 dB 2:05 15-Locatelli: Concerto Grosso in F Major, Op. 1, No. 8 - Grave
DR13 -4.90 dB -22.44 dB 3:05 16-Locatelli: Concerto Grosso in F Major, Op. 1, No. 8 - Largo andante
DR13 -0.46 dB -16.78 dB 1:54 17-Locatelli: Concerto Grosso in F Major, Op. 1, No. 8 - Andante
DR12 -2.96 dB -18.97 dB 3:37 18-Locatelli: Concerto Grosso in F Major, Op. 1, No. 8 - Pastorale; andante
DR12 -2.75 dB -19.09 dB 3:29 19-Corelli: Concerto Grosso In G Minor, Op. 6, No. 8
––––––––––––––––––––––––––––––––––––––––

Number of tracks: 19
Official DR value: DR12

Samplerate: 44100 Hz
Channels: 2
Bits per sample: 16
Bitrate: 762 kbps
Codec: FLAC
================================================================================

I Solisti Italiani - Christmas Concertos: Torelli, Vivaldi, Handel, Manfredini, Tartini, Locatelli, Corelli (1993) [Repost]

All thanks to original releaser - unrotten

More interesting music in My Blog