Subcategories

Ian Gillan - Naked Thunder (1990) {2003, Reissue}

Posted By: popsakov
Ian Gillan - Naked Thunder (1990) {2003, Reissue}

Ian Gillan - Naked Thunder (1990) {2003, Reissue}
EAC Rip | FLAC (Img) + Cue + Log ~ 323 Mb | MP3 CBR320 ~ 117 Mb
Full Scans (JPG, 300 dpi) ~ 33 Mb | RAR 5% Recovery
Hard Rock | Eagle Records / CD-Maximum #CDM 1103-1552

Naked Thunder is a 1990 solo album by Ian Gillan, released soon after his departure from Deep Purple in 1989. It features a varied selection of songs, with one of Gillan's most passionate and impressive performances on power ballad "Loving on Borrowed Time" and traditional field lament "No More Cane on the Brazos". It was also the first album to feature Ian Gillan's long time writing partner Steve Morris. Naked Thunder was produced by Leif Mases and features a number of notable guest musicians, including drummer Simon Phillips and former Grease Band keyboard player Tommy Eyre.
~ Wiki

The term "rock legend" certainly applies to Ian Gillan. Fronting such bands as Deep Purple and Black Sabbath over the years, he has proved that he has an incredible voice and has been a very influential force in the rock genre. This solo album features both his incredible vocal talents and some fine songwriting. The material varies from hard rock that feels a bit like Deep Purple to more balladic sort of works. In fact, one of the ballads on the disc is an incredibly emotional piece that is one of the best cuts on the CD.
~ Gary Hill, All Music

***************

Ian Gillan - Naked Thunder (1990) {2003, Reissue}

Ian Gillan - Naked Thunder (1990) {2003, Reissue}

Track List:

01. Gut Reaction [3:44]
02. Talking To You [3:37]
03. No Good Luck [4:09]
04. Nothing But The Best [3:42]
05. Loving On Borrowed Time [5:03]
06. Sweet Lolita [3:49]
07. Nothing To Lose [6:14]
08. Moonshine [2:43]
09. Long And Lonely Ride [3:46]
10. Love Gun [3:27]
11. No More Cane On The Brazos [8:14]

Personnel:
Ian Gillan - vocals, harmonica
Steve Morris - bass, guitar, keyboards
Albie Donnelly, Roger Glover - saxophone
Tommy Eyre - keyboards
Chris Glen - bass
Ted McKenna, Simon Phillips - drums
Mick O'Donoghue - guitar
J. Peter Robinson - piano, keyboards
John Gustafson, Carol Kenyon, Dave Lloyd, Harry Shaw - backing vocals
The A-Team Horns - brass

Exact Audio Copy V1.3 from 2. September 2016

EAC extraction logfile from 11. April 2018, 11:21

Ian Gillan / Naked Thunder

Used drive : TSSTcorpCDDVDW SH-224GB Adapter: 1 ID: 0

Read mode : Secure
Utilize accurate stream : Yes
Defeat audio cache : Yes
Make use of C2 pointers : No

Read offset correction : 6
Overread into Lead-In and Lead-Out : No
Fill up missing offset samples with silence : Yes
Delete leading and trailing silent blocks : No
Null samples used in CRC calculations : Yes
Used interface : Native Win32 interface for Win NT & 2000

Used output format : User Defined Encoder
Selected bitrate : 128 kBit/s
Quality : High
Add ID3 tag : No
Command line compressor : C:\Program Files (x86)\Exact Audio Copy\FLAC\FLAC.EXE
Additional command line options : -V -8 -T "Date=%year%" -T "Genre=%genre%" %source%


TOC of the extracted CD

Track | Start | Length | Start sector | End sector
––––––––––––––––––––––––––––-
1 | 0:00.00 | 3:44.15 | 0 | 16814
2 | 3:44.15 | 3:37.22 | 16815 | 33111
3 | 7:21.37 | 4:09.00 | 33112 | 51786
4 | 11:30.37 | 3:42.05 | 51787 | 68441
5 | 15:12.42 | 5:02.63 | 68442 | 91154
6 | 20:15.30 | 3:48.57 | 91155 | 108311
7 | 24:04.12 | 6:13.65 | 108312 | 136351
8 | 30:18.02 | 2:43.30 | 136352 | 148606
9 | 33:01.32 | 3:46.00 | 148607 | 165556
10 | 36:47.32 | 3:27.35 | 165557 | 181116
11 | 40:14.67 | 8:13.68 | 181117 | 218159


Range status and errors

Selected range

Filename F:\ЕАС\rwa12\Ian Gillan - Naked Thunder.wav

Peak level 100.0 %
Extraction speed 2.8 X
Range quality 100.0 %
Test CRC ECEF22C9
Copy CRC ECEF22C9
Copy OK

No errors occurred


AccurateRip summary

Track 1 accurately ripped (confidence 3) [974962EB] (AR v1)
Track 2 accurately ripped (confidence 2) [5D487159] (AR v1)
Track 3 accurately ripped (confidence 2) [BF2966DD] (AR v1)
Track 4 accurately ripped (confidence 2) [DC4C16E3] (AR v1)
Track 5 accurately ripped (confidence 2) [D4DD4296] (AR v1)
Track 6 accurately ripped (confidence 3) [2030E1E8] (AR v1)
Track 7 accurately ripped (confidence 2) [7EC6DE7B] (AR v1)
Track 8 accurately ripped (confidence 2) [83E42E1C] (AR v1)
Track 9 accurately ripped (confidence 2) [166EA1DE] (AR v1)
Track 10 accurately ripped (confidence 2) [1A420BC0] (AR v1)
Track 11 accurately ripped (confidence 2) [AA384D09] (AR v1)

All tracks accurately ripped

End of status report

–– CUETools DB Plugin V2.1.6

[CTDB TOCID: T1gjD5H2zef4An4C9.gxr5x5.Is-] found
Submit result: T1gjD5H2zef4An4C9.gxr5x5.Is- has been confirmed
Track | CTDB Status
1 | (6/6) Accurately ripped
2 | (6/6) Accurately ripped
3 | (6/6) Accurately ripped
4 | (6/6) Accurately ripped
5 | (6/6) Accurately ripped
6 | (6/6) Accurately ripped
7 | (6/6) Accurately ripped
8 | (6/6) Accurately ripped
9 | (6/6) Accurately ripped
10 | (6/6) Accurately ripped
11 | (6/6) Accurately ripped


==== Log checksum 72D035996C037A9D87F4F440B3CA5AD204D60500E78A21739B4465EE5767EB44 ====

foobar2000 1.3.16 / Dynamic Range Meter 1.1.1
log date: 2018-04-23 12:48:57

––––––––––––––––––––––––––––––––––––––––
Analyzed: Ian Gillan / Naked Thunder
––––––––––––––––––––––––––––––––––––––––

DR Peak RMS Duration Track
––––––––––––––––––––––––––––––––––––––––
DR13 -0.24 dB -16.01 dB 3:44 01-Gut Reaction
DR12 -0.22 dB -15.40 dB 3:37 02-Talking To You
DR12 -0.17 dB -14.81 dB 4:09 03-No Good Luck
DR13 0.00 dB -15.06 dB 3:42 04-Nothing But The Best
DR12 -1.53 dB -16.72 dB 5:03 05-Loving On Borrowed Time
DR13 0.00 dB -14.15 dB 3:49 06-Sweet Lolita
DR11 -0.16 dB -13.85 dB 6:14 07-Nothing To Lose
DR12 -0.69 dB -14.54 dB 2:43 08-Moonshine
DR12 -0.85 dB -15.32 dB 3:46 09-Long And Lonely Ride
DR11 0.00 dB -12.39 dB 3:27 10-Love Gun
DR13 0.00 dB -16.28 dB 8:14 11-No More Cane On The Brazos
––––––––––––––––––––––––––––––––––––––––

Number of tracks: 11
Official DR value: DR12

Samplerate: 44100 Hz
Channels: 2
Bits per sample: 16
Bitrate: 885 kbps
Codec: FLAC
================================================================================

[CUETools log; Date: 23.04.2018 12:49:01; Version: 2.1.6]
[CTDB TOCID: T1gjD5H2zef4An4C9.gxr5x5.Is-] found.
Track | CTDB Status
1 | (7/7) Accurately ripped
2 | (7/7) Accurately ripped
3 | (7/7) Accurately ripped
4 | (7/7) Accurately ripped
5 | (7/7) Accurately ripped
6 | (7/7) Accurately ripped
7 | (7/7) Accurately ripped
8 | (7/7) Accurately ripped
9 | (7/7) Accurately ripped
10 | (7/7) Accurately ripped
11 | (7/7) Accurately ripped
[AccurateRip ID: 00129b58-00a2fc97-8a0b5c0b] found.
Track [ CRC | V2 ] Status
01 [974962eb|0b0e2d6e] (3+0/8) Accurately ripped
02 [5d487159|cb6db3b3] (2+0/7) Accurately ripped
03 [bf2966dd|0f57b6b3] (2+0/7) Accurately ripped
04 [dc4c16e3|05cdd0fc] (2+0/7) Accurately ripped
05 [d4dd4296|5c3899fe] (2+0/7) Accurately ripped
06 [2030e1e8|44057928] (3+0/8) Accurately ripped
07 [7ec6de7b|89d0fd85] (2+0/7) Accurately ripped
08 [83e42e1c|ace4d348] (2+0/7) Accurately ripped
09 [166ea1de|e0bb6975] (2+0/7) Accurately ripped
10 [1a420bc0|2057bf0c] (2+0/7) Accurately ripped
11 [aa384d09|99b867d6] (2+0/6) Accurately ripped
Offsetted by 988:
01 [2c315f57] (3/8) Accurately ripped
02 [029d2141] (3/7) Accurately ripped
03 [a09e1675] (3/7) Accurately ripped
04 [5b33fffb] (3/7) Accurately ripped
05 [6a27a0aa] (3/7) Accurately ripped
06 [fc3af9b0] (3/8) Accurately ripped
07 [bb9ebd5b] (3/7) Accurately ripped
08 [0e0d4008] (3/7) Accurately ripped
09 [d67d7e9e] (3/7) Accurately ripped
10 [dc0b03c8] (3/7) Accurately ripped
11 [14a86439] (2/6) Accurately ripped

Track Peak [ CRC32 ] [W/O NULL] [ LOG ]
– 100,0 [ECEF22C9] [0FF1B3FC] CRC32
01 97,3 [48E89C78] [6EC05D4D]
02 97,5 [C454495A] [954CE8F1]
03 98,0 [49FD62D5] [9FD8004F]
04 100,0 [21D7050B] [A21D9F34]
05 83,8 [2CD247FF] [604B622B]
06 100,0 [7A4B7A55] [BCF4812A]
07 98,1 [117BD5BD] [9D4D22E4]
08 92,3 [BE61D3B6] [9968D737]
09 90,7 [166843B0] [B2CFF59A]
10 100,0 [BFB4BC3A] [C9798EB5]
11 100,0 [291328E9] [22C59D73]

Ian Gillan - Naked Thunder (1990) {2003, Reissue}

All thanks go to rwa12

>>> Ian Gillan in my Blog <<<

Download from icerbox.com: