Subcategories
Tags
Language
Tags

Ian Bostridge, Antonio Pappano - Beethoven: Songs and Folksongs (2020)

Posted By: ArlegZ
Ian Bostridge, Antonio Pappano - Beethoven: Songs and Folksongs (2020)

Ian Bostridge, Antonio Pappano - Beethoven: Songs and Folksongs (2020)
EAC | FLAC | Image (Cue & Log) ~ 220 Mb | Total time: 62:05 | Scans included
Classical | Label: Warner Classics | 9029527643 | Recorded: 2019

At the heart of this programme of Beethoven songs performed by Ian Bostridge and Sir Antonio Pappano is the song cycle 'An die ferne Geliebte' (to the distant beloved). Bostridge describes it as 'the distillation of Beethoven as a lover'. Among the other items are the rapturously lyrical 'Adelaide', the sombre 'In questa tomba oscura' and a selection of Beethoven's settings of folksongs from the British Isles, which elicit the participation of violinist Vilde Frang and cellist Nicolas Altstaedt. 'When we all play together,' says Pappano, 'it's like a family making music at home.'

Performer:
Ian Bostridge, tenor
Antonio Pappano, piano
Vilde Frang, violin (18-25)
Nicolas Altstaedt, cello (18-25)

Track List:
An die ferne Geliebte, Op.98
01. Auf dem Hügel sitz ich spähend
02. Wo die Berge so blau
03. Leichte Segler in den Höhen
04. Diese Wolken in den Höhen
05. Es kehret der Maien
06. Nimm sie hin denn, diese Lieder
07. Adelaide, Op.46
4 settings of Sehnsucht, WoO 134
08. 1st Setting
09. 2nd Setting
10. 3rd Setting
11. 4th Setting
12. Aus Goethes 'Faust' (Flohlied), Op.75/3
13. Ich liebe dich (Zärtliche Liebe), WoO 123
14. In questa tomba oscura, WoO 133
15. Maigesang (Mailied), Op.52/4
16. Andenken, WoO 136
17. Resignation, WoO 149
Selected folksong settings
18. The pulse of an Irishman (No.46 in Irish songs)
19. Avenging and bright (O who, my dear Dermot) (No.45 in Irish songs)
20. O Mary, ye’s be clad in silk (No.3 in Scottish songs)
21. The Parting Kiss (No.25 in Welsh songs)
22. The lovely lass of Inverness (No.8 in Scottish songs)
23. The Return to Ulster (No.1 in Irish songs)
24. Come draw we round a cheerful ring (No.8 in Irish songs)
25. Sunset (No.2 in Scottish songs)
26. Marmotte, Op.52/7


Exact Audio Copy V1.5 from 20. February 2020

EAC extraction logfile from 16. November 2020, 21:27

Ian Bostridge, Antonio Pappano / Beethoven - Songs and Folksongs

Used drive : ASUS SDRW-08U7M-U Adapter: 1 ID: 0

Read mode : Secure
Utilize accurate stream : Yes
Defeat audio cache : Yes
Make use of C2 pointers : No

Read offset correction : 6
Overread into Lead-In and Lead-Out : No
Fill up missing offset samples with silence : Yes
Delete leading and trailing silent blocks : No
Null samples used in CRC calculations : Yes
Used interface : Native Win32 interface for Win NT & 2000

Used output format : User Defined Encoder
Selected bitrate : 128 kBit/s
Quality : High
Add ID3 tag : No
Command line compressor : C:\Program Files (x86)\Exact Audio Copy\Flac\flac.exe
Additional command line options : -V -8 -T "Date=%year%" -T "Genre=%genre%" %source%


TOC of the extracted CD

Track | Start | Length | Start sector | End sector
––––––––––––––––––––––––––––-
1 | 0:00.00 | 2:37.39 | 0 | 11813
2 | 2:37.39 | 1:42.31 | 11814 | 19494
3 | 4:19.70 | 1:38.08 | 19495 | 26852
4 | 5:58.03 | 0:57.11 | 26853 | 31138
5 | 6:55.14 | 2:36.05 | 31139 | 42843
6 | 9:31.19 | 3:51.04 | 42844 | 60172
7 | 13:22.23 | 5:24.64 | 60173 | 84536
8 | 18:47.12 | 0:55.03 | 84537 | 88664
9 | 19:42.15 | 0:59.08 | 88665 | 93097
10 | 20:41.23 | 1:31.47 | 93098 | 99969
11 | 22:12.70 | 1:38.30 | 99970 | 107349
12 | 23:51.25 | 1:55.18 | 107350 | 115992
13 | 25:46.43 | 2:03.14 | 115993 | 125231
14 | 27:49.57 | 3:09.31 | 125232 | 139437
15 | 30:59.13 | 1:55.18 | 139438 | 148080
16 | 32:54.31 | 2:24.21 | 148081 | 158901
17 | 35:18.52 | 2:33.09 | 158902 | 170385
18 | 37:51.61 | 2:10.74 | 170386 | 180209
19 | 40:02.60 | 2:22.00 | 180210 | 190859
20 | 42:24.60 | 1:47.64 | 190860 | 198948
21 | 44:12.49 | 3:07.03 | 198949 | 212976
22 | 47:19.52 | 3:15.08 | 212977 | 227609
23 | 50:34.60 | 5:34.24 | 227610 | 252683
24 | 56:09.09 | 1:24.02 | 252684 | 258985
25 | 57:33.11 | 2:37.21 | 258986 | 270781
26 | 60:10.32 | 1:54.68 | 270782 | 279399


Range status and errors

Selected range

Filename C:\temp\Beethoven - Songs and Folksongs - Bostridge, Pappano - 2020\Beethoven - Songs and Folksongs.wav

Peak level 96.3 %
Extraction speed 4.7 X
Range quality 100.0 %
Test CRC E2B0BBC2
Copy CRC E2B0BBC2
Copy OK

No errors occurred


AccurateRip summary

Track 1 accurately ripped (confidence 3) [F9943031] (AR v2)
Track 2 accurately ripped (confidence 3) [B168F1EA] (AR v2)
Track 3 accurately ripped (confidence 3) [B63A893A] (AR v2)
Track 4 accurately ripped (confidence 3) [FB80CE17] (AR v2)
Track 5 accurately ripped (confidence 3) [03503CFC] (AR v2)
Track 6 accurately ripped (confidence 3) [135C3AF8] (AR v2)
Track 7 accurately ripped (confidence 3) [B58EF0CA] (AR v2)
Track 8 accurately ripped (confidence 3) [43378DE8] (AR v2)
Track 9 accurately ripped (confidence 3) [51168A25] (AR v2)
Track 10 accurately ripped (confidence 3) [3A1975C2] (AR v2)
Track 11 accurately ripped (confidence 3) [1EE1488A] (AR v2)
Track 12 accurately ripped (confidence 3) [F676147A] (AR v2)
Track 13 accurately ripped (confidence 3) [244E8ABC] (AR v2)
Track 14 accurately ripped (confidence 3) [BAD39DAE] (AR v2)
Track 15 accurately ripped (confidence 3) [114F81FB] (AR v2)
Track 16 accurately ripped (confidence 3) [96E01BAD] (AR v2)
Track 17 accurately ripped (confidence 3) [91DBF4EA] (AR v2)
Track 18 accurately ripped (confidence 3) [334322FF] (AR v2)
Track 19 accurately ripped (confidence 3) [42CA24D2] (AR v2)
Track 20 accurately ripped (confidence 3) [4D3A43EB] (AR v2)
Track 21 accurately ripped (confidence 3) [DE9A3A1F] (AR v2)
Track 22 accurately ripped (confidence 3) [8CA40AF5] (AR v2)
Track 23 accurately ripped (confidence 3) [CD3DBE8B] (AR v2)
Track 24 accurately ripped (confidence 3) [485E883E] (AR v2)
Track 25 accurately ripped (confidence 3) [24584409] (AR v2)
Track 26 accurately ripped (confidence 3) [227DE696] (AR v2)

All tracks accurately ripped

End of status report

==== Log checksum 1869FD07DC6D6885A555032F6985E2FFED13F4C5D43B4264A3ADEC74189B6903 ====

Ian Bostridge, Antonio Pappano - Beethoven: Songs and Folksongs (2020)

Thanks to the original releaser