Subcategories

Ibio - Cuevas De Altamira (1978) [Reissue 2003]

Posted By: gribovar
Ibio - Cuevas De Altamira (1978) [Reissue 2003]

Ibio - Cuevas De Altamira (1978) [Reissue 2003]
XLD Rip | FLAC (tracks+.cue+log) - 253 MB | MP3 CBR 320 kbps (LAME 3.93) - 94 MB | Covers (12 MB) included
Genre: Progressive Rock, Prog-Folk | RAR 3% Rec. | Label: Dro East West (5046703312)

Deftly mixing equal parts of folk and symphonic prog is what this Spanish band does best. The Strawbs did it with English folk whereas Ibio stress their Spanish roots; however, the comparison stops here as their musical styles have absolutely nothing in common. This quartet from Cantabria (land of the famous Caves of Altamira) released only one LP back in 1978 and then mysteriously disappeared. Despite some Italian symphonic overtones brought on by the lush keyboard work, the mostly instrumental album "Cuevas de Altamira" never lets you forget its Iberian origins: typical Spanish melodies with a generally upbeat tempo, strong presence of the acoustic guitar and a few but emphatic vocals (perhaps a little overwrought for some tastes). The abundance of moog, synths and mellotron, the complex drumming and the mildly distorted and phased electric guitar make it a 100% prog album.

Tracklist:
01. Cuevas De Altamira
02. Romance Del Conde Lara
03. La Virulencia Del Ferrocarril
04. Las Chicas De Laredo
05. A Lo Alto Y A Lo Bajo
06. Pastor
07. La Baila De Ibio

Total time: 34:46

X Lossless Decoder version 20110703 (135.1)

XLD extraction logfile from 2011-07-05 18:42:31 +0100

Ibio / Cuevas de Altamira

Used drive : TSSTcorp CDDVDW SE-S224Q (revision TS02)

Ripper mode : XLD Secure Ripper
Disable audio cache : OK for the drive with a cache less than 1375KiB
Make use of C2 pointers : NO
Read offset correction : 6
Max retry count : 100
Gap status : Analyzed, Appended

TOC of the extracted CD
Track | Start | Length | Start sector | End sector
––––––––––––––––––––––––––––-
1 | 00:00:00 | 05:38:28 | 0 | 25377
2 | 05:38:28 | 02:35:38 | 25378 | 37040
3 | 08:13:66 | 06:02:50 | 37041 | 64240
4 | 14:16:41 | 03:23:29 | 64241 | 79494
5 | 17:39:70 | 03:11:04 | 79495 | 93823
6 | 20:50:74 | 06:10:09 | 93824 | 121582
7 | 27:01:08 | 07:45:05 | 121583 | 156462

AccurateRip Summary
Track 01 : OK (confidence 1)
Track 02 : OK (confidence 1)
Track 03 : OK (confidence 1)
Track 04 : OK (confidence 1)
Track 05 : OK (confidence 1)
Track 06 : OK (confidence 1)
Track 07 : OK (confidence 1)
->All tracks accurately ripped.

All Tracks
Album gain : -9.09 dB
Peak : 0.999969
Statistics
Read error : 0
Jitter error (maybe fixed) : 0
Retry sector count : 0
Damaged sector count : 0

Track 01
Filename : /Users/pacopil/Desktop/Ibio - Cuevas de Altamira [FLAC]/Ibio - Cuevas de Altamira [FLAC]/01 Cuevas de Altamira.flac
Pre-gap length : 00:02:00

Track gain : -8.61 dB
Peak : 0.999969
CRC32 hash (test run) : AEC79741
CRC32 hash : AEC79741
CRC32 hash (skip zero) : 054F9B26
AccurateRip signature : FA711E1C
->Accurately ripped! (confidence 1)
Statistics
Read error : 0
Jitter error (maybe fixed) : 0
Retry sector count : 0
Damaged sector count : 0

Track 02
Filename : /Users/pacopil/Desktop/Ibio - Cuevas de Altamira [FLAC]/Ibio - Cuevas de Altamira [FLAC]/02 Romance del Conde Lara.flac
Pre-gap length : 00:01:47

Track gain : -9.33 dB
Peak : 0.999969
CRC32 hash (test run) : 8A0A1BAB
CRC32 hash : 8A0A1BAB
CRC32 hash (skip zero) : 07C3F30F
AccurateRip signature : 3D4DA410
->Accurately ripped! (confidence 1)
Statistics
Read error : 0
Jitter error (maybe fixed) : 0
Retry sector count : 0
Damaged sector count : 0

Track 03
Filename : /Users/pacopil/Desktop/Ibio - Cuevas de Altamira [FLAC]/Ibio - Cuevas de Altamira [FLAC]/03 La virulencia del ferrocarril.flac
Pre-gap length : 00:01:13

Track gain : -8.65 dB
Peak : 0.999969
CRC32 hash (test run) : B9013A17
CRC32 hash : B9013A17
CRC32 hash (skip zero) : 65D276B8
AccurateRip signature : A0FA5BD3
->Accurately ripped! (confidence 1)
Statistics
Read error : 0
Jitter error (maybe fixed) : 0
Retry sector count : 0
Damaged sector count : 0

Track 04
Filename : /Users/pacopil/Desktop/Ibio - Cuevas de Altamira [FLAC]/Ibio - Cuevas de Altamira [FLAC]/04 Las chicas de Laredo.flac
Pre-gap length : 00:01:49

Track gain : -9.58 dB
Peak : 0.999969
CRC32 hash (test run) : 8496EDC4
CRC32 hash : 8496EDC4
CRC32 hash (skip zero) : 8C21CC38
AccurateRip signature : 26396359
->Accurately ripped! (confidence 1)
Statistics
Read error : 0
Jitter error (maybe fixed) : 0
Retry sector count : 0
Damaged sector count : 0

Track 05
Filename : /Users/pacopil/Desktop/Ibio - Cuevas de Altamira [FLAC]/Ibio - Cuevas de Altamira [FLAC]/05 A lo alto y a lo bajo.flac
Pre-gap length : 00:01:56

Track gain : -7.27 dB
Peak : 0.999969
CRC32 hash (test run) : 00A7CDCF
CRC32 hash : 00A7CDCF
CRC32 hash (skip zero) : D31C01E7
AccurateRip signature : E6E6EE83
->Accurately ripped! (confidence 1)
Statistics
Read error : 0
Jitter error (maybe fixed) : 0
Retry sector count : 0
Damaged sector count : 0

Track 06
Filename : /Users/pacopil/Desktop/Ibio - Cuevas de Altamira [FLAC]/Ibio - Cuevas de Altamira [FLAC]/06 Pastor.flac
Pre-gap length : 00:01:48

Track gain : -7.27 dB
Peak : 0.999969
CRC32 hash (test run) : 9586DF2F
CRC32 hash : 9586DF2F
CRC32 hash (skip zero) : 6C6EEB70
AccurateRip signature : 3E97FE0E
->Accurately ripped! (confidence 1)
Statistics
Read error : 0
Jitter error (maybe fixed) : 0
Retry sector count : 0
Damaged sector count : 0

Track 07
Filename : /Users/pacopil/Desktop/Ibio - Cuevas de Altamira [FLAC]/Ibio - Cuevas de Altamira [FLAC]/07 La Baila De Ibio.flac
Pre-gap length : 00:01:53

Track gain : -9.61 dB
Peak : 0.999969
CRC32 hash (test run) : FEF26C62
CRC32 hash : FEF26C62
CRC32 hash (skip zero) : F0D0BDFF
AccurateRip signature : 32C8D4A9
->Accurately ripped! (confidence 1)
Statistics
Read error : 0
Jitter error (maybe fixed) : 0
Retry sector count : 0
Damaged sector count : 0

No errors occurred

End of status report

[CUETools log; Date: 15.04.2018 2:07:03; Version: 2.1.4]
[CTDB TOCID: 8oq_Qg9qj1B.9.PgYQp2atkqCOI-] found.
Track | CTDB Status
1 | (3/3) Accurately ripped
2 | (3/3) Accurately ripped
3 | (3/3) Accurately ripped
4 | (3/3) Accurately ripped
5 | (3/3) Accurately ripped
6 | (3/3) Accurately ripped
7 | (3/3) Accurately ripped
[AccurateRip ID: 0008d1e9-003521c0-4e082607] found.
Track [ CRC | V2 ] Status
01 [fa711e1c|fce810d8] (1+1/2) Accurately ripped
02 [3d4da410|3a7f1b76] (1+1/2) Accurately ripped
03 [a0fa5bd3|27131125] (1+1/2) Accurately ripped
04 [26396359|d04a19d9] (1+1/2) Accurately ripped
05 [e6e6ee83|cc66678b] (1+1/2) Accurately ripped
06 [3e97fe0e|fbe88e40] (1+1/2) Accurately ripped
07 [32c8d4a9|ad51edb1] (1+1/2) Accurately ripped

Track Peak [ CRC32 ] [W/O NULL]
– 99,9 [F254B1B4] [D8075EA0]
01 99,9 [AEC79741] [054F9B26]
02 99,9 [8A0A1BAB] [07C3F30F]
03 99,9 [B9013A17] [65D276B8]
04 99,9 [8496EDC4] [8C21CC38]
05 99,9 [00A7CDCF] [D31C01E7]
06 99,9 [9586DF2F] [6C6EEB70]
07 99,9 [FEF26C62] [F0D0BDFF]

Thanks to Alcachofa