Subcategories
Tags
Language
Tags

Igor Levit - Beethoven: Complete Piano Sonatas [9 CDs] (2019)

Posted By: ArlegZ
Igor Levit - Beethoven: Complete Piano Sonatas [9 CDs] (2019)

Igor Levit - Beethoven: Complete Piano Sonatas (2019)
EAC | FLAC | Image (Cue & Log) ~ 1,53 Gb | Total time: 10 hours 5 min | Scans included
Classical | Label: Sony Classical | # 19075843182 | Recorded: 2013-2019

Igor Levit - the recent recipient of the prestigious Gilmore Artist Award and the Royal Philharmonic Society’s “Instrumentalist of the Year”- has now completed the recording of all 32 sonatas of Ludwig van Beethoven. In September 2019 this mammoth studio-recording project will finally be released and leads the way for important new releases on Sony Classical for Beethoven’s 250-year anniversary.
Igor Levit, exclusive artist with Sony Classical says: "For me, this recording is a conclusion of my past fifteen years. The literally life-changing encounter with the Diabelli Variations at the age of 17, which is effectively still ongoing, the daily engagement with Beethoven's sonatas, with Beethoven as a person, with myself, with the world in which I live - all that has also led to this recording. What I started in 2013 with the last five sonatas, I can now conclude. It fills me with great happiness and at the same time feels like a new beginning. " Per Hauber, Managing Director Sony Classical says: “Every release of Igor Levit is an event in itself. That this major release is now spearheading the Beethoven anniversary celebrations will, we anticipate, launch the global festivities commemorating one of humanity’s most important artistic figures. To accompany Igor Levit on this long and wonderful path to his complete recording of the Beethoven Sonatas was an unforgettable experience for all of us at Sony Classical.”

Performer:
Igor Levit, piano

Track List:
CD1:
01-04. Piano Sonata No. 1 in F minor, Op. 2 No. 1
05-08. Piano Sonata No. 2 in A major, Op. 2 No. 2
09-12. Piano Sonata No. 3 in C major, Op. 2 No. 3
CD2:
01-04. Piano Sonata No. 4 in E flat major, Op. 7
05-07. Piano Sonata No. 5 in C minor, Op. 10 No. 1
08-10. Piano Sonata No. 6 in F major, Op. 10 No. 2
11-14. Piano Sonata No. 7 in D major, Op. 10 No. 3
CD3:
01-03. Piano Sonata No. 8 in C minor, Op. 13 'Pathétique'
04-06. Piano Sonata No. 9 in E major, Op. 14 No. 1
07-09. Piano Sonata No. 10 in G major, Op. 14 No. 2
10-13. Piano Sonata No. 11 in B flat major, Op. 22
CD4:
01-04. Piano Sonata No. 12 in A flat major, Op. 26 'March Funèbre'
05-08. Piano Sonata No. 13 in E flat major, Op. 27 No. 1 'Quasi una fantasia'
09-11. Piano Sonata No. 14 in C sharp minor, Op. 27 No. 2 ‘Moonlight'
12-15. Piano Sonata No. 15 in D major, Op. 28 'Pastorale'
CD5:
01-03. Piano Sonata No. 16 in G major, Op. 31 No. 1
04-06. Piano Sonata No. 17 in D minor, Op. 31 No. 2 'Tempest'
07-10. Piano Sonata No. 18 in E flat major, Op. 31 No. 3 'The Hunt'
CD6:
01-02. Piano Sonata No. 19 in G minor, Op. 49 No. 1
03-04. Piano Sonata No. 20 in G major, Op. 49 No. 2
05-07. Piano Sonata No. 21 in C major, Op. 53 'Waldstein'
08-09. Piano Sonata No. 22 in F major, Op. 54
10-12. Piano Sonata No. 23 in F minor, Op. 57 'Appassionata'
CD7:
01-02. Piano Sonata No. 24 in F sharp major, Op. 78
03-05. Piano Sonata No. 25 in G major, Op. 79
06-08. Piano Sonata No. 26 in E flat major, Op. 81a 'Les Adieux'
09-10. Piano Sonata No. 27 in E minor, Op. 90
CD8:
01-04. Piano Sonata No. 28 in A major, Op. 101
05-08. Piano Sonata No. 29 in B-flat major, Op. 106 'Hammerklavier'
CD9:
01-03. Piano Sonata No. 30 in E major, Op. 109
04-06. Piano Sonata No. 31 in A flat major, Op. 110
07-08. Piano Sonata No. 32 in C minor, Op. 111



Exact Audio Copy V1.6 from 23. October 2020

EAC extraction logfile from 3. June 2021, 11:34

Igor Levit / Beethoven: The Complete Piano Sonatas (Disc 1)

Used drive : HL-DT-STDVDRAM GH24NSD5 Adapter: 1 ID: 0

Read mode : Secure
Utilize accurate stream : Yes
Defeat audio cache : Yes
Make use of C2 pointers : No

Read offset correction : 6
Overread into Lead-In and Lead-Out : No
Fill up missing offset samples with silence : Yes
Delete leading and trailing silent blocks : No
Null samples used in CRC calculations : Yes
Used interface : Native Win32 interface for Win NT & 2000

Used output format : User Defined Encoder
Selected bitrate : 1024 kBit/s
Quality : High
Add ID3 tag : No
Command line compressor : C:\Program Files (x86)\Exact Audio Copy\FLAC\FLAC.EXE
Additional command line options : -6 -V -T "ARTIST=%artist%" -T "TITLE=%title%" -T "ALBUM=%albumtitle%" -T "DATE=%year%" -T "TRACKNUMBER=%tracknr%" -T "GENRE=%genre%" -T "COMMENT=%comment%" -T "BAND=%albuminterpret%" -T "ALBUMARTIST=%albuminterpret%" -T "COMPOSER=%composer%" %haslyrics%–tag-from-file=LYRICS="%lyricsfile%"%haslyrics% -T "DISCNUMBER=%cdnumber%" -T "TOTALDISCS=%totalcds%" -T "TOTALTRACKS=%numtracks%" %hascover%–picture="%coverfile%"%hascover% %source% -o %dest%


TOC of the extracted CD

Track | Start | Length | Start sector | End sector
––––––––––––––––––––––––––––-
1 | 0:00.00 | 3:41.67 | 0 | 16641
2 | 3:41.67 | 5:07.41 | 16642 | 39707
3 | 8:49.33 | 2:50.20 | 39708 | 52477
4 | 11:39.53 | 4:36.45 | 52478 | 73222
5 | 16:16.23 | 6:36.66 | 73223 | 102988
6 | 22:53.14 | 7:14.50 | 102989 | 135588
7 | 30:07.64 | 3:12.45 | 135589 | 150033
8 | 33:20.34 | 5:50.40 | 150034 | 176323
9 | 39:10.74 | 9:40.10 | 176324 | 219833
10 | 48:51.09 | 7:47.33 | 219834 | 254891
11 | 56:38.42 | 3:04.52 | 254892 | 268743
12 | 59:43.19 | 5:15.29 | 268744 | 292397


Range status and errors

Selected range

Filename I:\Rips\Beethoven - Complete Piano Sonatas - Levit\CD 1\Igor Levit - Beethoven- The Complete Piano Sonatas (Disc 1).wav

Peak level 98.0 %
Extraction speed 7.6 X
Range quality 99.9 %
Test CRC C9ACA7B0
Copy CRC C9ACA7B0
Copy OK

No errors occurred


AccurateRip summary

Track 1 accurately ripped (confidence 37) [114E90C5] (AR v2)
Track 2 accurately ripped (confidence 37) [3CDD6889] (AR v2)
Track 3 accurately ripped (confidence 37) [2B3C64E8] (AR v2)
Track 4 accurately ripped (confidence 37) [6FD722D6] (AR v2)
Track 5 accurately ripped (confidence 37) [E0A2551D] (AR v2)
Track 6 accurately ripped (confidence 37) [41FA195D] (AR v2)
Track 7 accurately ripped (confidence 37) [4DDD321B] (AR v2)
Track 8 accurately ripped (confidence 37) [D72CFE74] (AR v2)
Track 9 accurately ripped (confidence 37) [647E52DC] (AR v2)
Track 10 accurately ripped (confidence 37) [18BCD78F] (AR v2)
Track 11 accurately ripped (confidence 37) [0F77EB5F] (AR v2)
Track 12 accurately ripped (confidence 38) [308DAF21] (AR v2)

All tracks accurately ripped

End of status report

–– CUETools DB Plugin V2.1.6

[CTDB TOCID: xDPLHez4hllFSex2xB96n74U3AI-] found
Submit result: xDPLHez4hllFSex2xB96n74U3AI- has been confirmed
Track | CTDB Status
1 | (259/260) Accurately ripped
2 | (259/260) Accurately ripped
3 | (259/260) Accurately ripped
4 | (256/260) Accurately ripped
5 | (259/260) Accurately ripped
6 | (258/260) Accurately ripped
7 | (257/260) Accurately ripped
8 | (258/260) Accurately ripped
9 | (257/260) Accurately ripped
10 | (258/260) Accurately ripped
11 | (258/260) Accurately ripped
12 | (257/260) Accurately ripped


==== Log checksum 85EF8078F2F6C5386A68E2ECE43D29EDA8C3120F858FB47579D9CD5FC7E7493D ====


Exact Audio Copy V1.6 from 23. October 2020

EAC extraction logfile from 3. June 2021, 11:58

Igor Levit / Beethoven: The Complete Piano Sonatas (Disc 2)

Used drive : HL-DT-STDVDRAM GH24NSD5 Adapter: 1 ID: 0

Read mode : Secure
Utilize accurate stream : Yes
Defeat audio cache : Yes
Make use of C2 pointers : No

Read offset correction : 6
Overread into Lead-In and Lead-Out : No
Fill up missing offset samples with silence : Yes
Delete leading and trailing silent blocks : No
Null samples used in CRC calculations : Yes
Used interface : Native Win32 interface for Win NT & 2000

Used output format : User Defined Encoder
Selected bitrate : 1024 kBit/s
Quality : High
Add ID3 tag : No
Command line compressor : C:\Program Files (x86)\Exact Audio Copy\FLAC\FLAC.EXE
Additional command line options : -6 -V -T "ARTIST=%artist%" -T "TITLE=%title%" -T "ALBUM=%albumtitle%" -T "DATE=%year%" -T "TRACKNUMBER=%tracknr%" -T "GENRE=%genre%" -T "COMMENT=%comment%" -T "BAND=%albuminterpret%" -T "ALBUMARTIST=%albuminterpret%" -T "COMPOSER=%composer%" %haslyrics%–tag-from-file=LYRICS="%lyricsfile%"%haslyrics% -T "DISCNUMBER=%cdnumber%" -T "TOTALDISCS=%totalcds%" -T "TOTALTRACKS=%numtracks%" %hascover%–picture="%coverfile%"%hascover% %source% -o %dest%


TOC of the extracted CD

Track | Start | Length | Start sector | End sector
––––––––––––––––––––––––––––-
1 | 0:00.00 | 7:16.30 | 0 | 32729
2 | 7:16.30 | 9:37.05 | 32730 | 76009
3 | 16:53.35 | 4:44.69 | 76010 | 97378
4 | 21:38.29 | 6:21.00 | 97379 | 125953
5 | 27:59.29 | 4:57.28 | 125954 | 148256
6 | 32:56.57 | 8:04.50 | 148257 | 184606
7 | 41:01.32 | 4:10.00 | 184607 | 203356
8 | 45:11.32 | 5:16.09 | 203357 | 227065
9 | 50:27.41 | 3:17.68 | 227066 | 241908
10 | 53:45.34 | 2:14.59 | 241909 | 252017
11 | 56:00.18 | 6:07.11 | 252018 | 279553
12 | 62:07.29 | 10:11.62 | 279554 | 325440
13 | 72:19.16 | 2:27.65 | 325441 | 336530
14 | 74:47.06 | 3:45.52 | 336531 | 353457


Range status and errors

Selected range

Filename I:\Rips\Beethoven - Complete Piano Sonatas - Levit\CD 2\Igor Levit - Beethoven- The Complete Piano Sonatas (Disc 2).wav

Peak level 89.7 %
Extraction speed 8.0 X
Range quality 99.9 %
Test CRC 3912D652
Copy CRC 3912D652
Copy OK

No errors occurred


AccurateRip summary

Track 1 accurately ripped (confidence 36) [1338A02B] (AR v2)
Track 2 accurately ripped (confidence 37) [991306ED] (AR v2)
Track 3 accurately ripped (confidence 37) [CB002B5D] (AR v2)
Track 4 accurately ripped (confidence 37) [C1183109] (AR v2)
Track 5 accurately ripped (confidence 37) [BFDC92EA] (AR v2)
Track 6 accurately ripped (confidence 37) [03531440] (AR v2)
Track 7 accurately ripped (confidence 37) [A4CCB310] (AR v2)
Track 8 accurately ripped (confidence 37) [DB13849A] (AR v2)
Track 9 accurately ripped (confidence 37) [3CF14B11] (AR v2)
Track 10 accurately ripped (confidence 37) [7B4EC619] (AR v2)
Track 11 accurately ripped (confidence 37) [6372B50A] (AR v2)
Track 12 accurately ripped (confidence 36) [BFD1792E] (AR v2)
Track 13 accurately ripped (confidence 36) [65A03BE5] (AR v2)
Track 14 accurately ripped (confidence 37) [5E25AA84] (AR v2)

All tracks accurately ripped

End of status report

–– CUETools DB Plugin V2.1.6

[CTDB TOCID: 1od93WaI5qmoinUk934jJ.QTmr8-] found
Submit result: 1od93WaI5qmoinUk934jJ.QTmr8- has been confirmed
Track | CTDB Status
1 | (243/245) Accurately ripped
2 | (243/245) Accurately ripped
3 | (243/245) Accurately ripped
4 | (243/245) Accurately ripped
5 | (243/245) Accurately ripped
6 | (243/245) Accurately ripped
7 | (243/245) Accurately ripped
8 | (243/245) Accurately ripped
9 | (243/245) Accurately ripped
10 | (243/245) Accurately ripped
11 | (243/245) Accurately ripped
12 | (242/245) Accurately ripped
13 | (242/245) Accurately ripped
14 | (239/245) Accurately ripped


==== Log checksum A9EC1F34985EAEAA4799768E84670B1E760684686947B20EF119D4F02001D769 ====


Exact Audio Copy V1.6 from 23. October 2020

EAC extraction logfile from 3. June 2021, 12:18

Igor Levit / Beethoven: The Complete Piano Sonatas (Disc 3)

Used drive : HL-DT-STDVDRAM GH24NSD5 Adapter: 1 ID: 0

Read mode : Secure
Utilize accurate stream : Yes
Defeat audio cache : Yes
Make use of C2 pointers : No

Read offset correction : 6
Overread into Lead-In and Lead-Out : No
Fill up missing offset samples with silence : Yes
Delete leading and trailing silent blocks : No
Null samples used in CRC calculations : Yes
Used interface : Native Win32 interface for Win NT & 2000

Used output format : User Defined Encoder
Selected bitrate : 1024 kBit/s
Quality : High
Add ID3 tag : No
Command line compressor : C:\Program Files (x86)\Exact Audio Copy\FLAC\FLAC.EXE
Additional command line options : -6 -V -T "ARTIST=%artist%" -T "TITLE=%title%" -T "ALBUM=%albumtitle%" -T "DATE=%year%" -T "TRACKNUMBER=%tracknr%" -T "GENRE=%genre%" -T "COMMENT=%comment%" -T "BAND=%albuminterpret%" -T "ALBUMARTIST=%albuminterpret%" -T "COMPOSER=%composer%" %haslyrics%–tag-from-file=LYRICS="%lyricsfile%"%haslyrics% -T "DISCNUMBER=%cdnumber%" -T "TOTALDISCS=%totalcds%" -T "TOTALTRACKS=%numtracks%" %hascover%–picture="%coverfile%"%hascover% %source% -o %dest%


TOC of the extracted CD

Track | Start | Length | Start sector | End sector
––––––––––––––––––––––––––––-
1 | 0:00.00 | 8:38.66 | 0 | 38915
2 | 8:38.66 | 5:03.21 | 38916 | 61661
3 | 13:42.12 | 4:11.40 | 61662 | 80526
4 | 17:53.52 | 6:13.21 | 80527 | 108522
5 | 24:06.73 | 3:00.53 | 108523 | 122075
6 | 27:07.51 | 3:04.62 | 122076 | 135937
7 | 30:12.38 | 6:54.74 | 135938 | 167061
8 | 37:07.37 | 5:43.53 | 167062 | 192839
9 | 42:51.15 | 3:32.13 | 192840 | 208752
10 | 46:23.28 | 7:18.39 | 208753 | 241641
11 | 53:41.67 | 8:50.04 | 241642 | 281395
12 | 62:31.71 | 3:25.14 | 281396 | 296784
13 | 65:57.10 | 6:07.52 | 296785 | 324361


Range status and errors

Selected range

Filename I:\Rips\Beethoven - Complete Piano Sonatas - Levit\CD 3\Igor Levit - Beethoven- The Complete Piano Sonatas (Disc 3).wav

Peak level 98.0 %
Extraction speed 7.9 X
Range quality 100.0 %
Test CRC 1C642F41
Copy CRC 1C642F41
Copy OK

No errors occurred


AccurateRip summary

Track 1 accurately ripped (confidence 37) [AFDEA9D3] (AR v2)
Track 2 accurately ripped (confidence 37) [7DEBDF53] (AR v2)
Track 3 accurately ripped (confidence 37) [E5812EC5] (AR v2)
Track 4 accurately ripped (confidence 37) [B2648201] (AR v2)
Track 5 accurately ripped (confidence 37) [F34BC2F2] (AR v2)
Track 6 accurately ripped (confidence 37) [4245AF4D] (AR v2)
Track 7 accurately ripped (confidence 37) [EC8D9EB4] (AR v2)
Track 8 accurately ripped (confidence 37) [58B3AD6C] (AR v2)
Track 9 accurately ripped (confidence 37) [0783246F] (AR v2)
Track 10 accurately ripped (confidence 37) [B54CA370] (AR v2)
Track 11 accurately ripped (confidence 37) [1DB95145] (AR v2)
Track 12 accurately ripped (confidence 37) [3482D106] (AR v2)
Track 13 accurately ripped (confidence 37) [DC85AD8A] (AR v2)

All tracks accurately ripped

End of status report

–– CUETools DB Plugin V2.1.6

[CTDB TOCID: nYYgX_2i3iXwQpVaZ5fYcu6doyQ-] found
Submit result: nYYgX_2i3iXwQpVaZ5fYcu6doyQ- has been confirmed
Track | CTDB Status
1 | (237/238) Accurately ripped
2 | (237/238) Accurately ripped
3 | (237/238) Accurately ripped
4 | (237/238) Accurately ripped
5 | (237/238) Accurately ripped
6 | (237/238) Accurately ripped
7 | (237/238) Accurately ripped
8 | (237/238) Accurately ripped
9 | (237/238) Accurately ripped
10 | (237/238) Accurately ripped
11 | (237/238) Accurately ripped
12 | (237/238) Accurately ripped
13 | (236/238) Accurately ripped


==== Log checksum 2558AACB3658D33953AF24C98C3BC29A7D747DCC9726002DDFC64E6D0BDFF6A2 ====


Exact Audio Copy V1.6 from 23. October 2020

EAC extraction logfile from 3. June 2021, 12:46

Igor Levit / Beethoven: The Complete Piano Sonatas (Disc 4)

Used drive : HL-DT-STDVDRAM GH24NSD5 Adapter: 1 ID: 0

Read mode : Secure
Utilize accurate stream : Yes
Defeat audio cache : Yes
Make use of C2 pointers : No

Read offset correction : 6
Overread into Lead-In and Lead-Out : No
Fill up missing offset samples with silence : Yes
Delete leading and trailing silent blocks : No
Null samples used in CRC calculations : Yes
Used interface : Native Win32 interface for Win NT & 2000

Used output format : User Defined Encoder
Selected bitrate : 1024 kBit/s
Quality : High
Add ID3 tag : No
Command line compressor : C:\Program Files (x86)\Exact Audio Copy\FLAC\FLAC.EXE
Additional command line options : -6 -V -T "ARTIST=%artist%" -T "TITLE=%title%" -T "ALBUM=%albumtitle%" -T "DATE=%year%" -T "TRACKNUMBER=%tracknr%" -T "GENRE=%genre%" -T "COMMENT=%comment%" -T "BAND=%albuminterpret%" -T "ALBUMARTIST=%albuminterpret%" -T "COMPOSER=%composer%" %haslyrics%–tag-from-file=LYRICS="%lyricsfile%"%haslyrics% -T "DISCNUMBER=%cdnumber%" -T "TOTALDISCS=%totalcds%" -T "TOTALTRACKS=%numtracks%" %hascover%–picture="%coverfile%"%hascover% %source% -o %dest%


TOC of the extracted CD

Track | Start | Length | Start sector | End sector
––––––––––––––––––––––––––––-
1 | 0:00.00 | 7:52.56 | 0 | 35455
2 | 7:52.56 | 2:41.33 | 35456 | 47563
3 | 10:34.14 | 7:21.68 | 47564 | 80706
4 | 17:56.07 | 2:31.13 | 80707 | 92044
5 | 20:27.20 | 4:44.62 | 92045 | 113406
6 | 25:12.07 | 1:47.62 | 113407 | 121493
7 | 26:59.69 | 3:06.34 | 121494 | 135477
8 | 30:06.28 | 5:12.13 | 135478 | 158890
9 | 35:18.41 | 5:13.36 | 158891 | 182401
10 | 40:32.02 | 2:05.47 | 182402 | 191823
11 | 42:37.49 | 6:51.73 | 191824 | 222721
12 | 49:29.47 | 9:36.10 | 222722 | 265931
13 | 59:05.57 | 8:12.00 | 265932 | 302831
14 | 67:17.57 | 2:08.69 | 302832 | 312500
15 | 69:26.51 | 4:53.70 | 312501 | 334545


Range status and errors

Selected range

Filename I:\Rips\Beethoven - Complete Piano Sonatas - Levit\CD 4\Igor Levit - Beethoven- The Complete Piano Sonatas (Disc 4).wav

Peak level 89.1 %
Extraction speed 8.0 X
Range quality 100.0 %
Test CRC 76FA8D39
Copy CRC 76FA8D39
Copy OK

No errors occurred


AccurateRip summary

Track 1 accurately ripped (confidence 36) [548F8EE7] (AR v2)
Track 2 accurately ripped (confidence 36) [C12F47C6] (AR v2)
Track 3 accurately ripped (confidence 36) [7058E6B6] (AR v2)
Track 4 accurately ripped (confidence 36) [CF193F9F] (AR v2)
Track 5 accurately ripped (confidence 36) [2889BA12] (AR v2)
Track 6 accurately ripped (confidence 36) [1CD9907A] (AR v2)
Track 7 accurately ripped (confidence 37) [B6E8D7C4] (AR v2)
Track 8 accurately ripped (confidence 37) [15C89A81] (AR v2)
Track 9 accurately ripped (confidence 37) [B6FCC7D5] (AR v2)
Track 10 accurately ripped (confidence 37) [37EF367C] (AR v2)
Track 11 accurately ripped (confidence 37) [21837086] (AR v2)
Track 12 accurately ripped (confidence 37) [31B38EC5] (AR v2)
Track 13 accurately ripped (confidence 37) [D53DD37A] (AR v2)
Track 14 accurately ripped (confidence 36) [9B0ED50C] (AR v2)
Track 15 accurately ripped (confidence 36) [203F337A] (AR v2)

All tracks accurately ripped

End of status report

–– CUETools DB Plugin V2.1.6

[CTDB TOCID: olL_5eBPs39ptfMo7sXvMNXcca4-] found
Submit result: olL_5eBPs39ptfMo7sXvMNXcca4- has been confirmed
Track | CTDB Status
1 | (234/234) Accurately ripped
2 | (234/234) Accurately ripped
3 | (234/234) Accurately ripped
4 | (234/234) Accurately ripped
5 | (234/234) Accurately ripped
6 | (234/234) Accurately ripped
7 | (234/234) Accurately ripped
8 | (234/234) Accurately ripped
9 | (234/234) Accurately ripped
10 | (234/234) Accurately ripped
11 | (234/234) Accurately ripped
12 | (233/234) Accurately ripped
13 | (233/234) Accurately ripped
14 | (233/234) Accurately ripped
15 | (233/234) Accurately ripped


==== Log checksum CE4A2F1A04475281FFF35438A85B7AD00F2D54485349F84584133D8A0FB90BE3 ====


Exact Audio Copy V1.6 from 23. October 2020

EAC extraction logfile from 3. June 2021, 13:10

Igor Levit / Beethoven: The Complete Piano Sonatas (Disc 5)

Used drive : HL-DT-STDVDRAM GH24NSD5 Adapter: 1 ID: 0

Read mode : Secure
Utilize accurate stream : Yes
Defeat audio cache : Yes
Make use of C2 pointers : No

Read offset correction : 6
Overread into Lead-In and Lead-Out : No
Fill up missing offset samples with silence : Yes
Delete leading and trailing silent blocks : No
Null samples used in CRC calculations : Yes
Used interface : Native Win32 interface for Win NT & 2000

Used output format : User Defined Encoder
Selected bitrate : 1024 kBit/s
Quality : High
Add ID3 tag : No
Command line compressor : C:\Program Files (x86)\Exact Audio Copy\FLAC\FLAC.EXE
Additional command line options : -6 -V -T "ARTIST=%artist%" -T "TITLE=%title%" -T "ALBUM=%albumtitle%" -T "DATE=%year%" -T "TRACKNUMBER=%tracknr%" -T "GENRE=%genre%" -T "COMMENT=%comment%" -T "BAND=%albuminterpret%" -T "ALBUMARTIST=%albuminterpret%" -T "COMPOSER=%composer%" %haslyrics%–tag-from-file=LYRICS="%lyricsfile%"%haslyrics% -T "DISCNUMBER=%cdnumber%" -T "TOTALDISCS=%totalcds%" -T "TOTALTRACKS=%numtracks%" %hascover%–picture="%coverfile%"%hascover% %source% -o %dest%


TOC of the extracted CD

Track | Start | Length | Start sector | End sector
––––––––––––––––––––––––––––-
1 | 0:00.00 | 6:05.70 | 0 | 27444
2 | 6:05.70 | 11:37.29 | 27445 | 79748
3 | 17:43.24 | 6:23.34 | 79749 | 108507
4 | 24:06.58 | 8:50.59 | 108508 | 148316
5 | 32:57.42 | 8:50.40 | 148317 | 188106
6 | 41:48.07 | 5:51.43 | 188107 | 214474
7 | 47:39.50 | 7:41.63 | 214475 | 249112
8 | 55:21.38 | 4:39.60 | 249113 | 270097
9 | 60:01.23 | 3:16.63 | 270098 | 284860
10 | 63:18.11 | 4:06.11 | 284861 | 303321


Range status and errors

Selected range

Filename I:\Rips\Beethoven - Complete Piano Sonatas - Levit\CD 5\Igor Levit - Beethoven- The Complete Piano Sonatas (Disc 5).wav

Peak level 98.0 %
Extraction speed 7.8 X
Range quality 100.0 %
Test CRC F3FF89C1
Copy CRC F3FF89C1
Copy OK

No errors occurred


AccurateRip summary

Track 1 accurately ripped (confidence 37) [66F78A5D] (AR v2)
Track 2 accurately ripped (confidence 37) [7A78A48A] (AR v2)
Track 3 accurately ripped (confidence 37) [36F16E39] (AR v2)
Track 4 accurately ripped (confidence 37) [EE89CA7A] (AR v2)
Track 5 accurately ripped (confidence 37) [AA668ACF] (AR v2)
Track 6 accurately ripped (confidence 37) [FDF8EC7F] (AR v2)
Track 7 accurately ripped (confidence 37) [CEA8D00D] (AR v2)
Track 8 accurately ripped (confidence 37) [83C7A38F] (AR v2)
Track 9 accurately ripped (confidence 37) [975A5766] (AR v2)
Track 10 accurately ripped (confidence 37) [9AF9DA44] (AR v2)

All tracks accurately ripped

End of status report

–– CUETools DB Plugin V2.1.6

[CTDB TOCID: 9N7FYKkswBIPwSsQaJDDhLm9BEk-] found
Submit result: 9N7FYKkswBIPwSsQaJDDhLm9BEk- has been confirmed
Track | CTDB Status
1 | (224/224) Accurately ripped
2 | (224/224) Accurately ripped
3 | (224/224) Accurately ripped
4 | (224/224) Accurately ripped
5 | (224/224) Accurately ripped
6 | (224/224) Accurately ripped
7 | (224/224) Accurately ripped
8 | (224/224) Accurately ripped
9 | (224/224) Accurately ripped
10 | (224/224) Accurately ripped


==== Log checksum C4904BB0B91DF0C2BE499BBF244FD49200E7ABB55EA80FE551B4BD12E230DC3C ====


Igor Levit - Beethoven: Complete Piano Sonatas [9 CDs] (2019)

Thanks to the original releaser