Subcategories

Catalina Vicens - Il Cembalo di Partenope: A Renaissance harpsichord tale (2017)

Posted By: SERTiL
Catalina Vicens - Il Cembalo di Partenope: A Renaissance harpsichord tale (2017)

Catalina Vicens - Il Cembalo di Partenope: A Renaissance harpsichord tale (2017)
EAC Rip | FLAC (tracks)+cue, log, m3u, artwork | 485 MB
Label: Carpe Diem Records – CD-16312 | Tracks: 24 | Time: 66:20 min
Classical

This new album of harpsichordist Catalina Vicens is a unique, multifaceted musical and poetic project. First, it features the world’s oldest playable harpsichord, a priceless treasure that dwells today in the National Music Museum of Vermillion, SD. She plays music from Naples, Italy from around 1525, the year when the instrument that she plays was actually built in Naples. Secondly, Ms Vicens conceived an imaginary tale of the life and story of that very instrument, partly based on historical facts, partly on poetic inspiration emerging from her encounter with this priceless treasure of a historical harpsichord.

Tracklist:
1 Fantasia del primio tono
2 La villanella
3 Gagliarda napolitana
4 Obra sobre cantus firmus
5 Amor quando fioriva mia speme
6 Me lassera tu mo
7 Calata ala spagnola
8 Poi che volse la mia stella
9 Pavana alla ferrarese
10 Ricerchare de Jacobo fogliano
11 Cantai mentre nel core
12 Per dolor mi bagno el viso
13 Stavasi amor
14 Che farala che dirala
15 Recercada di mã ca in bologna
16 Plus ne regres
17 Vi'? (Villano)
18 Madame vous aves mon cuor
19 Recercada per b quadro del primo tono
20 Tant que vivray
21 Volta de Spagna
22 Sortemplus disminuita
23 Chi la dirra
24 Recercata del primo tono

Composers
Cabezón, Antonio de (1510-66)
Capirola, Vincenzo (1474-c.1548)
Cara, Marchetto (c.1465-1525)
Cavazzoni, Marco Antonio (c.1485-1569)
Dalza, Joan Ambrosio (fl.c.1508)
Dentice, Fabrizio (c.1539-81)
Monte, Philippe de (1521-1603)
Sermisy, Claudin de (c.1490-1562)
Tromboncino, Bartolomeo (1470-after 1534)
Valente, Antonio (fl.1565-81)
Willaert, Adrian (c.1490-1562)

Personnel:
Catalina Vicens, Renaissance Harpsichord, Naples ca. 1525

Recorded 2015 at National Music Museum, Vermillion SD
Recorded by Jonas Niederstadt, Carpe Diem Records

Exact Audio Copy V1.3 from 2. September 2016

EAC extraction logfile from 21. February 2018, 11:34

Catalina Vicens / Il Cembalo di Partenope

Used drive : ATAPI iHBS112 2 Adapter: 1 ID: 1

Read mode : Secure
Utilize accurate stream : Yes
Defeat audio cache : Yes
Make use of C2 pointers : No

Read offset correction : 6
Overread into Lead-In and Lead-Out : No
Fill up missing offset samples with silence : Yes
Delete leading and trailing silent blocks : No
Null samples used in CRC calculations : Yes
Used interface : Native Win32 interface for Win NT & 2000
Gap handling : Appended to previous track

Used output format : User Defined Encoder
Selected bitrate : 128 kBit/s
Quality : High
Add ID3 tag : No
Command line compressor : C:\Program Files (x86)\Exact Audio Copy\Flac\flac.exe
Additional command line options : -8 -V -T "ARTIST=%artist%" -T "TITLE=%title%" -T "ALBUM=%albumtitle%" -T "DATE=%year%" -T "TRACKNUMBER=%tracknr%" -T "GENRE=%genre%" -T "PERFORMER=%albuminterpret%" -T "COMPOSER=%composer%" -T "ALBUMARTIST=%albumartist%" -T "DISCNUMBER=%cdnumber%" -T "TOTALDISCS=%totalcds%" -T "TOTALTRACKS=%numtracks%" -T "COMMENT=EAC Secure Mode, Test & Copy, AccurateRip, FLAC -8" %source% -o %dest%


TOC of the extracted CD

Track | Start | Length | Start sector | End sector
––––––––––––––––––––––––––––-
1 | 0:00.00 | 6:38.11 | 0 | 29860
2 | 6:38.11 | 1:31.72 | 29861 | 36757
3 | 8:10.08 | 2:53.34 | 36758 | 49766
4 | 11:03.42 | 3:56.63 | 49767 | 67529
5 | 15:00.30 | 2:04.62 | 67530 | 76891
6 | 17:05.17 | 1:07.40 | 76892 | 81956
7 | 18:12.57 | 1:55.08 | 81957 | 90589
8 | 20:07.65 | 3:26.17 | 90590 | 106056
9 | 23:34.07 | 2:37.52 | 106057 | 117883
10 | 26:11.59 | 1:25.58 | 117884 | 124316
11 | 27:37.42 | 1:40.37 | 124317 | 131853
12 | 29:18.04 | 3:47.34 | 131854 | 148912
13 | 33:05.38 | 1:32.01 | 148913 | 155813
14 | 34:37.39 | 1:14.70 | 155814 | 161433
15 | 35:52.34 | 2:54.37 | 161434 | 174520
16 | 38:46.71 | 2:42.49 | 174521 | 186719
17 | 41:29.45 | 1:44.30 | 186720 | 194549
18 | 43:14.00 | 3:48.50 | 194550 | 211699
19 | 47:02.50 | 5:35.20 | 211700 | 236844
20 | 52:37.70 | 1:22.68 | 236845 | 243062
21 | 54:00.63 | 1:33.34 | 243063 | 250071
22 | 55:34.22 | 3:33.50 | 250072 | 266096
23 | 59:07.72 | 3:09.38 | 266097 | 280309
24 | 62:17.35 | 4:15.71 | 280310 | 299505


Track 1

Filename G:\DL\Catalina Vicens - Il Cembalo di Partenope (2017) [FLAC]\01 - Fantasia del primo tono.wav

Pre-gap length 0:00:02.00

Peak level 94.0 %
Extraction speed 5.5 X
Track quality 100.0 %
Test CRC EAB6EE32
Copy CRC EAB6EE32
Track not present in AccurateRip database
Copy OK

Track 2

Filename G:\DL\Catalina Vicens - Il Cembalo di Partenope (2017) [FLAC]\02 - La Villanella.wav

Peak level 89.3 %
Extraction speed 3.3 X
Track quality 99.8 %
Test CRC 9D21AA10
Copy CRC 9D21AA10
Track not present in AccurateRip database
Copy OK

Track 3

Filename G:\DL\Catalina Vicens - Il Cembalo di Partenope (2017) [FLAC]\03 - Gagliarda Napolitana.wav

Peak level 98.6 %
Extraction speed 5.6 X
Track quality 100.0 %
Test CRC 174E39DC
Copy CRC 174E39DC
Track not present in AccurateRip database
Copy OK

Track 4

Filename G:\DL\Catalina Vicens - Il Cembalo di Partenope (2017) [FLAC]\04 - Obra sobre cantus firmus.wav

Peak level 83.7 %
Extraction speed 6.3 X
Track quality 100.0 %
Test CRC 000E6DC3
Copy CRC 000E6DC3
Track not present in AccurateRip database
Copy OK

Track 5

Filename G:\DL\Catalina Vicens - Il Cembalo di Partenope (2017) [FLAC]\05 - Amor quando fioriva mia speme.wav

Peak level 86.7 %
Extraction speed 4.4 X
Track quality 99.9 %
Test CRC 1D01C127
Copy CRC 1D01C127
Track not present in AccurateRip database
Copy OK

Track 6

Filename G:\DL\Catalina Vicens - Il Cembalo di Partenope (2017) [FLAC]\06 - Me lassera tu mo.wav

Peak level 69.9 %
Extraction speed 5.0 X
Track quality 100.0 %
Test CRC 5D1E7300
Copy CRC 5D1E7300
Track not present in AccurateRip database
Copy OK

Track 7

Filename G:\DL\Catalina Vicens - Il Cembalo di Partenope (2017) [FLAC]\07 - Calata ala spagnola.wav

Peak level 78.1 %
Extraction speed 6.0 X
Track quality 100.0 %
Test CRC E275FF02
Copy CRC E275FF02
Track not present in AccurateRip database
Copy OK

Track 8

Filename G:\DL\Catalina Vicens - Il Cembalo di Partenope (2017) [FLAC]\08 - Poi che volse la mia stella.wav

Peak level 79.2 %
Extraction speed 6.9 X
Track quality 100.0 %
Test CRC 1C9A338E
Copy CRC 1C9A338E
Track not present in AccurateRip database
Copy OK

Track 9

Filename G:\DL\Catalina Vicens - Il Cembalo di Partenope (2017) [FLAC]\09 - Pavana alla ferrarese.wav

Peak level 74.2 %
Extraction speed 5.4 X
Track quality 99.9 %
Test CRC 8CA6CFCA
Copy CRC 8CA6CFCA
Track not present in AccurateRip database
Copy OK

Track 10

Filename G:\DL\Catalina Vicens - Il Cembalo di Partenope (2017) [FLAC]\10 - Ricerchare de Jacobo fogliano.wav

Peak level 90.5 %
Extraction speed 6.1 X
Track quality 100.0 %
Test CRC 627C9D98
Copy CRC 627C9D98
Track not present in AccurateRip database
Copy OK

Track 11

Filename G:\DL\Catalina Vicens - Il Cembalo di Partenope (2017) [FLAC]\11 - Cantai mentre nel core.wav

Peak level 82.4 %
Extraction speed 6.5 X
Track quality 100.0 %
Test CRC 6FA4D7F6
Copy CRC 6FA4D7F6
Track not present in AccurateRip database
Copy OK

Track 12

Filename G:\DL\Catalina Vicens - Il Cembalo di Partenope (2017) [FLAC]\12 - Per dolor mi bagno el viso.wav

Peak level 73.4 %
Extraction speed 7.8 X
Track quality 100.0 %
Test CRC 23A11D80
Copy CRC 23A11D80
Track not present in AccurateRip database
Copy OK

Track 13

Filename G:\DL\Catalina Vicens - Il Cembalo di Partenope (2017) [FLAC]\13 - Stavasi amor.wav

Peak level 71.8 %
Extraction speed 6.7 X
Track quality 100.0 %
Test CRC E3D396C3
Copy CRC E3D396C3
Track not present in AccurateRip database
Copy OK

Track 14

Filename G:\DL\Catalina Vicens - Il Cembalo di Partenope (2017) [FLAC]\14 - Che farala che dirala.wav

Peak level 86.7 %
Extraction speed 6.3 X
Track quality 100.0 %
Test CRC C2889A7D
Copy CRC C2889A7D
Track not present in AccurateRip database
Copy OK

Track 15

Filename G:\DL\Catalina Vicens - Il Cembalo di Partenope (2017) [FLAC]\15 - Recercada di ma ca in bologna.wav

Peak level 86.3 %
Extraction speed 7.9 X
Track quality 100.0 %
Test CRC 886C3AC4
Copy CRC 886C3AC4
Track not present in AccurateRip database
Copy OK

Track 16

Filename G:\DL\Catalina Vicens - Il Cembalo di Partenope (2017) [FLAC]\16 - Plus de regres.wav

Peak level 96.2 %
Extraction speed 5.0 X
Track quality 99.9 %
Test CRC 04382AA6
Copy CRC 04382AA6
Track not present in AccurateRip database
Copy OK

Track 17

Filename G:\DL\Catalina Vicens - Il Cembalo di Partenope (2017) [FLAC]\17 - Vi (Villano) recercada.wav

Peak level 83.0 %
Extraction speed 5.2 X
Track quality 100.0 %
Test CRC 11433711
Copy CRC 11433711
Track not present in AccurateRip database
Copy OK

Track 18

Filename G:\DL\Catalina Vicens - Il Cembalo di Partenope (2017) [FLAC]\18 - Madame vous aves mon cuor.wav

Peak level 94.6 %
Extraction speed 8.8 X
Track quality 100.0 %
Test CRC A15B4E10
Copy CRC A15B4E10
Track not present in AccurateRip database
Copy OK

Track 19

Filename G:\DL\Catalina Vicens - Il Cembalo di Partenope (2017) [FLAC]\19 - Recercada per b quadro del primo tono.wav

Peak level 96.1 %
Extraction speed 9.5 X
Track quality 100.0 %
Test CRC 35E9220F
Copy CRC 35E9220F
Track not present in AccurateRip database
Copy OK

Track 20

Filename G:\DL\Catalina Vicens - Il Cembalo di Partenope (2017) [FLAC]\20 - Tant que vivray.wav

Peak level 84.3 %
Extraction speed 7.5 X
Track quality 100.0 %
Test CRC ADBAB20C
Copy CRC ADBAB20C
Track not present in AccurateRip database
Copy OK

Track 21

Filename G:\DL\Catalina Vicens - Il Cembalo di Partenope (2017) [FLAC]\21 - Volta de Spagna.wav

Peak level 84.8 %
Extraction speed 7.9 X
Track quality 100.0 %
Test CRC 1494B107
Copy CRC 1494B107
Track not present in AccurateRip database
Copy OK

Track 22

Filename G:\DL\Catalina Vicens - Il Cembalo di Partenope (2017) [FLAC]\22 - Sortemplus disminuita (Sortez mes pleurs).wav

Peak level 79.8 %
Extraction speed 9.4 X
Track quality 100.0 %
Test CRC EDEE5AF9
Copy CRC EDEE5AF9
Track not present in AccurateRip database
Copy OK

Track 23

Filename G:\DL\Catalina Vicens - Il Cembalo di Partenope (2017) [FLAC]\23 - Chi la dirra (Qui la dira).wav

Peak level 87.0 %
Extraction speed 9.4 X
Track quality 100.0 %
Test CRC 032CAC21
Copy CRC 032CAC21
Track not present in AccurateRip database
Copy OK

Track 24

Filename G:\DL\Catalina Vicens - Il Cembalo di Partenope (2017) [FLAC]\24 - Recercata del primo tono.wav

Pre-gap length 0:01:42.24

Peak level 76.2 %
Extraction speed 8.4 X
Track quality 99.9 %
Test CRC FFD3507D
Copy CRC FFD3507D
Track not present in AccurateRip database
Copy OK


None of the tracks are present in the AccurateRip database

No errors occurred

End of status report

–– CUETools DB Plugin V2.1.6

[CTDB TOCID: NotymB5fatMW.RcdPAAmNAhz7do-] found
Submit result: NotymB5fatMW.RcdPAAmNAhz7do- has been confirmed
Track | CTDB Status
1 | (5/5) Accurately ripped
2 | (5/5) Accurately ripped
3 | (5/5) Accurately ripped
4 | (5/5) Accurately ripped
5 | (5/5) Accurately ripped
6 | (5/5) Accurately ripped
7 | (5/5) Accurately ripped
8 | (5/5) Accurately ripped
9 | (5/5) Accurately ripped
10 | (5/5) Accurately ripped
11 | (5/5) Accurately ripped
12 | (5/5) Accurately ripped
13 | (5/5) Accurately ripped
14 | (5/5) Accurately ripped
15 | (5/5) Accurately ripped
16 | (5/5) Accurately ripped
17 | (5/5) Accurately ripped
18 | (5/5) Accurately ripped
19 | (5/5) Accurately ripped
20 | (5/5) Accurately ripped
21 | (5/5) Accurately ripped
22 | (5/5) Accurately ripped
23 | (5/5) Accurately ripped
24 | (5/5) Accurately ripped


==== Log checksum 249827C2DE682ED315FA5D230D0B7DBDD478A0753F1392C63F2BAA0F4EC67B8E ====


Sports Car Wallpaper



Thanks to the Original customer.