Subcategories

Ilya Gringolts - Solo (2000)

Posted By: tirexiss
Ilya Gringolts - Solo (2000)

Ilya Gringolts - Solo (2000)
EAC | FLAC (image+.cue, log) | Covers Included | 55:46 | 276 MB
Genre: Classical | Label: BIS | Catalog: BIS-CD-1051

Ilya Gringolts made a splash with his CD of the Paganini D Major Concerto, so it's no surprise that he excels in these fiendishly difficult solo pieces, including one of his own. His playing is dazzling, secure even in the most tortuous passages. The Hindemith sonatas are abstract, anti-Romantic works. These days, they've lost some of their shock value, but it still surprises when the violin sings a Mozart melody at the start of the last movement of Op.31 No.2, a set of ingenious variations on the tune. Schnittke's A Paganini dates from 1982 (the year of Gringolt's birth) and is a fascinating postmodern take on Romantic virtuosity. The Ysaÿe sonatas, two of six written in 1924 portraying prominent virtuosos, test a fiddler's skills. Gringolts passes with honors, taking the famous No. 3 (Ballade) even faster than another teenage whiz, Leila Josefowicz, on Philips. Here's a disc for fans of bravura violinism. – Dan Davis

Ilya Gringolts - Solo (2000)

Track List:

Paul Hindemith
[1]-[5] Sonata, Op.31 No.1
[6]-[9] Sonata, Op.31 No.2
Alfred Schnittke
[10] A Paganini (1982)
Ilya Gringolts
[11]-[14] Sonata Bachiana (1997)
Eugène Ysaÿe
from Six Sonatas, Op.27 for solo violin (1924)
[15] Sonata No.3 in D minor
[16] Sonata No.6 in E major

Performers:
Ilya Gringolts. violin

Exact Audio Copy V1.3 from 2. September 2016

EAC extraction logfile from 2. June 2018, 22:12

Ilya Gringolts / Ilya Gringolts - Solo

Used drive : PLDS DVD-RW DU8A6SH Adapter: 1 ID: 0

Read mode : Secure
Utilize accurate stream : Yes
Defeat audio cache : Yes
Make use of C2 pointers : No

Read offset correction : 6
Overread into Lead-In and Lead-Out : No
Fill up missing offset samples with silence : Yes
Delete leading and trailing silent blocks : No
Null samples used in CRC calculations : Yes
Used interface : Native Win32 interface for Win NT & 2000

Used output format : User Defined Encoder
Selected bitrate : 128 kBit/s
Quality : High
Add ID3 tag : No
Command line compressor : C:\Program Files (x86)\Exact Audio Copy\Flac\flac.exe
Additional command line options : -V -8 -T "Date=%year%" -T "Genre=%genre%" %source%


TOC of the extracted CD

Track | Start | Length | Start sector | End sector
––––––––––––––––––––––––––––-
1 | 0:00.00 | 1:33.00 | 0 | 6974
2 | 1:33.00 | 4:21.15 | 6975 | 26564
3 | 5:54.15 | 2:06.70 | 26565 | 36084
4 | 8:01.10 | 2:20.02 | 36085 | 46586
5 | 10:21.12 | 1:42.63 | 46587 | 54299
6 | 12:04.00 | 2:01.62 | 54300 | 63436
7 | 14:05.62 | 2:28.20 | 63437 | 74556
8 | 16:34.07 | 1:15.00 | 74557 | 80181
9 | 17:49.07 | 4:34.68 | 80182 | 100799
10 | 22:24.00 | 11:31.00 | 100800 | 152624
11 | 33:55.00 | 2:48.37 | 152625 | 165261
12 | 36:43.37 | 1:48.18 | 165262 | 173379
13 | 38:31.55 | 2:53.54 | 173380 | 186408
14 | 41:25.34 | 0:54.41 | 186409 | 190499
15 | 42:20.00 | 6:29.00 | 190500 | 219674
16 | 48:49.00 | 6:55.00 | 219675 | 250799


Range status and errors

Selected range

Filename C:\temp\BIS-CD-1051 - Ilya Gringolts - Solo\Ilya Gringolts - Solo.wav

Peak level 100.0 %
Extraction speed 3.6 X
Range quality 100.0 %
Test CRC 2CFDCC01
Copy CRC 2CFDCC01
Copy OK

No errors occurred


AccurateRip summary

Track 1 accurately ripped (confidence 3) [8B058892] (AR v2)
Track 2 accurately ripped (confidence 3) [830B009D] (AR v2)
Track 3 accurately ripped (confidence 3) [5E3E493B] (AR v2)
Track 4 accurately ripped (confidence 3) [ED74EA58] (AR v2)
Track 5 accurately ripped (confidence 3) [F49F961B] (AR v2)
Track 6 accurately ripped (confidence 3) [4DAECADD] (AR v2)
Track 7 accurately ripped (confidence 3) [F1FC0AA5] (AR v2)
Track 8 accurately ripped (confidence 3) [582E9323] (AR v2)
Track 9 accurately ripped (confidence 3) [3005919A] (AR v2)
Track 10 accurately ripped (confidence 3) [7D0DB9CF] (AR v2)
Track 11 accurately ripped (confidence 3) [24BA8E1A] (AR v2)
Track 12 accurately ripped (confidence 3) [AC439F4A] (AR v2)
Track 13 accurately ripped (confidence 3) [F7EC0C67] (AR v2)
Track 14 accurately ripped (confidence 3) [AD851EF1] (AR v2)
Track 15 accurately ripped (confidence 3) [16168EC0] (AR v2)
Track 16 accurately ripped (confidence 3) [F17B8D29] (AR v2)

All tracks accurately ripped

End of status report

==== Log checksum 36952EF85F52C14894533F6125DC8E218E04FD07CBFAC93BB6C5ACBA0D73AFB4 ====

Thanks to the Original ripper (A-Z)!

Download: