Subcategories

Inner Life - I’m Caught Up (In A One Night Love Affair) (1979) [1996]

Posted By: JET 1
Inner Life - I’m Caught Up (In A One Night Love Affair) (1979) [1996]

Inner Life - I’m Caught Up (In A One Night Love Affair) (1979) [1996]
EAC Rip | FLAC (Tracks) +CUE, LOG | 280 MB | Covers Included
Genre: Disco, Funk, Soul, Dance | Label: Unidisc | Catalog Number: SPLK-7030

This isn't an album that houses the joyous hop of "Moment of My Life," and it doesn't contain the towering triumph of "Ain't No Mountain High Enough" either, but Inner Life's I'm Caught Up (In a One Night Love Affair) is an immensely enjoyable full-length – one of the Prelude label's finer moments despite its low profile. Save for the assistance of Patrick Adams and Debbie Hayes on the sad title track, everything is produced with the sensitive touch of Greg Carmichael. The album is rife with sweet, upbeat dancefloor material, including "You Got Me Dancing," "You Don't Have Dancing on Your Mind," and the particularly excellent "I Want to Give You Me." What truly makes this album – beyond the stellar production, slick arrangements, and crafty session work – are the vocals of Jocelyn Brown, who turns in typically lively and forceful singing throughout. It's safe to say that the greatness of "I'm Caught Up" is overlooked due to the preeminence of Inner Life's other classic singles, but it's probably one of the finest "proper" songs of the disco era. Admittedly, at only five songs that clock in at just over half an hour, the album is a bit thin in terms of length. When Unidisc released the album on compact disc, they added the radio edits of "I Want to Give You Me" and "I'm Caught Up." AllMusic Review by Andy Kellman

Exact Audio Copy V0.99 prebeta 5 from 4. May 2009

EAC extraction logfile from 12. December 2009, 17:54

Inner Life / I'm Caught Up (In A One Night Love Affair)

Used drive : _NEC DVD_RW ND-3520AW Adapter: 2 ID: 0

Read mode : Secure
Utilize accurate stream : Yes
Defeat audio cache : Yes
Make use of C2 pointers : No

Read offset correction : 48
Overread into Lead-In and Lead-Out : No
Fill up missing offset samples with silence : Yes
Delete leading and trailing silent blocks : No
Null samples used in CRC calculations : Yes
Used interface : Native Win32 interface for Win NT & 2000
Gap handling : Appended to previous track

Used output format : User Defined Encoder
Selected bitrate : 896 kBit/s
Quality : High
Add ID3 tag : No
Command line compressor : D:\Programme\FLAC\flac.exe
Additional command line options : -V -8 -T "artist=%a" -T "title=%t" -T "album=%g" -T "date=%y" -T "tracknumber=%n" -T "genre=%m" %s


TOC of the extracted CD

Track | Start | Length | Start sector | End sector
––––––––––––––––––––––––––––-
1 | 0:00.00 | 7:27.25 | 0 | 33549
2 | 7:27.25 | 8:36.65 | 33550 | 72314
3 | 16:04.15 | 7:58.45 | 72315 | 108209
4 | 24:02.60 | 6:11.60 | 108210 | 136094
5 | 30:14.45 | 5:40.40 | 136095 | 161634
6 | 35:55.10 | 3:54.55 | 161635 | 179239
7 | 39:49.65 | 4:22.30 | 179240 | 198919


Track 1

Filename D:\Inner Life - I'm Caught Up (In A One Night Love Affair)\01 - Inner Life - I'm Caught Up (In A One Night Love Affair).wav

Pre-gap length 0:00:02.00

Peak level 98.9 %
Track quality 100.0 %
Test CRC AAC494A5
Copy CRC AAC494A5
Copy OK

Track 2

Filename D:\Inner Life - I'm Caught Up (In A One Night Love Affair)\02 - Inner Life - I Hope It's The Right Time.wav

Pre-gap length 0:00:01.43

Peak level 89.1 %
Track quality 100.0 %
Test CRC A766E36F
Copy CRC A766E36F
Copy OK

Track 3

Filename D:\Inner Life - I'm Caught Up (In A One Night Love Affair)\03 - Inner Life - I Want To Give You Me.wav

Pre-gap length 0:00:00.40

Peak level 99.3 %
Track quality 99.9 %
Test CRC E1BB3DDF
Copy CRC E1BB3DDF
Copy OK

Track 4

Filename D:\Inner Life - I'm Caught Up (In A One Night Love Affair)\04 - Inner Life - You Got Me Dancing.wav

Pre-gap length 0:00:00.43

Peak level 89.1 %
Track quality 100.0 %
Test CRC 99CE1740
Copy CRC 99CE1740
Copy OK

Track 5

Filename D:\Inner Life - I'm Caught Up (In A One Night Love Affair)\05 - Inner Life - You Don't Have Dancing On Your Mind.wav

Pre-gap length 0:00:01.45

Peak level 100.0 %
Track quality 100.0 %
Test CRC 4E21AA81
Copy CRC 4E21AA81
Copy OK

Track 6

Filename D:\Inner Life - I'm Caught Up (In A One Night Love Affair)\06 - Inner Life - I Want To Give You Me (Radio Edit).wav

Pre-gap length 0:00:01.43

Peak level 100.0 %
Track quality 99.9 %
Test CRC 54DFD3EC
Copy CRC 54DFD3EC
Copy OK

Track 7

Filename D:\Inner Life - I'm Caught Up (In A One Night Love Affair)\07 - Inner Life - I'm Caught Up (In A One Night Love Affair) (Radio Edit).wav

Pre-gap length 0:00:01.48

Peak level 92.7 %
Track quality 100.0 %
Test CRC E3B175E8
Copy CRC E3B175E8
Copy OK

No errors occurred

End of status report


Tracklist:
1. I'm Caught Up (In A One Night Love Affair) (07:25)
2. I Hope It's The Right Time (08:35)
3. I Want To Give You Me (07:57)
4. You Got Me Dancing (06:09)
5. You Don't Have Dancing On Your Mind (05:38)
6. I Want To Give You Me (Radio Edit) (03:52)
7. I'm Caught Up (In A One Night Love Affair) (Radio Edit) (04:22)

Thanks to the original ripper