Subcategories

Iommi - Fused (2005) (Japan VICP-63102)

Posted By: Necromandus
Iommi - Fused (2005) (Japan VICP-63102)

Iommi - Fused (2005)
EAC Rip | FLAC, IMG+CUE+LOG | 430 MB | MP3 CBR 320 Kbps | 140 MB | Complete HQ Scans | PNG -> 120 MB
Heavy Metal/Hard Rock | Label: Victor Entertainment Inc., Japan #VICP-63102| RAR 3% Rec. | Uploaded.net

Tony Iommi and Glenn Hughes have quite a storied history together. Both hail from the same area in England. Iommi and Hughes first collaborated together on the 1986 Black Sabbath album, Seventh Star, before reuniting in 1996 to work on some new tunes Iommi had penned. The project was ultimately shelved when Iommi reunited with his Sabbath pals, but it finally saw an official release in 2004, as DEP Sessions: 1996. During the album's resurgence, the duo decided to work on a proper album together, which resulted in Fused a year later. Joined by ace session drummer Kenny Aronoff, Iommi and Hughes made a conscious decision to come up with a heavier, more riff-based album than DEP (which Iommi felt was more melody based). Well, the trio definitely accomplished their desired goal, as evidenced by such riff mongers as "Dopamine," "Wasted Again," and "Face Your Fear." But surprisingly, the best tracks are the ones where a bit of melody slips in, especially "Grace" and "Deep Inside His Shell." And like Sabbath's classic early albums, Fused ends on a truly epic note, with the near-ten-minute long "Insane." Soulful vocals, heavy riffs, and mighty drumming – is Fused a sign that a new powerhouse trio had been born?

~ by Greg Prato, allmusic.com
Tracklist :

1. Dopamine - 4:09
2. Wasted Again - 3:56
3. Saviour Of The Real - 4:07
4. Resolution Song - 4:57
5. Grace - 5:14
6. Deep Inside A Shell - 3:43
7. What You're Living For - 4:38
8. Face Your Fear - 4:36
9. The Spell - 4:58
10. I Go Insane - 9:15
11. Let It Down Easy (Bonus Track) - 4:30

Exact Audio Copy V1.0 beta 3 from 29. August 2011

EAC extraction logfile from 4. May 2013, 1:07

Iommi / Fused (VICP-63102)

Used drive : PLEXTOR DVDR PX-612U Adapter: 1 ID: 0

Read mode : Secure
Utilize accurate stream : Yes
Defeat audio cache : Yes
Make use of C2 pointers : No

Read offset correction : 6
Overread into Lead-In and Lead-Out : No
Fill up missing offset samples with silence : Yes
Delete leading and trailing silent blocks : No
Null samples used in CRC calculations : Yes
Used interface : Installed external ASPI interface

Used output format : User Defined Encoder
Selected bitrate : 1024 kBit/s
Quality : High
Add ID3 tag : No
Command line compressor : C:\Program Files (x86)\Exact Audio Copy 1.0b3\Flac\flac.exe
Additional command line options : -V -8 -T "Date=%year%" -T "Genre=%genre%" %source%


TOC of the extracted CD

Track | Start | Length | Start sector | End sector
––––––––––––––––––––––––––––-
1 | 0:00.00 | 4:09.30 | 0 | 18704
2 | 4:09.30 | 3:56.12 | 18705 | 36416
3 | 8:05.42 | 4:07.25 | 36417 | 54966
4 | 12:12.67 | 4:56.40 | 54967 | 77206
5 | 17:09.32 | 5:13.43 | 77207 | 100724
6 | 22:23.00 | 3:42.65 | 100725 | 117439
7 | 26:05.65 | 4:37.62 | 117440 | 138276
8 | 30:43.52 | 4:36.08 | 138277 | 158984
9 | 35:19.60 | 4:57.60 | 158985 | 181319
10 | 40:17.45 | 9:14.45 | 181320 | 222914
11 | 49:32.15 | 4:30.00 | 222915 | 243164


Range status and errors

Selected range

Filename D:\Ripped By liveevil\Iommi - Fused (VICP-63102).wav

Peak level 99.4 %
Extraction speed 4.4 X
Range quality 100.0 %
Test CRC 8FB90831
Copy CRC 8FB90831
Copy OK

No errors occurred


AccurateRip summary

Track 1 accurately ripped (confidence 4) [F86C5B2B] (AR v1)
Track 2 accurately ripped (confidence 4) [40A5F7EC] (AR v1)
Track 3 accurately ripped (confidence 4) [A9E1CE66] (AR v1)
Track 4 accurately ripped (confidence 4) [7F34F444] (AR v1)
Track 5 accurately ripped (confidence 4) [017C12F4] (AR v1)
Track 6 accurately ripped (confidence 4) [81A51BD5] (AR v1)
Track 7 accurately ripped (confidence 4) [6A1EE9ED] (AR v1)
Track 8 accurately ripped (confidence 4) [0B1530AB] (AR v1)
Track 9 accurately ripped (confidence 4) [E882D501] (AR v1)
Track 10 accurately ripped (confidence 4) [8E306457] (AR v1)
Track 11 accurately ripped (confidence 4) [BCDB387C] (AR v1)

All tracks accurately ripped

End of status report

==== Log checksum 3014EA26E97B832D59B0B3C655FBA8A8E63F48837A9B6AE0475435409105ED8D ====

• Tony Iommi - Guitars
• Glenn Hughes - Vocals, Bass
• Bob Marlette - Keyboards, Bass
• Kenny Aronoff - Drums

All songs by Tony Iommi/Glenn Hughes/Bob Marlette
Produced, engineered and mixed by Bob Marlette
Recorded at Tone Hall, Warwickshire; Rhythm Studios, Bidford on Avon & Monnow Valley Studios, Monmouth.
Mixed at Studio 1, Sanctuary Townhouse Studios.
Mastered at 360 Mastering, London
Lossless (FLAC)*
http://uploaded.net/file/abiytyuy/II05FLOS.rar

All Covers (PNG)
http://uploaded.net/file/ifkw8vjz/II05FCOV.rar

Lossy HQ (320 Kbps CBR)
http://uploaded.net/file/afopvh24/II05FMP3.rar

* Original CD -> EAC image, embedded cuesheet & more, foobar2000 ready, etc..
Huge thanks to my friend Sanych aka liveevil for original CD!
Please, do not write these links at any web pages. Enjoy & keep the files alive!