Subcategories

Itzhak Perlman, Seije Ozawa - Wieniawski: The Two Violin Concertos (1985)

Posted By: tirexiss
Itzhak Perlman, Seije Ozawa - Wieniawski: The Two Violin Concertos (1985)

Itzhak Perlman, Seije Ozawa - Wieniawski: The Two Violin Concertos (1985)
EAC | FLAC (image+.cue, log) | Covers Included | 50:09 | 243 MB
Genre: Classical | Label: EMI | Catalog: CDC 7 47107 2

Wieniawski's scintillating works are played with brilliance and great musical charm here by Perlman and Sanders (piano) for the duets, and Ozawa conducting the LPO for the concertos.
It is somtimes said that Perlman's playing has often been recorded too "forward", so one can hear the "between the notes" bowing sounds when he plays. However, I would not raise such criticisms in these fabulous recordings, where the violin is in any case naturally spotlighted by the way Wieniawski has composed for the instrument (his mastery of which was legendary), making perfect use of ithe instrument's soaring register and sparkling staccato and left hand pizzicato for example.
I cherish this dazzling and charming CD. Perlman is a truly gifted violist whose warmth and compassion are evident in these lovely performances, which still avoid being over-mannered or over-indulgent. Anyone who loves the sound of the violin should have this disc in their collection. Perlman fans already have, no doubt!

Itzhak Perlman, Seije Ozawa - Wieniawski: The Two Violin Concertos (1985)

Track List:

Violin Concerto No.1 in F Sharp Minor, Op.14
1. I. Allegro moderato
2. II. Preghiera (larghetto)
3. III. Rondo (allegro giocoso)

Violin Concerto No.2 in D minor, Op.22
4. I. Allegro moderato
5. II. Romance (andante non troppo)
6. III. Allegro con fuoco - Allegro moderato (a la Zingara)

Performers:
Itzhak Perlman, violin
London Philharmonic Orchestra
Conductor: Seiji Ozawa

Exact Audio Copy V0.99 prebeta 3 from 28. July 2007

Archivo Log de extracciones desde 10. Diciembre 2007, 22:36

Henryk Wieniawski / The Two Violin Concertos - Itzhak Perlman, Seije Ozawa

Usar unidad : HL-DT-STDVD-ROM GDR8163B Adapter: 0 ID: 0

Modo de Lectura : Seguro
Utilizar Corriente Exacta : Sн
Descartar Audio cachй : Sн
Utilizar los punteros C2 : No

Correcciуn de Desplazamiento de Lectura : 102
Sobreleer tanto en Lead-In como en Lead-Out : No
Rellenar las muestras faltantes con silencios : Sн
Eliminar silencios inicial y final : No
Se han usado muestras nulas en los cбlculos CRC : Sн
Interfaz usada : Interfaz propio de Win32 para Windowns NT y 2000

Formato de Salida utilizado : Rutinas WAV Internas
Formato de Muestreo : 44.100 Hz; 16 Bit; Estйreo


TOC del CD extraido

Pista | Inicio | Duraciуn | Sector inicial | Sector final
––––––––––––––––––––––––––––––-
1 | 0:00.32 | 15:21.55 | 32 | 69161
2 | 15:22.12 | 5:20.60 | 69162 | 93221
3 | 20:42.72 | 7:09.43 | 93222 | 125439
4 | 27:52.40 | 11:19.55 | 125440 | 176419
5 | 39:12.20 | 5:05.57 | 176420 | 199351
6 | 44:18.02 | 5:52.23 | 199352 | 225774


Gama de estados y errores

Seleccionar gama

Nombre de Archivo D:\Publicaciones\Wieniawski - The Two Violin Concertos {Itzhak Perlman, Seije Ozawa, LPO} (1973, EMI)\Imagen.wav

Nivel Pico 67.1 %
Gama de Calidad 100.0 %
Test CRC F44DAFEA
Copiar CRC F44DAFEA
Copia OK

Sin Errores


Resumen AccurateRip

Pista 1 no presente en la base de datos
Pista 2 no presente en la base de datos
Pista 3 no presente en la base de datos
Pista 4 no presente en la base de datos
Pista 5 no presente en la base de datos
Pista 6 no presente en la base de datos

Ninguna de las pistas estб presente en la base de datos AccurateRip

Final del Informe

[CUETools log; Date: 15.07.2017 10:09:25; Version: 2.1.5]
Pregap length 00:00:32.
[CTDB TOCID: L8h1rphkvXDHdoGWrdfvZ2Awp6M-] found.
Track | CTDB Status
1 | (1/1) Accurately ripped
2 | (1/1) Accurately ripped
3 | (1/1) Accurately ripped
4 | (1/1) Accurately ripped
5 | (1/1) Accurately ripped
6 | (1/1) Accurately ripped
[AccurateRip ID: 000d923b-0045dc73-4a0bc206] found.
Track [ CRC | V2 ] Status
01 [b1339f49|7ddf71f6] (1+1/2) Accurately ripped
02 [8a474c3d|cbe62bc3] (1+1/2) Accurately ripped
03 [a814faf1|c78f53e4] (1+1/2) Accurately ripped
04 [363e72ec|27420141] (1+1/2) Accurately ripped
05 [b2ad5bc6|5813c7b3] (1+1/2) Accurately ripped
06 [2ea6dbf6|2232711e] (1+1/2) Accurately ripped

Track Peak [ CRC32 ] [W/O NULL]
– 67,1 [F44DAFEA] [DD66E5E0]
01 67,1 [48EC8B5E] [18B5737D]
02 27,7 [51122D22] [9EB3B39C]
03 61,6 [9EC56F1A] [2C2383BF]
04 62,2 [81E542B6] [6D482A70]
05 34,8 [CA0CD1DA] [CCB5FDBE]
06 63,3 [023AAF55] [DA42F6BB]

Thanks to the Original ripper (unknown)!

Download: