Subcategories

Izhak Perlman, Yo-Yo Ma, Emanuel Ax - Mendelssohn: Piano Trios (2010)

Posted By: tirexiss
Izhak Perlman, Yo-Yo Ma, Emanuel Ax - Mendelssohn: Piano Trios (2010)

Izhak Perlman, Yo-Yo Ma, Emanuel Ax - Mendelssohn: Piano Trios (2010)
EAC | FLAC (image+.cue, log) | Covers Included | 59:40 | 292 MB
Genre: Classical | Label: Sony Music | Catalog: 52192

While it is pleasurable to hear three of the world's best-known virtuosos playing together with such extraordinary sympathy and enthusiasm, the actual performances by violinist Itzhak Perlman, cellist Yo-Yo Ma, and pianist Emanuel Ax on this disc of Mendelssohn's two piano trios are merely so-so. Each alone sounds marvelous – Perlman with his sweet intonation, Ma with his lyrical phrasing, and Ax with his sonorous tone – but together they are not quite the sum of their parts. They seem to be half-listening to each other, but mostly listening to themselves, and their ensemble, though more than functional, is manifestly less than tight. Often entrances and attacks are not wholly unified, rhythms are not completely integrated, and worst of all, interpretations seem to have been made up as they go along. That the performances work so well is testimony to their individual excellences. That they fail to succeed as a unit is proof of their ineluctable individuality. The sound is warm, but a bit thin.

Izhak Perlman, Yo-Yo Ma, Emanuel Ax - Mendelssohn: Piano Trios (2010)

Track List:

Jakob Ludwig Felix Mendelssohn Bartholdy (1809 – 1847)

Piano Trio No. 1 in D minor, Op 49
1. I - Molto allegro agitato
2. II - Andante con moto tranquillo
3. III - Scherzo: Leggiero e vivace
4. IV - Finale: Allegro assai appassionato

Piano Trio No. 2 in C minor, Op 66
5. I - Allegro energico e fuoco
6. II - Andante espressivo
7. III - Scherzo: Molto allero quasi presto
8. IV - Finale: Allegro appassionato

Performers:
Izhak Perlman, violin
Yo-Yo Ma, cello
Emanuel Ax, piano

Exact Audio Copy V0.99 prebeta 4 from 23. January 2008

Отчёт EAC об извлечении, выполненном 25. августа 2010, 19:50

Perlman, Ma, and Ax / Mendelssohn Piano Trios

Дисковод: Optiarc DVD RW AD-7200A Adapter: 3 ID: 1

Режим чтения : Достоверность
Использование точного потока : Да
Отключение кэша аудио : Да
Использование указателей C2 : Нет

Коррекция смещения при чтении : 48
Способность читать области Lead-in и Lead-out : Нет
Заполнение пропущенных сэмплов тишиной : Да
Удаление блоков с тишиной в начале и конце : Нет
При вычислениях CRC использовались нулевые сэмплы : Да
Интерфейс : Встроенный Win32-интерфейс для Win NT/2000

Выходной формат : Внутренние WAV-операции
Формат сэмплов : 44.100 Гц; 16 бит; стерео


TOC извлечённого CD

Трек | Старт | Длительность | Начальный сектор | Конечный сектор
––––––––––––––––––––––––––––––––––-
1 | 0:00.00 | 10:06.51 | 0 | 45500
2 | 10:06.51 | 6:16.38 | 45501 | 73738
3 | 16:23.14 | 3:55.04 | 73739 | 91367
4 | 20:18.18 | 9:05.13 | 91368 | 132255
5 | 29:23.31 | 11:18.59 | 132256 | 183164
6 | 40:42.15 | 6:44.54 | 183165 | 213518
7 | 47:26.69 | 3:51.35 | 213519 | 230878
8 | 51:18.29 | 8:25.68 | 230879 | 268821


Характеристики диапазона извлечения и сообщения об ошибках

Выбранный диапазон

Имя файла E:\Up-Down\Mendelssohn Piano Trios\Perlman, Ma, and Ax - Mendelssohn Piano Trios.wav

Пиковый уровень 99.5 %
Качество диапазона 99.9 %
CRC копии 1F47CECD
Копирование… OK

Ошибок не произошло

Конец отчёта

[CUETools log; Date: 16.12.2017 17:04:01; Version: 2.1.5]
[CTDB TOCID: oZdKz_aRHIRGglldD9xTvd4tia4-] found.
Track | CTDB Status
1 | (123/125) Accurately ripped
2 | (123/125) Accurately ripped
3 | (123/125) Accurately ripped
4 | (122/125) Accurately ripped
5 | (120/125) Accurately ripped
6 | (121/125) Accurately ripped
7 | (122/125) Accurately ripped
8 | (120/125) Accurately ripped
[AccurateRip ID: 0012e8d1-007d1b71-6d0e0008] found.
Track [ CRC | V2 ] Status
01 [f0afa28f|f4fcfcec] (000+000/112) No match
02 [ba72d315|4f2598c6] (000+000/112) No match
03 [2f9a2c19|3dc0bafb] (000+000/112) No match
04 [e7160ce4|26f3c347] (000+000/112) No match
05 [08b32155|ff564943] (000+000/111) No match
06 [1211eb6b|bc6966cd] (000+000/111) No match
07 [8ab768ff|8374ab9f] (000+000/111) No match
08 [2b53f04d|6c52e9f2] (000+000/109) No match
Offsetted by 48:
01 [bc1b1bba] (005/112) Accurately ripped
02 [c7d7bd42] (005/112) Accurately ripped
03 [e81b9533] (005/112) Accurately ripped
04 [e6acc895] (005/112) Accurately ripped
05 [a1d5867a] (005/111) Accurately ripped
06 [7ec2082b] (005/111) Accurately ripped
07 [ae0cb9fc] (005/111) Accurately ripped
08 [72d52170] (005/109) Accurately ripped
Offsetted by 60:
01 [667b3da8] (030/112) Accurately ripped
02 [44f7f560] (030/112) Accurately ripped
03 [e0cb723a] (030/112) Accurately ripped
04 [e6977bda] (031/112) Accurately ripped
05 [76483543] (030/111) Accurately ripped
06 [edfafd62] (031/111) Accurately ripped
07 [b409281a] (030/111) Accurately ripped
08 [76890c33] (029/109) Accurately ripped
Offsetted by -616:
01 [efcaa356] (000/112) No match (V2 was not tested)
02 [00fa2519] (000/112) No match (V2 was not tested)
03 [ae1b0e22] (000/112) No match (V2 was not tested)
04 [06e9e939] (000/112) No match (V2 was not tested)
05 [3e232c2c] (000/111) No match (V2 was not tested)
06 [0fcfffa2] (000/111) No match (V2 was not tested)
07 [45181638] (000/111) No match (V2 was not tested)
08 [38cfa167] (000/109) No match (V2 was not tested)

Track Peak [ CRC32 ] [W/O NULL] [ LOG ]
– 99,5 [1F47CECD] [0714F80D] CRC32
01 99,5 [6D126D51] [63A4CA99]
02 49,3 [E15132B2] [1008EAC6]
03 76,2 [EF245D9F] [E7E03DD4]
04 89,6 [A4795B38] [7AAB4954]
05 82,4 [9BBD9882] [7628E3F5]
06 70,3 [7C6BEC11] [3EE117E9]
07 68,8 [14BB9A61] [BD3BC808]
08 79,7 [281D8558] [E584D5BE]

Thanks to the Original ripper strizh64!

Download: