Subcategories

Izzy Stradlin And The Ju Ju Hounds - Izzy Stradlin And The Ju Ju Hounds (1992)

Posted By: flac jacket
Izzy Stradlin And The Ju Ju Hounds - Izzy Stradlin And The Ju Ju Hounds (1992)

Izzy Stradlin And The Ju Ju Hounds - Izzy Stradlin And The Ju Ju Hounds (1992)
EAC Secure Rip | FLAC (Image + Cue + Log) - 299 MB | Complete Scans (Jpeg 600 dpi) - 96.4 MB | MP3 (CBR320 Kbps) - 106 MB
Rock, Hard Rock, Blues Rock | Geffen Records | GEFD-24490 | 43:35 minutes | 5% WinRar Recovery | Hosted on: Uploaded & FilePost

Izzy Stradlin and the Ju Ju Hounds is the first and only album by American rock band Izzy Stradlin and the Ju Ju Hounds, led by former Guns N' Roses rhythm guitarist Izzy Stradlin. The album, released in 1992, spawned two Top 20 rock radio hits: "Shuffle It All" and "Somebody Knockin'".

Izzy Stradlin was always the most gifted member of Guns N' Roses, able to put a modern spin on the classic rock of Chuck Berry, the Stones, and the Faces, as well as the New York Dolls and Sex Pistols. Axl may have had the angst and Slash may have had the chops, but Izzy had the smarts and the heart. On his debut album, the traditional elements that had always formed the backbone of Stradlin's music with Guns N' Roses comes to the forefront – it's Stones and Faces all the way, but it is done well. Izzy Stradlin & the Ju Ju Hounds is terrific only half of the time, which is good enough for a debut album. Reviewed by Stephen Thomas Erlewine allmusic.com

Exact Audio Copy V1.0 beta 2 from 29. April 2011

EAC extraction logfile from 27. March 2013, 19:53

Izzy Stradlin And The Ju Ju Hounds / Izzy Stradlin And The Ju Ju Hounds

Used drive : HL-DT-STDVDRAM GH60N Adapter: 0 ID: 1

Read mode : Secure
Utilize accurate stream : Yes
Defeat audio cache : Yes
Make use of C2 pointers : No

Read offset correction : 667
Overread into Lead-In and Lead-Out : No
Fill up missing offset samples with silence : Yes
Delete leading and trailing silent blocks : No
Null samples used in CRC calculations : Yes
Used interface : Native Win32 interface for Win NT & 2000

Used output format : User Defined Encoder
Selected bitrate : 1024 kBit/s
Quality : High
Add ID3 tag : No
Command line compressor : C:\Program Files (x86)\Exact Audio Copy\Flac\flac.exe
Additional command line options : -V -5 -T "artist=%albumartist%" -T "title=%title%" -T "album=%albumtitle%" -T "date=%year%" -T "genre=%genre%" -T "tracknumber=%tracknr%" %source%


TOC of the extracted CD

Track | Start | Length | Start sector | End sector
––––––––––––––––––––––––––––-
1 | 0:00.00 | 3:27.62 | 0 | 15586
2 | 3:27.62 | 2:42.45 | 15587 | 27781
3 | 6:10.32 | 3:47.23 | 27782 | 44829
4 | 9:57.55 | 6:20.30 | 44830 | 73359
5 | 16:18.10 | 2:10.57 | 73360 | 83166
6 | 18:28.67 | 4:27.30 | 83167 | 103221
7 | 22:56.22 | 3:52.03 | 103222 | 120624
8 | 26:48.25 | 5:02.10 | 120625 | 143284
9 | 31:50.35 | 4:45.20 | 143285 | 164679
10 | 36:35.55 | 6:58.50 | 164680 | 196079


Range status and errors

Selected range

Filename C:\EAC\Izzy Stradlin And The Ju Ju Hounds - (1992) Izzy Stradlin And The Ju Ju Hounds\Izzy Stradlin And The Ju Ju Hounds - Izzy Stradlin And The Ju Ju Hounds.wav

Peak level 100.0 %
Extraction speed 1.9 X
Range quality 100.0 %
Test CRC 8C42AEAC
Copy CRC 8C42AEAC
Copy OK

No errors occurred


AccurateRip summary

Track 1 accurately ripped (confidence 3) [3DF72A80] (AR v2)
Track 2 accurately ripped (confidence 3) [64CD60D2] (AR v2)
Track 3 accurately ripped (confidence 3) [CAE11053] (AR v2)
Track 4 accurately ripped (confidence 3) [98C14DCA] (AR v2)
Track 5 accurately ripped (confidence 3) [2C176A2F] (AR v2)
Track 6 accurately ripped (confidence 3) [474C2A71] (AR v2)
Track 7 accurately ripped (confidence 3) [EB6E2B32] (AR v2)
Track 8 accurately ripped (confidence 2) [351E6C68] (AR v2)
Track 9 accurately ripped (confidence 3) [8C78B450] (AR v2)
Track 10 cannot be verified as accurate (confidence 28) [9940146A], AccurateRip returned [1998EB59] (AR v2)

9 track(s) accurately ripped
1 track(s) could not be verified as accurate

Some tracks could not be verified as accurate

End of status report

==== Log checksum 9794FF3D862DA1252DD26E6A57500005FCE251AA76A4D214093223116B0C25F8 ====


Track Listing:


01. Somebody Knockin' (Stradlin, Jimmy Ashhurst) - 3:27
02. Pressure Drop (Frederick Hibbert) - 2:42
03. Time Gone By (Stradlin, Richards) - 3:47
04. Shuffle It All (Stradlin, Ashhurst) - 6:19
05. Bucket o' Trouble (Stradlin) - 2:10
06. Train Tracks (Stradlin) - 4:27
07. How Will It Go? (Stradlin) - 3:51
08. Cuttin' the Rug (Stradlin) - 5:01
09. Take a Look at the Guy (Ron Wood) - 4:45
10. Come on Now Inside (Stradlin) - 6:58
11. Morning Tea (hidden bonus track, starts 4:26 into track 10)


Izzy Stradlin - vocals, guitar
Rick Richards - lead guitar
Jimmy Ashhurst - bass guitar
Charlie "Chalo" Quintana - drums
Ian McLagan - Hammond B-3 on tracks 1, 4, 5, 7, 8, 9. Piano on track 9
Ron Wood - Guitar, Vocals on track 10
Craig Ross - Guitar on track 1
Nicky Hopkins - Piano on track 10


Album Released: October 13, 1992


foobar2000 1.1.7 / Dynamic Range Meter 1.1.0
log date: 2013-04-01 22:55:22

––––––––––––––––––––––––––––––––––––––––
Analyzed: Izzy Stradlin And The Ju Ju Hounds / Izzy Stradlin And The Ju Ju Hounds
––––––––––––––––––––––––––––––––––––––––

DR Peak RMS Duration Track
––––––––––––––––––––––––––––––––––––––––
DR10 0.00 dB -12.13 dB 3:28 01-Somebody Knockin'
DR10 0.00 dB -11.92 dB 2:43 02-Pressure Drop
DR12 0.00 dB -13.04 dB 3:47 03-Time Gone By
DR10 0.00 dB -12.09 dB 6:20 04-Shuffle It All
DR10 0.00 dB -12.04 dB 2:11 05-Bucket O' Trouble
DR10 0.00 dB -11.56 dB 4:27 06-Train Tracks
DR13 0.00 dB -14.60 dB 3:52 07-How Will It Go
DR10 0.00 dB -11.79 dB 5:02 08-Cuttin' The Rug
DR11 0.00 dB -12.18 dB 4:45 09-Take A Look At The Guy
DR12 0.00 dB -15.16 dB 6:59 10-Come On Now Inside
––––––––––––––––––––––––––––––––––––––––

Number of tracks: 10
Official DR value: DR11

Samplerate: 44100 Hz
Channels: 2
Bits per sample: 16
Bitrate: 913 kbps
Codec: FLAC
================================================================================

Izzy Stradlin And The Ju Ju Hounds - Izzy Stradlin And The Ju Ju Hounds (1992)

Ripped and Scanned from the Stadium Studios Library March/April 2013
5% WinRar Recovery