Subcategories

James Brown - Love Power Peace - Live At The Olympia, Paris, 1971 (1992) {Polydor} **[RE-UP]**

Posted By: TestTickles
James Brown - Love Power Peace - Live At The Olympia, Paris, 1971 (1992) {Polydor} **[RE-UP]**

James Brown - Love Power Peace - Live At The Olympia, Paris, 1971 (1992) {Polydor}
EAC Rip | FLAC with CUE and log | scans | 414 mb
MP3 CBR 320kbps | RAR | 151 mb
Genre: R&B, soul, funk

Love Power Peace - Live At The Olympia, Paris, 1971 is a 1992 live CD by James Brown. This was the band before Bootsy Collins left to become a part of the P-Funk Empire and this is arguably better than the actual live album Brown released at the time, Revolution Of The Mind. This Paris show was recorded on the 8th of March, 1971.
James Brown with the then newly-formed J.B.'s – the maestro's second great band, including Bootsy Collins, Phelps Collins, Jabo Starks, Bobby Byrd, and Fred Wesley. Live at the Apollo had caught James Brown, the '50s gospel/rhythm and blues singer; Love Power Peace captures James the funkster. In the early '70s Brown turned up the funk, recording such litanies for Black America as "Ain't It Funky Now," "Sex Machine," "Give It Up or Turn It Loose," "Super Bad," "Get Up, Get Into It, Get Involved," and "Soul Power." They're all here, along with revved-up, white-hot versions of the early- and middle-period classics. Brown had planned to release this as a triple album in 1971. When several band members left shortly after it was recorded, Brown switched from King to Polydor Records, leading him to scrap it and record a new studio album instead. In 1992, Polygram decided to make the recording available for the first time.

James Brown - Love Power Peace - Live At The Olympia, Paris, 1971 (1992) {Polydor} **[RE-UP]**

01. Intro
02. Brother Rapp
03. Ain't It Funky Now
04. Georgia On My Mind
05. It's A New Day
06. Bewildered
07. Sex Machine
08. Try Me
09. Medley: Papa's Got A Brand New Bag/I Got You (I Feel Good)/I Got The Feelin'
10. Give It Up Or Turnit A Loose.flac:ff96ea4c5f991c84b0345651b9673e53
11. It's A Man's Man's Man's World
12. Please Please Please
13. Sex Machine (Reprise)
14. Super Bad
15. Get Up, Get Into It, Get Involved
16. Soul Power
17. Get Up, Get Into It, Get Involved (Finale)
–-
James Brown-vocals (organ solo on "Ain't It Funky Now")
Bobby Byrd-MC, vocals, organ

avec le JB's
Darryl (Hassan) Jamison-trumpet
Clayton (Chicken) Gunnells-trumpet
Fred Wesley-trombone
St. Clair Pinckney-tenor saxophone
Phelps (Catfish) Collins-lead guitar
Hearlon (Cheese) Martin-rhythm guitar
William (Bootsy) Collins-bass
John (Jabo) Starks-drums
Don Juan (Tiger) Martin-drums

Additional horns and strings under the direction of David Matthews

Original recording produced by James Brown
Produced by Harry Weinger

Mixed and mastered from the original eight track master tapes at PolyGram Studios
Engineer: Joseph M. Palmaccio

Recorded March 8, 1971 at the Olympia Theatre, Paris, France
Location engineer: Ron Lenhoff

EAC extraction logfile from 14. July 2006, 16:57 for CD
James Brown / Love Power Peace - Live At The Olympia, Paris, 1971

Used drive : LITE-ON DVDRW SOHW-1633S Adapter: 0 ID: 0
Read mode : Secure with NO C2, accurate stream, disable cache
Read offset correction : 12
Overread into Lead-In and Lead-Out : No

Used output format : Internal WAV Routines
44.100 Hz; 16 Bit; Stereo

Other options :
Fill up missing offset samples with silence : Yes
Delete leading and trailing silent blocks : No
Installed external ASPI interface


Track 1
Filename D:\FLAC\James Brown - Love Power Peace - Live At The Olympia, Paris, 1971 (1992) [FLAC} {Polydor}\01 - Intro.wav

Pre-gap length 0:00:02.00

Peak level 99.9 %
Track quality 100.0 %
Test CRC 55005A3C
Copy CRC 55005A3C
Copy OK

Track 2
Filename D:\FLAC\James Brown - Love Power Peace - Live At The Olympia, Paris, 1971 (1992) [FLAC} {Polydor}\02 - Brother Rapp.wav

Peak level 91.5 %
Track quality 100.0 %
Test CRC 377A6306
Copy CRC 377A6306
Copy OK

Track 3
Filename D:\FLAC\James Brown - Love Power Peace - Live At The Olympia, Paris, 1971 (1992) [FLAC} {Polydor}\03 - Ain't It Funky Now.wav

Peak level 83.0 %
Track quality 99.9 %
Test CRC 6991E5BB
Copy CRC 6991E5BB
Copy OK

Track 4
Filename D:\FLAC\James Brown - Love Power Peace - Live At The Olympia, Paris, 1971 (1992) [FLAC} {Polydor}\04 - Georgia On My Mind.wav

Peak level 100.0 %
Track quality 100.0 %
Test CRC C945704F
Copy CRC C945704F
Copy OK

Track 5
Filename D:\FLAC\James Brown - Love Power Peace - Live At The Olympia, Paris, 1971 (1992) [FLAC} {Polydor}\05 - It's a New Day.wav

Peak level 100.0 %
Track quality 99.9 %
Test CRC 40AD67D1
Copy CRC 40AD67D1
Copy OK

Track 6
Filename D:\FLAC\James Brown - Love Power Peace - Live At The Olympia, Paris, 1971 (1992) [FLAC} {Polydor}\06 - Bewildered.wav

Peak level 77.6 %
Track quality 99.9 %
Test CRC 152DFE41
Copy CRC 152DFE41
Copy OK

Track 7
Filename D:\FLAC\James Brown - Love Power Peace - Live At The Olympia, Paris, 1971 (1992) [FLAC} {Polydor}\07 - Sex Machine.wav

Peak level 95.3 %
Track quality 100.0 %
Test CRC FE6BB2B8
Copy CRC FE6BB2B8
Copy OK

Track 8
Filename D:\FLAC\James Brown - Love Power Peace - Live At The Olympia, Paris, 1971 (1992) [FLAC} {Polydor}\08 - Try Me.wav

Peak level 88.9 %
Track quality 99.9 %
Test CRC DAE555C1
Copy CRC DAE555C1
Copy OK

Track 9
Filename D:\FLAC\James Brown - Love Power Peace - Live At The Olympia, Paris, 1971 (1992) [FLAC} {Polydor}\09 - Medley- Papa's Got a Brand New Bag, I Got You (I Feel Good), I Got the Feelin'.wav

Peak level 91.7 %
Track quality 100.0 %
Test CRC 9EC8C52F
Copy CRC 9EC8C52F
Copy OK

Track 10
Filename D:\FLAC\James Brown - Love Power Peace - Live At The Olympia, Paris, 1971 (1992) [FLAC} {Polydor}\10 - Give It Up Or Turnit A Loose.wav

Peak level 100.0 %
Track quality 99.9 %
Test CRC 3583CCF2
Copy CRC 3583CCF2
Copy OK

Track 11
Filename D:\FLAC\James Brown - Love Power Peace - Live At The Olympia, Paris, 1971 (1992) [FLAC} {Polydor}\11 - It's a Man's Man's Man's World.wav

Peak level 93.0 %
Track quality 100.0 %
Test CRC 2C79392E
Copy CRC 2C79392E
Copy OK

Track 12
Filename D:\FLAC\James Brown - Love Power Peace - Live At The Olympia, Paris, 1971 (1992) [FLAC} {Polydor}\12 - Please Please Please.wav

Peak level 100.0 %
Track quality 100.0 %
Test CRC D996B95B
Copy CRC D996B95B
Copy OK

Track 13
Filename D:\FLAC\James Brown - Love Power Peace - Live At The Olympia, Paris, 1971 (1992) [FLAC} {Polydor}\13 - Sex Machine (Reprise).wav

Peak level 100.0 %
Track quality 100.0 %
Test CRC 6441E957
Copy CRC 6441E957
Copy OK

Track 14
Filename D:\FLAC\James Brown - Love Power Peace - Live At The Olympia, Paris, 1971 (1992) [FLAC} {Polydor}\14 - Super Bad.wav

Peak level 92.8 %
Track quality 100.0 %
Test CRC B8320A3D
Copy CRC B8320A3D
Copy OK

Track 15
Filename D:\FLAC\James Brown - Love Power Peace - Live At The Olympia, Paris, 1971 (1992) [FLAC} {Polydor}\15 - Get Up, Get Into It, Get Involved.wav

Peak level 86.2 %
Track quality 100.0 %
Test CRC 0C6CF31D
Copy CRC 0C6CF31D
Copy OK

Track 16
Filename D:\FLAC\James Brown - Love Power Peace - Live At The Olympia, Paris, 1971 (1992) [FLAC} {Polydor}\16 - Soul Power.wav

Peak level 93.3 %
Track quality 100.0 %
Test CRC D7D70210
Copy CRC D7D70210
Copy OK

Track 17
Filename D:\FLAC\James Brown - Love Power Peace - Live At The Olympia, Paris, 1971 (1992) [FLAC} {Polydor}\17 - Get Up, Get Into It, Get Involved (Finale).wav

Peak level 93.2 %
Track quality 100.0 %
Test CRC 75215193
Copy CRC 75215193
Copy OK

No errors occured


End of status report


James Brown - Love Power Peace - Live At The Olympia, Paris, 1971 (1992) {Polydor} **[RE-UP]**


Check out other titles in my blog.