Subcategories

J.J. Cale - #8 (1983) {2013, Japanese Mini LP SHM-CD, Limited Edition, Remastered} Repost

Posted By: popsakov
J.J. Cale - #8 (1983) {2013, Japanese Mini LP SHM-CD, Limited Edition, Remastered} Repost

J.J. Cale - #8 (1983) {2013, Japanese Mini LP SHM-CD, Limited Edition, Remastered}
EAC Rip | FLAC (Img) + Cue + Log ~ 172 Mb | MP3 CBR320 ~ 73 Mb
Full Scans ~ 133 Mb | RAR 5% Recovery
Blues / Folk Rock / Blues Rock / Roots Rock / Country / Americana
Mercury / Universal Music Japan #UICY-75634

#8 is a 1983 album by J. J. Cale. It was his eighth since his debut in 1972. Twelve years and eight albums into his recording career, Cale's approach has changed little, and here is another collection of groove tunes that act as platforms for the artist's intricate guitar playing. He is sometimes accompanied by a female vocalist, co-writer Christine Lakeland.

***************

J.J. Cale - #8 (1983) {2013, Japanese Mini LP SHM-CD, Limited Edition, Remastered} Repost

J.J. Cale - #8 (1983) {2013, Japanese Mini LP SHM-CD, Limited Edition, Remastered} Repost

Track List:

01. Money Talks [4:22]
02. Losers [2:43]
03. Hard Times [3:56]
04. Reality [2:25]
05. Takin' Care Of Business [2:10]
06. People Lie [2:17]
07. Unemployment [4:10]
08. Trouble In The City [3:24]
09. Teardrops In My Tequila [2:18]
10. Livin' Here Too [2:21]

Exact Audio Copy V1.0 beta 3 from 29. August 2011

EAC extraction logfile from 23. July 2013, 18:12

J.J. Cale / #8

Used drive : PLEXTOR BD-R PX-B950SA Adapter: 6 ID: 0

Read mode : Secure
Utilize accurate stream : Yes
Defeat audio cache : Yes
Make use of C2 pointers : No

Read offset correction : 6
Overread into Lead-In and Lead-Out : No
Fill up missing offset samples with silence : Yes
Delete leading and trailing silent blocks : No
Null samples used in CRC calculations : Yes
Used interface : Native Win32 interface for Win NT & 2000

Used output format : Internal WAV Routines
Sample format : 44.100 Hz; 16 Bit; Stereo


TOC of the extracted CD

Track | Start | Length | Start sector | End sector
––––––––––––––––––––––––––––-
1 | 0:00.00 | 4:22.15 | 0 | 19664
2 | 4:22.15 | 2:42.38 | 19665 | 31852
3 | 7:04.53 | 3:56.35 | 31853 | 49587
4 | 11:01.13 | 2:24.72 | 49588 | 60459
5 | 13:26.10 | 2:10.10 | 60460 | 70219
6 | 15:36.20 | 2:16.73 | 70220 | 80492
7 | 17:53.18 | 4:10.12 | 80493 | 99254
8 | 22:03.30 | 3:23.70 | 99255 | 114549
9 | 25:27.25 | 2:18.15 | 114550 | 124914
10 | 27:45.40 | 2:20.63 | 124915 | 135477


Range status and errors

Selected range

Filename C:\Users\Meijin\Desktop\Lossless Galaxy ALLexxess\JJ Cale\1983 #8 (Mini LP SHM-CD Universal Japan 2013)\J.J. Cale - #8.wav

Peak level 100.0 %
Extraction speed 6.3 X
Range quality 100.0 %
Test CRC A2ABBE03
Copy CRC A2ABBE03
Copy OK

No errors occurred


AccurateRip summary

Track 1 not present in database
Track 2 not present in database
Track 3 not present in database
Track 4 not present in database
Track 5 not present in database
Track 6 not present in database
Track 7 not present in database
Track 8 not present in database
Track 9 not present in database
Track 10 not present in database

None of the tracks are present in the AccurateRip database

End of status report

==== Log checksum BDF038507CC8588BF5E5D6D9832C554F2D815DBB2B6B876F4792C8AC0FA0CA94 ====

[CUETools log; Date: 13.06.2019 10:39:30; Version: 2.1.6]
[CTDB TOCID: IQzmM7h0lNJm6yMpqUGEwblbPyo-] found.
Track | CTDB Status
1 | (9/9) Accurately ripped
2 | (9/9) Accurately ripped
3 | (9/9) Accurately ripped
4 | (9/9) Accurately ripped
5 | (9/9) Accurately ripped
6 | (9/9) Accurately ripped
7 | (9/9) Accurately ripped
8 | (9/9) Accurately ripped
9 | (9/9) Accurately ripped
10 | (9/9) Accurately ripped
[AccurateRip ID: 000c002d-005e5f07-8a070e0a] found.
Track [ CRC | V2 ] Status
01 [9c066b5f|eecb8009] (0+4/4) Accurately ripped
02 [3cd55912|c860dc92] (0+4/4) Accurately ripped
03 [8cc82a3f|ef1fa678] (0+4/4) Accurately ripped
04 [8ceae861|318df33c] (0+4/4) Accurately ripped
05 [e30dfe76|42e2ac80] (0+4/4) Accurately ripped
06 [0fecb0bf|c45321ec] (0+4/4) Accurately ripped
07 [04736000|c16fd59d] (0+4/4) Accurately ripped
08 [303ddbc8|98e75dc0] (0+4/4) Accurately ripped
09 [9891547b|20482c59] (0+4/4) Accurately ripped
10 [edfe6fce|cb2b08b5] (0+4/4) Accurately ripped

Track Peak [ CRC32 ] [W/O NULL] [ LOG ]
– 100,0 [A2ABBE03] [CF420C30] CRC32
01 100,0 [D2549971] [AEB8623B]
02 100,0 [DEBB470B] [E391332C]
03 100,0 [AAF88B52] [235FEA09]
04 100,0 [881B0BE4] [1CF03945]
05 100,0 [405E1117] [4735E48B]
06 100,0 [5C9EA1D8] [7970BA18]
07 100,0 [80E7C2CE] [41E08FD5]
08 100,0 [0C28856D] [7EA0B9BE]
09 100,0 [AE93FCB1] [BC1F98E0]
10 100,0 [79D33979] [5F61D1E0]

J.J. Cale - #8 (1983) {2013, Japanese Mini LP SHM-CD, Limited Edition, Remastered} Repost

All thanks go to ALLexxess

>>> J.J. Cale in my Blog <<<

Download from icerbox.com: