Subcategories

J.J. Cale - Grasshopper (1982) {2013, Japanese Mini LP SHM-CD, Limited Edition, Remastered} Repost

Posted By: popsakov
J.J. Cale - Grasshopper (1982) {2013, Japanese Mini LP SHM-CD, Limited Edition, Remastered} Repost

J.J. Cale - Grasshopper (1982) {2013, Japanese Mini LP SHM-CD, Limited Edition, Remastered}
EAC Rip | FLAC (Img) + Cue + Log ~ 230 Mb | MP3 CBR320 ~ 85 Mb
Full Scans ~ 164 Mb | RAR 5% Recovery
Blues / Folk Rock / Blues Rock / Roots Rock / Country / Americana
Mercury / Universal Music Japan #UICY-75633

J.J. Cale drifts toward a more pop approach on this album, starting with the lead-off track, "City Girls," which could almost but not quite be a hit single. The usual blues and country shuffle approach is in effect, but Audie Ashworth's production is unusually sharp, the playing has more bite than usual, and Cale, whose vocals are for the most part up in the mix, sounds more engaged. It's not clear, however, that this is an improvement over his usual laidback approach, and, in any case, it shouldn't be over-emphasized – this is still a J.J. Cale album, with its cantering tempos and single-note guitar runs. It's just that, when you have a style as defined as Cale's, little movements in style loom larger.

~ William Ruhlmann, All Music

***************

J.J. Cale - Grasshopper (1982) {2013, Japanese Mini LP SHM-CD, Limited Edition, Remastered} Repost

J.J. Cale - Grasshopper (1982) {2013, Japanese Mini LP SHM-CD, Limited Edition, Remastered} Repost

Track List:

01. City Girls [2:51]
02. Devil In Disguise [2:05]
03. One Step Ahead Of The Blues [2:25]
04. You Keep Me Hangin' On [3:31]
05. Downtown L.A. [2:32]
06. Can't Live Here [2:15]
07. Grasshopper [1:45]
08. Drifters Wife [1:42]
09. Don't Wait [3:10]
10. A Thing Going On [2:39]
11. Nobody But You [3:02]
12. Mississippi River [2:03]
13. Does Your Mama Like To Reggae [3:43]
14. Dr. Jive [1:49]

Exact Audio Copy V1.0 beta 3 from 29. August 2011

EAC extraction logfile from 23. July 2013, 18:53

J.J. Cale / Grasshopper

Used drive : PLEXTOR BD-R PX-B950SA Adapter: 6 ID: 0

Read mode : Secure
Utilize accurate stream : Yes
Defeat audio cache : Yes
Make use of C2 pointers : No

Read offset correction : 6
Overread into Lead-In and Lead-Out : No
Fill up missing offset samples with silence : Yes
Delete leading and trailing silent blocks : No
Null samples used in CRC calculations : Yes
Used interface : Native Win32 interface for Win NT & 2000

Used output format : Internal WAV Routines
Sample format : 44.100 Hz; 16 Bit; Stereo


TOC of the extracted CD

Track | Start | Length | Start sector | End sector
––––––––––––––––––––––––––––-
1 | 0:00.00 | 2:51.05 | 0 | 12829
2 | 2:51.05 | 2:05.08 | 12830 | 22212
3 | 4:56.13 | 2:24.70 | 22213 | 33082
4 | 7:21.08 | 3:31.20 | 33083 | 48927
5 | 10:52.28 | 2:31.72 | 48928 | 60324
6 | 13:24.25 | 2:14.45 | 60325 | 70419
7 | 15:38.70 | 1:44.38 | 70420 | 78257
8 | 17:23.33 | 1:41.45 | 78258 | 85877
9 | 19:05.03 | 3:10.32 | 85878 | 100159
10 | 22:15.35 | 2:39.00 | 100160 | 112084
11 | 24:54.35 | 3:01.55 | 112085 | 125714
12 | 27:56.15 | 2:03.00 | 125715 | 134939
13 | 29:59.15 | 3:42.65 | 134940 | 151654
14 | 33:42.05 | 1:49.20 | 151655 | 159849


Range status and errors

Selected range

Filename C:\Users\Meijin\Desktop\Lossless Galaxy ALLexxess\JJ Cale\1982 Grasshopper (Mini LP SHM-CD Universal Japan 2013)\J.J. Cale - Grasshopper.wav

Peak level 99.3 %
Extraction speed 6.5 X
Range quality 100.0 %
Test CRC 7D7D898F
Copy CRC 7D7D898F
Copy OK

No errors occurred


AccurateRip summary

Track 1 not present in database
Track 2 not present in database
Track 3 not present in database
Track 4 not present in database
Track 5 not present in database
Track 6 not present in database
Track 7 not present in database
Track 8 not present in database
Track 9 not present in database
Track 10 not present in database
Track 11 not present in database
Track 12 not present in database
Track 13 not present in database
Track 14 not present in database

None of the tracks are present in the AccurateRip database

End of status report

==== Log checksum 21477DDF3F1DB0800B2D052FA3CF565245E933C41610BD7AF96A96143F7A78E5 ====

[CUETools log; Date: 10.06.2019 1:35:44; Version: 2.1.6]
[CTDB TOCID: nXscghB5fNvnLbu8fufI6EWTrQw-] found.
Track | CTDB Status
1 | (11/11) Accurately ripped
2 | (11/11) Accurately ripped
3 | (11/11) Accurately ripped
4 | (11/11) Accurately ripped
5 | (11/11) Accurately ripped
6 | (11/11) Accurately ripped
7 | (11/11) Accurately ripped
8 | (11/11) Accurately ripped
9 | (11/11) Accurately ripped
10 | (11/11) Accurately ripped
11 | (11/11) Accurately ripped
12 | (11/11) Accurately ripped
13 | (11/11) Accurately ripped
14 | (11/11) Accurately ripped
[AccurateRip ID: 00124134-00c26b07-b608530e] found.
Track [ CRC | V2 ] Status
01 [c0d890bd|af301c19] (0+7/7) Accurately ripped
02 [4c4c397f|0ff40f9d] (0+7/7) Accurately ripped
03 [09849708|6fcd5f41] (0+7/7) Accurately ripped
04 [4f39302b|71c4b878] (0+7/7) Accurately ripped
05 [20a2b72c|d91625ee] (0+7/7) Accurately ripped
06 [41c07989|91a15a10] (0+7/7) Accurately ripped
07 [9f0acc3b|b2834979] (0+7/7) Accurately ripped
08 [69047a89|896841d4] (0+7/7) Accurately ripped
09 [f911385c|8275fd53] (0+7/7) Accurately ripped
10 [13f61480|fc1f0a31] (0+7/7) Accurately ripped
11 [779fd137|c62c0322] (0+7/7) Accurately ripped
12 [50765523|cde7f55f] (0+7/7) Accurately ripped
13 [47c55e39|2ae8f71d] (0+7/7) Accurately ripped
14 [75d07a29|c0282718] (0+7/7) Accurately ripped

Track Peak [ CRC32 ] [W/O NULL] [ LOG ]
– 99,3 [7D7D898F] [97B20899] CRC32
01 99,3 [62C47F8C] [66465398]
02 99,3 [2AB57AA5] [49845CE1]
03 99,3 [7E1C82CC] [F7D9775F]
04 99,3 [9FA985E2] [F5662864]
05 99,3 [AFBB7285] [06716036]
06 92,8 [5C5FC8ED] [0B9FA0CF]
07 99,3 [F996465D] [AB8B6B1E]
08 99,3 [196B1968] [02812778]
09 99,3 [8D207C3D] [46AA5D1A]
10 96,5 [B86FBA99] [0427EC22]
11 99,3 [3F0C70F9] [46CF4845]
12 72,1 [83740C91] [557FC5D1]
13 86,6 [69EEF0DC] [1FAF517F]
14 81,7 [59893D61] [819A71C9]

J.J. Cale - Grasshopper (1982) {2013, Japanese Mini LP SHM-CD, Limited Edition, Remastered} Repost

All thanks go to ALLexxess

>>> J.J. Cale in my Blog <<<

Download from icerbox.com: