Subcategories

John Lee Hooker - Kabuki Wuki (1973) + Born in Mississippi, Raised Up in Tennessee (1973) 2CD Set, Remastered 2013 [Re-Up]

Posted By: Designol
John Lee Hooker - Kabuki Wuki (1973) + Born in Mississippi, Raised Up in Tennessee (1973) 2CD Set, Remastered 2013 [Re-Up]

John Lee Hooker - 'Kabuki Wuki' (1973) + 'Born in Mississippi, Raised Up in Tennessee' (1973)
EAC | FLAC | Image (Cue&Log) ~ 579 Mb (incl 5%) | Mp3 (CBR320) ~ 281 Mb (incl 5%) | Scans included
Genre: Blues | Label: BGO | # BGOCD1129 | Time: 01:22:00

BGO Records has released two early ‘70s albums by the legendary John Lee Hooker. While admittedly not his best albums, they both still show this man did more than play the blues, he lived them. On these offerings, Hooker pumped out a slow moving steam engine of blues music that never picks up too much speed, yet keeps things chooglin’ along just fine.

Kabuki Wuki is the better of the two albums included on this two-disc package. This is a classic live set that saw a Hooker show captured at the Kabuki Theater in San Francisco. The music is moody and morose.

John sells it in his vocal delivery and the band moves along like a slow cooked slab of ribs. It may not thrill you, but when it’s all said and done, the meat just falls off the bone.

Born in Mississippi, Raised Up in Tennessee continues the same type of feeling but takes it from the stage to the studio. The beat moves about, slowly and carefully; Hooker’s vocals keep you on the edge of your seat, yet the pace does get to you after a while as you simply beg John Lee and band to get you on your feet. It just never happens, despite an appearance on the album by none other than the great Van Morrison.

Both of these albums would probably rank higher in, say, Colorado, where one could enhance the music with some legal herb as this is stoner rock, done up blues style.

At the end of the day remember this: a “C” rating for John Lee Hooker means that it may be better than the average album, yet when placed against his best, these two just fall somewhere in the middle. Still worthy of a listen, just not the chosen album by most of his fans.

Review by Jeb Wright, ClassicRockRevisited.com

John Lee Hooker - Kabuki Wuki (1973) + Born in Mississippi, Raised Up in Tennessee (1973) 2CD Set, Remastered 2013 [Re-Up]



Tracklist:

CD1 - Kabuki Wuki (1973):

01. Your Love (Just A Little Bit) (05:29)
02. Hold It (00:45)
03. Look At The Rain (08:24)
04. My Best Friend (05:15)
05. Hit The Floor (05:46)
06. A Little Bit Higher (05:26)
07. I Wonder Why (04:38)
08. If You Got A Dollar (04:50)

CD2 - Born in Mississippi, Raised Up in Tennessee (1973):

01. Born In Mississippi, Raised Up In Tennessee (05:56)
02. How Many More Years You Gonna Dog Me Round (05:20)
03. Going Down (09:18)
04. Younger Stud (08:43)
05. King Of The World (06:05)
06. Tell Me You Love Me (05:59)


Exact Audio Copy V1.0 beta 3 from 29. August 2011

Отчёт EAC об извлечении, выполненном 10. июля 2014, 0:42

John Lee Hooker / Kabuki Wuki

Дисковод: ATAPI iHES108 2 Adapter: 3 ID: 1

Режим чтения : Достоверность
Использование точного потока : Да
Отключение кэша аудио : Да
Использование указателей C2 : Нет

Коррекция смещения при чтении : 6
Способность читать области Lead-in и Lead-out : Нет
Заполнение пропущенных сэмплов тишиной : Да
Удаление блоков с тишиной в начале и конце : Нет
При вычислениях CRC использовались нулевые сэмплы : Да
Интерфейс : Встроенный Win32-интерфейс для Win NT/2000

Выходной формат : Пользовательский кодировщик
Выбранный битрейт : 1024 kBit/s
Качество : Высокий
Добавление ID3-тега : Нет
Утилита сжатия : C:\Program Files\Exact Audio Copy\Flac\flac.exe
Дополнительные параметры : -V -8 -T "Date=%year%" -T "Genre=%genre%" %source%


TOC извлечённого CD

Трек | Старт | Длительность | Начальный сектор | Конечный сектор
––––––––––––––––––––––––––––––––––-
1 | 0:00.00 | 5:29.31 | 0 | 24705
2 | 5:29.31 | 0:45.61 | 24706 | 28141
3 | 6:15.17 | 8:24.58 | 28142 | 65999
4 | 14:40.00 | 5:15.08 | 66000 | 89632
5 | 19:55.08 | 5:46.33 | 89633 | 115615
6 | 25:41.41 | 5:26.32 | 115616 | 140097
7 | 31:07.73 | 4:38.26 | 140098 | 160973
8 | 35:46.24 | 4:50.08 | 160974 | 182731


Характеристики диапазона извлечения и сообщения об ошибках

Выбранный диапазон

Имя файла D:\EAC-FOLDER\1973-JLH-Kabuki_Wuki_Born_in_Mississippi\John Lee Hooker - Kabuki Wuki.wav

Пиковый уровень 100.0 %
Скорость извлечения 8.0 X
Качество диапазона 100.0 %
CRC теста ABA54EFA
CRC копии ABA54EFA
Копирование… OK

Ошибок не произошло


AccurateRip: сводка

Трек 1 отсутствует в базе данных
Трек 2 отсутствует в базе данных
Трек 3 отсутствует в базе данных
Трек 4 отсутствует в базе данных
Трек 5 отсутствует в базе данных
Трек 6 отсутствует в базе данных
Трек 7 отсутствует в базе данных
Трек 8 отсутствует в базе данных

Ни одного трека нет в базе AccurateRip

Конец отчёта

==== Контрольная сумма отчёта C85A69E221B612FB556DA7E31450A88BD43F6FFE9BF74C64F7F27364D3BFE228 ====

foobar2000 1.2 / Dynamic Range Meter 1.1.1
log date: 2014-09-05 11:12:10

––––––––––––––––––––––––––––––––––––––––
Analyzed: John Lee Hooker / Kabuki Wuki
––––––––––––––––––––––––––––––––––––––––

DR Peak RMS Duration Track
––––––––––––––––––––––––––––––––––––––––
DR13 0.00 dB -14.91 dB 5:29 01-Your Love (Just A Little Bit)
DR12 -6.94 dB -23.55 dB 0:46 02- Hold It
DR13 0.00 dB -15.01 dB 8:25 03-Look At The Rain
DR13 -0.05 dB -16.38 dB 5:15 04-My Best Friend
DR11 0.00 dB -12.75 dB 5:46 05-Hit The Floor
DR12 0.00 dB -13.39 dB 5:26 06-A Little Bit Higher
DR13 0.00 dB -15.66 dB 4:38 07- I Wonder Why
DR14 0.00 dB -16.57 dB 4:50 08- If You Got A Dollar
––––––––––––––––––––––––––––––––––––––––

Number of tracks: 8
Official DR value: DR13

Samplerate: 44100 Hz
Channels: 2
Bits per sample: 16
Bitrate: 786 kbps
Codec: FLAC
================================================================================


Exact Audio Copy V1.0 beta 3 from 29. August 2011

Отчёт EAC об извлечении, выполненном 10. июля 2014, 1:22

John Lee Hooker / Born In Mississippi, Raised Up In Tennessee

Дисковод: ATAPI iHES108 2 Adapter: 3 ID: 1

Режим чтения : Достоверность
Использование точного потока : Да
Отключение кэша аудио : Да
Использование указателей C2 : Нет

Коррекция смещения при чтении : 6
Способность читать области Lead-in и Lead-out : Нет
Заполнение пропущенных сэмплов тишиной : Да
Удаление блоков с тишиной в начале и конце : Нет
При вычислениях CRC использовались нулевые сэмплы : Да
Интерфейс : Встроенный Win32-интерфейс для Win NT/2000

Выходной формат : Пользовательский кодировщик
Выбранный битрейт : 1024 kBit/s
Качество : Высокий
Добавление ID3-тега : Нет
Утилита сжатия : C:\Program Files\Exact Audio Copy\Flac\flac.exe
Дополнительные параметры : -V -8 -T "Date=%year%" -T "Genre=%genre%" %source%


TOC извлечённого CD

Трек | Старт | Длительность | Начальный сектор | Конечный сектор
––––––––––––––––––––––––––––––––––-
1 | 0:00.00 | 5:56.65 | 0 | 26764
2 | 5:56.65 | 5:20.26 | 26765 | 50790
3 | 11:17.16 | 9:18.26 | 50791 | 92666
4 | 20:35.42 | 8:42.70 | 92667 | 131886
5 | 29:18.37 | 6:05.17 | 131887 | 159278
6 | 35:23.54 | 5:59.41 | 159279 | 186244


Характеристики диапазона извлечения и сообщения об ошибках

Выбранный диапазон

Имя файла D:\EAC-FOLDER\1973-JLH-Kabuki_Wuki_Born_in_Mississippi\1973-JLH-Kabuki_Wuki_Born_in_Mississippi\1973- Born In Mississippi, Raised Up In Tennessee\John Lee Hooker - Born In Mississippi, Raised Up In Tennessee.wav

Пиковый уровень 94.4 %
Скорость извлечения 8.1 X
Качество диапазона 100.0 %
CRC теста A16DE955
CRC копии A16DE955
Копирование… OK

Ошибок не произошло


AccurateRip: сводка

Трек 1 отсутствует в базе данных
Трек 2 отсутствует в базе данных
Трек 3 отсутствует в базе данных
Трек 4 отсутствует в базе данных
Трек 5 отсутствует в базе данных
Трек 6 отсутствует в базе данных

Ни одного трека нет в базе AccurateRip

Конец отчёта

==== Контрольная сумма отчёта FAE84A2CA6DE0E57255A4D60AE21002938B9516B7635DE1BA5BB42135767EF8F ====

foobar2000 1.2 / Dynamic Range Meter 1.1.1
log date: 2014-09-05 11:11:58

––––––––––––––––––––––––––––––––––––––––
Analyzed: John Lee Hooker / Born In Mississippi, Raised Up In Tennessee
––––––––––––––––––––––––––––––––––––––––

DR Peak RMS Duration Track
––––––––––––––––––––––––––––––––––––––––
DR11 -0.50 dB -13.42 dB 5:57 01-Born In Mississippi, Raised Up In Tennessee
DR11 -0.50 dB -13.49 dB 5:20 02-How Many More Years You Gonna Dog Me Round
DR10 -0.50 dB -12.37 dB 9:18 03-Going Down
DR11 -0.50 dB -12.43 dB 8:43 04-Younger Stud
DR13 -0.50 dB -15.08 dB 6:05 05-King Of The World
DR11 -0.50 dB -13.70 dB 6:00 06-Tell Me You Love Me
––––––––––––––––––––––––––––––––––––––––

Number of tracks: 6
Official DR value: DR11

Samplerate: 44100 Hz
Channels: 2
Bits per sample: 16
Bitrate: 821 kbps
Codec: FLAC
================================================================================

John Lee Hooker - Kabuki Wuki (1973) + Born in Mississippi, Raised Up in Tennessee (1973) 2CD Set, Remastered 2013 [Re-Up]