Subcategories

VA - Just Can't Get Enough: New Wave Hits Of The '80s (1994) {Rhino sampler} **[RE-UP]**

Posted By: TestTickles
VA - Just Can't Get Enough: New Wave Hits Of The '80s (1994) {Rhino sampler} **[RE-UP]**

VA - Just Can't Get Enough: New Wave Hits Of The '80s (1994) {Rhino sampler}
EAC Rip | FLAC with CUE and log | scans | 460 mb
MP3 CBR 320kbps | RAR | 148mb
Genre: new wave, pop, rock

Just Can't Get Enough: New Wave Hits Of The '80s was a new wave compilation released by Rhino honoring the music of the 1980's, and this was the sampler disc for the series, released in 1994. Of interest is the version of A Flock Of Seagulls' "I Ran (So Far Away)", which has the ending heard in the video and is different from that in the actual compilation CD series.

VA - Just Can't Get Enough: New Wave Hits Of The '80s (1994) {Rhino sampler} **[RE-UP]**

1. Plastic Bertrand - Ca Plane Pour Moi (3:01)
2. The Flying Lizards - Money (That's What I Want) (2:34)
3. Devo - Whip It (2:41)
4. Split Enz - I Got You (3:30)
5. Gary Numan - Cars (3:52)
6. The B-52's - Private Idaho (3:38)
7. Duran Duran - Girls On Film (3:32)
8. Soft Cell - Tainted Love (2:43)
9. A Flock Of Seagulls - I Ran (So Far Away) (5:08)
10. Toni Basil - Mickey (3:40)
11. Talk Talk - Talk Talk (3:16)
12. Josie Cotton - Johnny, Are You Queer? (2:47)
13. Thompson Twins - Lies (5:24)
14. Thomas Dolby - She Blinded Me With Science (3:43)
15. Wall Of Voodoo - Mexican Radio (4:11)
16. Modern English - I Melt With You (3:51)
17. Kajagoogoo - Too Shy (3:45)
18. The Human League - (Keep Feeling) Fascination (3:46)
19. Naked Eyes - Promises, Promises (3:49)

EAC extraction logfile from 24. September 2006, 10:06 for CD
Various / Just Can't Get Enough - New Wave Hits Of The 80's (Sampler)

Used drive : LITE-ON DVDRW SOHW-1633S Adapter: 0 ID: 0
Read mode : Secure with NO C2, accurate stream, disable cache
Read offset correction : 12
Overread into Lead-In and Lead-Out : No

Used output format : Internal WAV Routines
44.100 Hz; 16 Bit; Stereo

Other options :
Fill up missing offset samples with silence : Yes
Delete leading and trailing silent blocks : No
Installed external ASPI interface


Track 1
Filename D:\FLAC\VA - Just Can't Get Enough, New Wave Hits Of The '80s (Sampler) (1994) [FLAC] (Rhino)\01 - Plastic Bertrand - Ca Plane Pour Moi.wav

Pre-gap length 0:00:02.00

Peak level 99.9 %
Track quality 100.0 %
Test CRC 64969863
Copy CRC 64969863
Copy OK

Track 2
Filename D:\FLAC\VA - Just Can't Get Enough, New Wave Hits Of The '80s (Sampler) (1994) [FLAC] (Rhino)\02 - The Flying Lizards - Money (That's What I Want).wav

Pre-gap length 0:00:01.57

Peak level 90.0 %
Track quality 100.0 %
Test CRC E0BB0E97
Copy CRC E0BB0E97
Copy OK

Track 3
Filename D:\FLAC\VA - Just Can't Get Enough, New Wave Hits Of The '80s (Sampler) (1994) [FLAC] (Rhino)\03 - Devo - Whip It.wav

Pre-gap length 0:00:02.10

Peak level 100.0 %
Track quality 100.0 %
Test CRC A8C9813B
Copy CRC A8C9813B
Copy OK

Track 4
Filename D:\FLAC\VA - Just Can't Get Enough, New Wave Hits Of The '80s (Sampler) (1994) [FLAC] (Rhino)\04 - Split Enz - I Got You.wav

Pre-gap length 0:00:02.10

Peak level 100.0 %
Track quality 100.0 %
Test CRC A1CA80A9
Copy CRC A1CA80A9
Copy OK

Track 5
Filename D:\FLAC\VA - Just Can't Get Enough, New Wave Hits Of The '80s (Sampler) (1994) [FLAC] (Rhino)\05 - Gary Numan - Cars.wav

Pre-gap length 0:00:01.60

Peak level 100.0 %
Track quality 100.0 %
Test CRC 4D968B6D
Copy CRC 4D968B6D
Copy OK

Track 6
Filename D:\FLAC\VA - Just Can't Get Enough, New Wave Hits Of The '80s (Sampler) (1994) [FLAC] (Rhino)\06 - The B-52's - Private Idaho.wav

Pre-gap length 0:00:02.80

Peak level 100.0 %
Track quality 100.0 %
Test CRC 40221391
Copy CRC 40221391
Copy OK

Track 7
Filename D:\FLAC\VA - Just Can't Get Enough, New Wave Hits Of The '80s (Sampler) (1994) [FLAC] (Rhino)\07 - Duran Duran - Girls On Film.wav

Pre-gap length 0:00:02.24

Peak level 100.0 %
Track quality 100.0 %
Test CRC D23C64EE
Copy CRC D23C64EE
Copy OK

Track 8
Filename D:\FLAC\VA - Just Can't Get Enough, New Wave Hits Of The '80s (Sampler) (1994) [FLAC] (Rhino)\08 - Soft Cell - Tainted Love.wav

Pre-gap length 0:00:02.40

Peak level 100.0 %
Track quality 100.0 %
Test CRC 20130C2F
Copy CRC 20130C2F
Copy OK

Track 9
Filename D:\FLAC\VA - Just Can't Get Enough, New Wave Hits Of The '80s (Sampler) (1994) [FLAC] (Rhino)\09 - A Flock Of Seagulls - I Ran (So Far Away).wav

Pre-gap length 0:00:02.64

Peak level 100.0 %
Track quality 100.0 %
Test CRC 412EAC11
Copy CRC 412EAC11
Copy OK

Track 10
Filename D:\FLAC\VA - Just Can't Get Enough, New Wave Hits Of The '80s (Sampler) (1994) [FLAC] (Rhino)\10 - Toni Basil - Mickey.wav

Pre-gap length 0:00:01.90

Peak level 99.2 %
Track quality 99.9 %
Test CRC 229B4736
Copy CRC 229B4736
Copy OK

Track 11
Filename D:\FLAC\VA - Just Can't Get Enough, New Wave Hits Of The '80s (Sampler) (1994) [FLAC] (Rhino)\11 - Talk Talk - Talk Talk.wav

Pre-gap length 0:00:02.24

Peak level 100.0 %
Track quality 100.0 %
Test CRC 5008AAFC
Copy CRC 5008AAFC
Copy OK

Track 12
Filename D:\FLAC\VA - Just Can't Get Enough, New Wave Hits Of The '80s (Sampler) (1994) [FLAC] (Rhino)\12 - Josie Cotton - Johnny, Are You Queer .wav

Pre-gap length 0:00:00.73

Peak level 100.0 %
Track quality 100.0 %
Test CRC 100A1725
Copy CRC 100A1725
Copy OK

Track 13
Filename D:\FLAC\VA - Just Can't Get Enough, New Wave Hits Of The '80s (Sampler) (1994) [FLAC] (Rhino)\13 - Thompson Twins - Lies.wav

Pre-gap length 0:00:01.77

Peak level 100.0 %
Track quality 100.0 %
Test CRC 5B0284B5
Copy CRC 5B0284B5
Copy OK

Track 14
Filename D:\FLAC\VA - Just Can't Get Enough, New Wave Hits Of The '80s (Sampler) (1994) [FLAC] (Rhino)\14 - Thomas Dolby - She Blinded Me With Science.wav

Pre-gap length 0:00:01.62

Peak level 100.0 %
Track quality 99.9 %
Test CRC 9FF70CAF
Copy CRC 9FF70CAF
Copy OK

Track 15
Filename D:\FLAC\VA - Just Can't Get Enough, New Wave Hits Of The '80s (Sampler) (1994) [FLAC] (Rhino)\15 - Wall of Voodoo - Mexican Radio.wav

Pre-gap length 0:00:01.86

Peak level 100.0 %
Track quality 100.0 %
Test CRC B091FFDD
Copy CRC B091FFDD
Copy OK

Track 16
Filename D:\FLAC\VA - Just Can't Get Enough, New Wave Hits Of The '80s (Sampler) (1994) [FLAC] (Rhino)\16 - Modern English - I Melt With You.wav

Pre-gap length 0:00:02.20

Peak level 100.0 %
Track quality 100.0 %
Test CRC 6390014E
Copy CRC 6390014E
Copy OK

Track 17
Filename D:\FLAC\VA - Just Can't Get Enough, New Wave Hits Of The '80s (Sampler) (1994) [FLAC] (Rhino)\17 - Kajagoogoo - Too Shy.wav

Pre-gap length 0:00:02.30

Peak level 100.0 %
Track quality 100.0 %
Test CRC 26CA3B03
Copy CRC 26CA3B03
Copy OK

Track 18
Filename D:\FLAC\VA - Just Can't Get Enough, New Wave Hits Of The '80s (Sampler) (1994) [FLAC] (Rhino)\18 - The Human League - (Keep Feeling) Fascination.wav

Pre-gap length 0:00:01.69

Peak level 100.0 %
Track quality 100.0 %
Test CRC 2C3C84F0
Copy CRC 2C3C84F0
Copy OK

Track 19
Filename D:\FLAC\VA - Just Can't Get Enough, New Wave Hits Of The '80s (Sampler) (1994) [FLAC] (Rhino)\19 - Naked Eyes - Promises, Promises.wav

Pre-gap length 0:00:01.64

Peak level 100.0 %
Track quality 100.0 %
Test CRC 6A2DD525
Copy CRC 6A2DD525
Copy OK

No errors occured


End of status report


VA - Just Can't Get Enough: New Wave Hits Of The '80s (1994) {Rhino sampler} **[RE-UP]**