Subcategories

Jack Grassel - Matrix (2003)

Posted By: tirexiss
Jack Grassel - Matrix (2003)

Jack Grassel - Matrix (2003)
EAC | FLAC (tracks+.cue, log) | Covers Included | 42:15 | 317 MB
Genre: Fusion, Jazz Rock | Label: Frozen Sky | Catalog: FS2011

Fans of Jack Grassel will find his first recording very interesting. The band was putting jazz, rock, blues, classical, and everything else in the blender to come out with a powerful electric hybrid. Even though this band was a contemporary of the Mahavishnu Orchestra and Miles Davis’ Electric Bands, it was very original and not derivitive of the other music of the time.

Jack Grassel - Matrix (2003)

Track List:

1. September First
2. Morning Peace
3. Santa Claus is Coming
4. 99 Quarter Notes
5. Count To Seven and Boogie
6. Fresh Linens
7. November Twentieth
8. Jungle Rot
9. Bare Bottom

Andy LoDuca - drums, synthesizer, special effects
Dennis Klopfer - piano, synthesizer
Jack Grassel - guitar, ring modulator
Dave Shostac - saxophones and flutes
David Philips - acoustic and electric basses

Exact Audio Copy V1.0 beta 3 from 29. August 2011

EAC extraction logfile from 8. April 2014, 17:47

Jack Grassel / Matrix

Used drive : ATAPI iHAS324 Y Adapter: 4 ID: 0

Read mode : Secure
Utilize accurate stream : Yes
Defeat audio cache : Yes
Make use of C2 pointers : No

Read offset correction : 48
Overread into Lead-In and Lead-Out : No
Fill up missing offset samples with silence : Yes
Delete leading and trailing silent blocks : No
Null samples used in CRC calculations : Yes
Used interface : Native Win32 interface for Win NT & 2000
Gap handling : Appended to previous track

Used output format : User Defined Encoder
Selected bitrate : 896 kBit/s
Quality : High
Add ID3 tag : No
Command line compressor : C:\Program Files\Exact Audio Copy\flac.exe
Additional command line options : -8 -V -T "ARTIST=%artist%" -T "TITLE=%title%" -T "ALBUM=%albumtitle%" -T "DATE=%year%" -T "TRACKNUMBER=%tracknr%" -T "GENRE=%genre%" -T "PERFORMER=%albuminterpret%" -T "COMPOSER=%composer%" %haslyrics%–tag-from-file=LYRICS="%lyricsfile%"%haslyrics% -T "ALBUMARTIST=%albumartist%" -T "DISCNUMBER=%cdnumber%" -T "TOTALDISCS=%totalcds%" -T "TOTALTRACKS=%numtracks%" -T "COMMENT=%comment%" %source% -o %dest%


TOC of the extracted CD

Track | Start | Length | Start sector | End sector
––––––––––––––––––––––––––––-
1 | 0:00.00 | 4:31.42 | 0 | 20366
2 | 4:31.42 | 2:14.11 | 20367 | 30427
3 | 6:45.53 | 3:56.35 | 30428 | 48162
4 | 10:42.13 | 1:04.59 | 48163 | 53021
5 | 11:46.72 | 9:11.42 | 53022 | 94388
6 | 20:58.39 | 5:01.43 | 94389 | 117006
7 | 26:00.07 | 5:46.73 | 117007 | 143029
8 | 31:47.05 | 3:08.36 | 143030 | 157165
9 | 34:55.41 | 7:20.27 | 157166 | 190192


Track 1

Filename C:\EAC\01 - September First.wav

Pre-gap length 0:00:02.00

Peak level 100.0 %
Extraction speed 2.3 X
Track quality 99.9 %
Test CRC C8CD470D
Copy CRC C8CD470D
Track not present in AccurateRip database
Copy OK

Track 2

Filename C:\EAC\02 - Morning Peace.wav

Peak level 100.0 %
Extraction speed 2.5 X
Track quality 100.0 %
Test CRC E9A5B65B
Copy CRC E9A5B65B
Track not present in AccurateRip database
Copy OK

Track 3

Filename C:\EAC\03 - Santa Claus is Coming.wav

Peak level 100.0 %
Extraction speed 2.9 X
Track quality 100.0 %
Test CRC 50A7EE44
Copy CRC 50A7EE44
Track not present in AccurateRip database
Copy OK

Track 4

Filename C:\EAC\04 - 99 Quarter Notes.wav

Peak level 100.0 %
Extraction speed 2.2 X
Track quality 100.0 %
Test CRC 18EA146D
Copy CRC 18EA146D
Track not present in AccurateRip database
Copy OK

Track 5

Filename C:\EAC\05 - Count To Seven and Boogie.wav

Peak level 100.0 %
Extraction speed 3.6 X
Track quality 100.0 %
Test CRC 4D6DBACD
Copy CRC 4D6DBACD
Track not present in AccurateRip database
Copy OK

Track 6

Filename C:\EAC\06 - Fresh Linens.wav

Peak level 100.0 %
Extraction speed 3.8 X
Track quality 100.0 %
Test CRC C3A631C8
Copy CRC C3A631C8
Track not present in AccurateRip database
Copy OK

Track 7

Filename C:\EAC\07 - November Twentieth.wav

Peak level 100.0 %
Extraction speed 4.0 X
Track quality 100.0 %
Test CRC 9493BF13
Copy CRC 9493BF13
Track not present in AccurateRip database
Copy OK

Track 8

Filename C:\EAC\08 - Jungle Rot.wav

Peak level 100.0 %
Extraction speed 3.8 X
Track quality 100.0 %
Test CRC AE00F269
Copy CRC AE00F269
Track not present in AccurateRip database
Copy OK

Track 9

Filename C:\EAC\09 - Bare Bottom.wav

Peak level 100.0 %
Extraction speed 4.5 X
Track quality 100.0 %
Test CRC 99219BA6
Copy CRC 99219BA6
Track not present in AccurateRip database
Copy OK


None of the tracks are present in the AccurateRip database

No errors occurred

End of status report

==== Log checksum FB8E0923BAD7F3741D97747555558D21461E8DABE0F56262A03A081B1433AAEA ====

––––––––––––––––––––––––––––––

Exact Audio Copy V1.0 beta 3 from 29. August 2011

EAC extraction logfile from 8. April 2014, 17:47

Jack Grassel / Matrix

Used drive : ATAPI iHAS324 Y Adapter: 4 ID: 0

Read mode : Secure
Utilize accurate stream : Yes
Defeat audio cache : Yes
Make use of C2 pointers : No

Read offset correction : 48
Overread into Lead-In and Lead-Out : No
Fill up missing offset samples with silence : Yes
Delete leading and trailing silent blocks : No
Null samples used in CRC calculations : Yes
Used interface : Native Win32 interface for Win NT & 2000
Gap handling : Appended to previous track

Used output format : User Defined Encoder
Selected bitrate : 896 kBit/s
Quality : High
Add ID3 tag : No
Command line compressor : C:\Program Files\Exact Audio Copy\flac.exe
Additional command line options : -8 -V -T "ARTIST=%artist%" -T "TITLE=%title%" -T "ALBUM=%albumtitle%" -T "DATE=%year%" -T "TRACKNUMBER=%tracknr%" -T "GENRE=%genre%" -T "PERFORMER=%albuminterpret%" -T "COMPOSER=%composer%" %haslyrics%–tag-from-file=LYRICS="%lyricsfile%"%haslyrics% -T "ALBUMARTIST=%albumartist%" -T "DISCNUMBER=%cdnumber%" -T "TOTALDISCS=%totalcds%" -T "TOTALTRACKS=%numtracks%" -T "COMMENT=%comment%" %source% -o %dest%


TOC of the extracted CD

Track | Start | Length | Start sector | End sector
––––––––––––––––––––––––––––-
1 | 0:00.00 | 4:31.42 | 0 | 20366
2 | 4:31.42 | 2:14.11 | 20367 | 30427
3 | 6:45.53 | 3:56.35 | 30428 | 48162
4 | 10:42.13 | 1:04.59 | 48163 | 53021
5 | 11:46.72 | 9:11.42 | 53022 | 94388
6 | 20:58.39 | 5:01.43 | 94389 | 117006
7 | 26:00.07 | 5:46.73 | 117007 | 143029
8 | 31:47.05 | 3:08.36 | 143030 | 157165
9 | 34:55.41 | 7:20.27 | 157166 | 190192


Track 1

Filename C:\EAC\01 - September First.wav

Pre-gap length 0:00:02.00

Peak level 100.0 %
Extraction speed 2.3 X
Track quality 99.9 %
Test CRC C8CD470D
Copy CRC C8CD470D
Track not present in AccurateRip database
Copy OK

Track 2

Filename C:\EAC\02 - Morning Peace.wav

Peak level 100.0 %
Extraction speed 2.5 X
Track quality 100.0 %
Test CRC E9A5B65B
Copy CRC E9A5B65B
Track not present in AccurateRip database
Copy OK

Track 3

Filename C:\EAC\03 - Santa Claus is Coming.wav

Peak level 100.0 %
Extraction speed 2.9 X
Track quality 100.0 %
Test CRC 50A7EE44
Copy CRC 50A7EE44
Track not present in AccurateRip database
Copy OK

Track 4

Filename C:\EAC\04 - 99 Quarter Notes.wav

Peak level 100.0 %
Extraction speed 2.2 X
Track quality 100.0 %
Test CRC 18EA146D
Copy CRC 18EA146D
Track not present in AccurateRip database
Copy OK

Track 5

Filename C:\EAC\05 - Count To Seven and Boogie.wav

Peak level 100.0 %
Extraction speed 3.6 X
Track quality 100.0 %
Test CRC 4D6DBACD
Copy CRC 4D6DBACD
Track not present in AccurateRip database
Copy OK

Track 6

Filename C:\EAC\06 - Fresh Linens.wav

Peak level 100.0 %
Extraction speed 3.8 X
Track quality 100.0 %
Test CRC C3A631C8
Copy CRC C3A631C8
Track not present in AccurateRip database
Copy OK

Track 7

Filename C:\EAC\07 - November Twentieth.wav

Peak level 100.0 %
Extraction speed 4.0 X
Track quality 100.0 %
Test CRC 9493BF13
Copy CRC 9493BF13
Track not present in AccurateRip database
Copy OK

Track 8

Filename C:\EAC\08 - Jungle Rot.wav

Peak level 100.0 %
Extraction speed 3.8 X
Track quality 100.0 %
Test CRC AE00F269
Copy CRC AE00F269
Track not present in AccurateRip database
Copy OK

Track 9

Filename C:\EAC\09 - Bare Bottom.wav

Peak level 100.0 %
Extraction speed 4.5 X
Track quality 100.0 %
Test CRC 99219BA6
Copy CRC 99219BA6
Track not present in AccurateRip database
Copy OK


None of the tracks are present in the AccurateRip database

No errors occurred

End of status report

==== Log checksum FB8E0923BAD7F3741D97747555558D21461E8DABE0F56262A03A081B1433AAEA ====

[CUETools log; Date: 12.04.2018 11:12:11; Version: 2.1.5]
[CTDB TOCID: ITLdAze4f1ceMF1ANXtYmYmBleY-] disk not present in database.
[AccurateRip ID: 000d0705-006233f4-7209e709] disk not present in database.

Track Peak [ CRC32 ] [W/O NULL] [ LOG ]
– 100,0 [71012841] [769C31D7]
01 100,0 [C8CD470D] [5E4BFD9B] CRC32
02 100,0 [E9A5B65B] [225E0819] CRC32
03 100,0 [50A7EE44] [AF5C3783] CRC32
04 100,0 [18EA146D] [5C313C39] CRC32
05 100,0 [4D6DBACD] [94989FB9] CRC32
06 100,0 [C3A631C8] [9BAAA0A9] CRC32
07 100,0 [9493BF13] [FB55AD95] CRC32
08 100,0 [AE00F269] [21529A24] CRC32
09 100,0 [99219BA6] [0262ECA6] CRC32

Thanks to the Original ripper (unknown)!

Download: