Subcategories

Jackie McLean - Makin' The Changes (1960) [Reissue 1992]

Posted By: gribovar
Jackie McLean - Makin' The Changes (1960) [Reissue 1992]

Jackie McLean - Makin' The Changes (1960) [Reissue 1992]
EAC Rip | FLAC (tracks+.cue+log) - 208 MB | MP3 CBR 320 kbps (LAME 3.93) - 89 MB | Covers (5 MB) included
Genre: Jazz | RAR 3% Rec. | Label: Prestige Records (00025218619721)

Makin' the Changes features altoist Jackie McLean in two different settings. On three selections - a rollicking "Bean and the Boys," an up-tempo "I Never Knew" and "I Hear a Rhapsody" - McLean teams up with pianist Mal Waldron in a quartet with bassist Arthur Phipps and drummer Art Taylor. The other three numbers ("What's New," "Chasin' the Bird" and McLean's original "Jackie's Ghost") have more of a jam session feel, and feature McLean in a sextet with trumpeter Webster Young, trombonist Curtis Fuller, pianist Gil Coggins, bassist Paul Chambers and drummer Louis Hayes. In general, the hard bop music is swinging and fairly advanced, a step above the usual jam sessions of the time.
Tracklist:
01. Bean And The Boys
02. What's New
03. I Never Knew
04. I Hear A Rhapsody
05. Jackie's Ghost
06. Chasin' The Bird

Total time: 35:56

Exact Audio Copy V0.99 prebeta 5 from 4. May 2009

EAC extraction logfile from 19. July 2010, 21:46

Jackie McLean / Makin' The Changes

Used drive : PLEXTOR CD-R PREMIUM2 Adapter: 1 ID: 1

Read mode : Secure
Utilize accurate stream : Yes
Defeat audio cache : Yes
Make use of C2 pointers : No

Read offset correction : 30
Overread into Lead-In and Lead-Out : Yes
Fill up missing offset samples with silence : Yes
Delete leading and trailing silent blocks : No
Null samples used in CRC calculations : Yes
Used interface : Installed external ASPI interface
Gap handling : Appended to previous track

Used output format : User Defined Encoder
Selected bitrate : 32 kBit/s
Quality : High
Add ID3 tag : No
Command line compressor : C:\Programmi\FLAC\flac.exe
Additional command line options : -8 -V -T "ARTIST=%a" -T "TITLE=%t" -T "ALBUM=%g" -T "DATE=%y" -T "TRACKNUMBER=%n" -T "GENRE=%m" -T "COMMENT=EAC FLAC -8" %s


TOC of the extracted CD

Track | Start | Length | Start sector | End sector
––––––––––––––––––––––––––––-
1 | 0:00.00 | 8:33.25 | 0 | 38499
2 | 8:33.25 | 7:09.52 | 38500 | 70726
3 | 15:43.02 | 3:00.35 | 70727 | 84261
4 | 18:43.37 | 5:08.55 | 84262 | 107416
5 | 23:52.17 | 5:28.23 | 107417 | 132039
6 | 29:20.40 | 6:35.12 | 132040 | 161676


Track 1

Filename D:\My Rip\01 - Bean And The Boys.wav

Pre-gap length 0:00:02.00

Peak level 99.3 %
Track quality 100.0 %
Test CRC 8DC563D3
Copy CRC 8DC563D3
Cannot be verified as accurate (confidence 2) [875D4BEB], AccurateRip returned [F5A415AC]
Copy OK

Track 2

Filename D:\My Rip\02 - What's New.wav

Pre-gap length 0:00:02.13

Peak level 89.3 %
Track quality 99.9 %
Test CRC F6C59F02
Copy CRC F6C59F02
Cannot be verified as accurate (confidence 2) [6BC238CC], AccurateRip returned [75AE7E8F]
Copy OK

Track 3

Filename D:\My Rip\03 - I Never Knew.wav

Pre-gap length 0:00:02.46

Peak level 89.9 %
Track quality 100.0 %
Test CRC EE45FC34
Copy CRC EE45FC34
Cannot be verified as accurate (confidence 2) [03A81ACA], AccurateRip returned [BF9ED477]
Copy OK

Track 4

Filename D:\My Rip\04 - I Hear A Rhapsody.wav

Pre-gap length 0:00:02.86

Peak level 90.3 %
Track quality 100.0 %
Test CRC 9CB1CD03
Copy CRC 9CB1CD03
Cannot be verified as accurate (confidence 2) [A8774A28], AccurateRip returned [B0338193]
Copy OK

Track 5

Filename D:\My Rip\05 - Jackie's Ghost.wav

Pre-gap length 0:00:02.86

Peak level 88.9 %
Track quality 100.0 %
Test CRC 02583508
Copy CRC 02583508
Cannot be verified as accurate (confidence 2) [8E72F590], AccurateRip returned [8A4FEAEC]
Copy OK

Track 6

Filename D:\My Rip\06 - Chasin' The Bird.wav

Pre-gap length 0:00:02.80

Peak level 98.8 %
Track quality 99.9 %
Test CRC 6EDB9CA1
Copy CRC 6EDB9CA1
Track not present in AccurateRip database
Copy OK


5 track(s) could not be verified as accurate
1 track(s) not present in the AccurateRip database

No tracks could be verified as accurate
You may have a different pressing from the one(s) in the database

No errors occurred

End of status report

[CUETools log; Date: 14.06.2019 16:58:37; Version: 2.1.4]
[CTDB TOCID: xJFLUSaCXZ8NGk7hKbtXtZWznM4-] found.
Track | CTDB Status
1 | ( 9/10) Accurately ripped
2 | ( 9/10) Accurately ripped
3 | ( 9/10) Accurately ripped
4 | ( 9/10) Accurately ripped
5 | ( 9/10) Accurately ripped
6 | ( 9/10) Accurately ripped
[AccurateRip ID: 000912bf-002f1bbe-44086b06] found.
Track [ CRC | V2 ] Status
01 [875d4beb|f34cafe8] (0+0/4) No match
02 [6bc238cc|83d04c20] (2+0/6) Accurately ripped
03 [03a81aca|8f0e97a5] (2+0/6) Accurately ripped
04 [a8774a28|62dcba2f] (2+0/6) Accurately ripped
05 [8e72f590|8ea21ced] (2+0/6) Accurately ripped
06 [afa7c0e7|5f746cd4] (2+0/4) Accurately ripped
Offsetted by 664:
01 [f5a415ac] (2/4) Accurately ripped
02 [75ae7e8f] (2/6) Accurately ripped
03 [bf9ed477] (2/6) Accurately ripped
04 [b0338193] (2/6) Accurately ripped
05 [8a4feaec] (2/6) Accurately ripped
06 [8bdd1be1] (0/4) No match (V2 was not tested)

Track Peak [ CRC32 ] [W/O NULL] [ LOG ]
– 99,3 [D6411862] [F35C093F]
01 99,3 [8DC563D3] [72528A89] CRC32
02 89,3 [F6C59F02] [FB9CF357] CRC32
03 89,9 [EE45FC34] [65F31959] CRC32
04 90,3 [9CB1CD03] [3D284134] CRC32
05 88,9 [02583508] [67A8A7A5] CRC32
06 98,8 [6EDB9CA1] [265452C8] CRC32

Thanks to Sarchiapone

See also:
Jackie McLean - Bluesnik (1962) [XRCD24, Reissue 2010]
Jackie McLean - New and Old Gospel (1967) [Reissue 2007]
Jackie McLean & Dexter Gordon - The Source (1974)
Jackie McLean With The Great Jazz Trio - New Wine In Old Bottles (1978) [Reissue 2007]