Jackson Browne - Late for the Sky (1974) [40th Anniversary, Remastered Reissue, 2014]

Posted By: Designol
Jackson Browne - Late for the Sky (1974) [40th Anniversary, Remastered Reissue, 2014]

Jackson Browne - Late for the Sky (1974) [40th Anniversary Reissue, 2014]
EAC | FLAC | Image (Cue&Log) ~ 295 Mb (incl 5%) | Mp3 (CBR320) ~ 131 Mb (incl 5%) | Scans included
Singer/Songwriter, Soft Rock, Folk Rock | Label: Inside/Rhino/Asylum | # INR 04191 | 00:41:28

On his third album, Jackson Browne returned to the themes of his debut record (love, loss, identity, apocalypse) and, amazingly, delved even deeper into them. "For a Dancer," a meditation on death like the first album's "Song for Adam," is a more eloquent eulogy; "Farther On" extends the "moving on" point of "Looking Into You"; "Before the Deluge" is a glimpse beyond the apocalypse evoked on "My Opening Farewell" and the second album's "For Everyman." If Browne had seemed to question everything in his first records, here he even questioned himself. "For me some words come easy, but I know that they don't mean that much," he sang on the opening track, "Late for the Sky," and added in "Farther On," "I'm not sure what I'm trying to say." Yet his seeming uncertainty and self-doubt reflected the size and complexity of the problems he was addressing in these songs, and few had ever explored such territory, much less mapped it so well. "The Late Show," the album's thematic center, doubted but ultimately affirmed the nature of relationships, while by the end, "After the Deluge," if "only a few survived," the human race continued nonetheless. It was a lot to put into a pop music album, but Browne stretched the limits of what could be found in what he called "the beauty in songs," just as Bob Dylan had a decade before.

Review by William Ruhlmann, Allmusic.com

Jackson Browne - Late for the Sky (1974) [40th Anniversary, Remastered Reissue, 2014]



Tracklist:

01. Late for the Sky (05:42)
02. Fountain of Sorrow (06:52)
03. Farther On (05:21)
04. The Late Show (05:14)
05. The Road and the Sky (03:08)
06. For a Dancer (04:46)
07. Walking Slow (03:55)
08. Before the Deluge (06:27)


Exact Audio Copy V1.1 from 23. June 2015

EAC extraction logfile from 5. January 2017, 8:07

Jackson Browne / Late for the Sky

Used drive : ASUS BW-12D1S-U Adapter: 1 ID: 1

Read mode : Secure
Utilize accurate stream : Yes
Defeat audio cache : Yes
Make use of C2 pointers : No

Read offset correction : 667
Overread into Lead-In and Lead-Out : No
Fill up missing offset samples with silence : Yes
Delete leading and trailing silent blocks : No
Null samples used in CRC calculations : Yes
Used interface : Native Win32 interface for Win NT & 2000

Used output format : User Defined Encoder
Selected bitrate : 1024 kBit/s
Quality : High
Add ID3 tag : No
Command line compressor : C:\Program Files (x86)\Exact Audio Copy\FLAC\FLAC.EXE
Additional command line options : -6 -V -T "ARTIST=%artist%" -T "TITLE=%title%" -T "ALBUM=%albumtitle%" -T "DATE=%year%" -T "TRACKNUMBER=%tracknr%" -T "GENRE=%genre%" -T "COMMENT=%comment%" -T "BAND=%albuminterpret%" -T "ALBUMARTIST=%albuminterpret%" -T "COMPOSER=%composer%" %haslyrics%–tag-from-file=LYRICS="%lyricsfile%"%haslyrics% -T "DISCNUMBER=%cdnumber%" -T "TOTALDISCS=%totalcds%" -T "TOTALTRACKS=%numtracks%" %hascover%–picture="%coverfile%"%hascover% %source% -o %dest%


TOC of the extracted CD

Track | Start | Length | Start sector | End sector
––––––––––––––––––––––––––––-
1 | 0:00.00 | 5:42.37 | 0 | 25686
2 | 5:42.37 | 6:52.08 | 25687 | 56594
3 | 12:34.45 | 5:21.22 | 56595 | 80691
4 | 17:55.67 | 5:14.65 | 80692 | 104306
5 | 23:10.57 | 3:08.20 | 104307 | 118426
6 | 26:19.02 | 4:46.32 | 118427 | 139908
7 | 31:05.34 | 3:55.17 | 139909 | 157550
8 | 35:00.51 | 6:27.39 | 157551 | 186614


Range status and errors

Selected range

Filename C:\Users\Alexandre\Downloads\Torrents of Autumn\Browne, Jackson [1974] Late for the Sky (40th Anniversary edition, 2014)\Browne, Jackson [1974] Late for the Sky (40th Anniversary edition, 2014).wav

Peak level 99.7 %
Extraction speed 6.7 X
Range quality 100.0 %
Test CRC 6F1A4B09
Copy CRC 6F1A4B09
Copy OK

No errors occurred


AccurateRip summary

Track 1 accurately ripped (confidence 18) [1A9CF772] (AR v2)
Track 2 accurately ripped (confidence 18) [C9DB29EC] (AR v2)
Track 3 accurately ripped (confidence 18) [4D04EA55] (AR v2)
Track 4 accurately ripped (confidence 18) [11C23B3F] (AR v2)
Track 5 accurately ripped (confidence 18) [EC9BA05D] (AR v2)
Track 6 accurately ripped (confidence 18) [53AF9046] (AR v2)
Track 7 accurately ripped (confidence 18) [A6EDAAAD] (AR v2)
Track 8 accurately ripped (confidence 18) [FF18B7D5] (AR v2)

All tracks accurately ripped

End of status report

–– CUETools DB Plugin V2.1.6

[CTDB TOCID: i1S5_lSA6ea0sDGx08.gWmGVwt0-] found
Submit result: i1S5_lSA6ea0sDGx08.gWmGVwt0- has been confirmed
Track | CTDB Status
1 | (24/24) Accurately ripped
2 | (24/24) Accurately ripped
3 | (24/24) Accurately ripped
4 | (24/24) Accurately ripped
5 | (24/24) Accurately ripped
6 | (24/24) Accurately ripped
7 | (24/24) Accurately ripped
8 | (24/24) Accurately ripped

foobar2000 1.2 / Dynamic Range Meter 1.1.1
log date: 2017-02-08 14:55:09

––––––––––––––––––––––––––––––––––––––––
Analyzed: Jackson Browne / Late for the Sky
––––––––––––––––––––––––––––––––––––––––

DR Peak RMS Duration Track
––––––––––––––––––––––––––––––––––––––––
DR8 -0.02 dB -10.66 dB 5:42 01-Late for the Sky
DR9 -0.02 dB -12.11 dB 6:52 02-Fountain of Sorrow
DR9 -0.02 dB -11.96 dB 5:21 03-Farther On
DR9 -0.02 dB -11.90 dB 5:15 04-The Late Show
DR8 -0.02 dB -9.16 dB 3:08 05-The Road and the Sky
DR9 -0.02 dB -12.06 dB 4:46 06-For a Dancer
DR9 -0.02 dB -11.14 dB 3:55 07-Walking Slow
DR9 -0.02 dB -11.90 dB 6:28 08-Before the Deluge
––––––––––––––––––––––––––––––––––––––––

Number of tracks: 8
Official DR value: DR9

Samplerate: 44100 Hz
Channels: 2
Bits per sample: 16
Bitrate: 845 kbps
Codec: FLAC
================================================================================

Jackson Browne - Late for the Sky (1974) [40th Anniversary, Remastered Reissue, 2014]

Jackson Browne - Late for the Sky (1974) [40th Anniversary, Remastered Reissue, 2014]