Subcategories

Jacques Loussier - Play Bach Highlights [Recorded 1959-1965] (2008) (Repost)

Posted By: gribovar
Jacques Loussier - Play Bach Highlights [Recorded 1959-1965] (2008) (Repost)

Jacques Loussier - Play Bach Highlights [Recorded 1959-1965] (2008)
EAC Rip | FLAC (tracks+.cue+log) - 397 MB | MP3 CBR 320 kbps (LAME 3.93) - 178 MB | Covers (16 MB) included
Genre: Jazz, Classical | RAR 3% Rec. | Label: Universal Music (06004 5312038)

The Jazz Club series is an attractive addition to the Verve catalogue. With it's modern design and popular choice of repertoire, the Jazz Club is not only opened for Jazz fans, but for everyone that loves good music.
An acclaimed French pianist known for his jazz interpretations of classical works, Jacques Loussier rose to prominence leading his trio in the 1960s. A gifted classical musician in his youth, Loussier gravitated toward jazz and issued a series of innovative, genre-bending albums under the Play Bach title in which he reworked the music of Johanne Sebastian Bach. Over the years, he applied this same approach to works by other classical composers, and even expanded his palette, exploring electronics and Latin-traditions on albums like 1979's Pulsion, 1999's Ravel: Bolero, and 2011's Schumann: Kinderszenen (Scenes from Childhood). He also composed for film and television, working out of his Studio Miraval in Provence. Following a stroke in 2011 he retired from the stage and passed away in 2019 at the age of 84.
Tracklist:
01. Toccata & Fugue In D Minor
02. Prelude No. 1 In C Major
03. Prelude No. 2 In C Minor
04. Fugue No. 2 In C Minor
05. Cantata No. 147
06. Aria
07. Gigue
08. Italian Concerto In F Major: Allegro
09. Italian Concerto In F Major: Andante
10. Italian Concerto In F Major: Presto
11. Fantasia In C Minor
12. Choral No. 1
13. Cantata No. 29
14. Sonata For Flute And Harpsichord In E Flat
15. Passacaglia In C Minor

Total time: 01:08:33

Exact Audio Copy V0.99 prebeta 4 from 23. January 2008

EAC extraction logfile from 28. February 2010, 16:11

Jacques Loussier / Play Bach Highlights

Used drive : ASUS DRW-2014S1 Adapter: 1 ID: 0

Read mode : Secure
Utilize accurate stream : Yes
Defeat audio cache : Yes
Make use of C2 pointers : No

Read offset correction : 6
Overread into Lead-In and Lead-Out : No
Fill up missing offset samples with silence : Yes
Delete leading and trailing silent blocks : No
Null samples used in CRC calculations : Yes
Used interface : Installed external ASPI interface
Gap handling : Appended to previous track

Used output format : User Defined Encoder
Selected bitrate : 768 kBit/s
Quality : High
Add ID3 tag : No
Command line compressor : C:\Program Files\Exact Audio Copy\FLAC\FLAC.EXE
Additional command line options : -6 -V -T "ARTIST=%a" -T "TITLE=%t" -T "ALBUM=%g" -T "DATE=%y" -T "TRACKNUMBER=%n" -T "GENRE=%m" -T "COMMENT=%e" %s -o %d


TOC of the extracted CD

Track | Start | Length | Start sector | End sector
––––––––––––––––––––––––––––-
1 | 0:00.00 | 8:56.46 | 0 | 40245
2 | 8:56.46 | 5:26.08 | 40246 | 64703
3 | 14:22.54 | 4:21.10 | 64704 | 84288
4 | 18:43.64 | 2:48.32 | 84289 | 96920
5 | 21:32.21 | 4:11.16 | 96921 | 115761
6 | 25:43.37 | 3:27.61 | 115762 | 131347
7 | 29:11.23 | 3:09.10 | 131348 | 145532
8 | 32:20.33 | 5:38.07 | 145533 | 170889
9 | 37:58.40 | 4:38.51 | 170890 | 191790
10 | 42:37.16 | 6:01.68 | 191791 | 218933
11 | 48:39.09 | 5:04.71 | 218934 | 241804
12 | 53:44.05 | 4:53.00 | 241805 | 263779
13 | 58:37.05 | 3:42.67 | 263780 | 280496
14 | 62:19.72 | 3:33.02 | 280497 | 296473
15 | 65:52.74 | 2:40.01 | 296474 | 308474


Track 1

Filename C:\byPr0gger\Jacques Loussier - Play Bach Highlights (1959-65 - 2008, Verve)[FLAC]\01. Toccata & Fugue In D Minor.wav

Pre-gap length 0:00:02.00

Peak level 98.8 %
Track quality 99.9 %
Test CRC 606ABE3E
Copy CRC 606ABE3E
Accurately ripped (confidence 3) [8DA9BF1D]
Copy OK

Track 2

Filename C:\byPr0gger\Jacques Loussier - Play Bach Highlights (1959-65 - 2008, Verve)[FLAC]\02. Prelude No. 1 In C Major.wav

Pre-gap length 0:00:02.21

Peak level 98.8 %
Track quality 99.9 %
Test CRC CB6FC314
Copy CRC CB6FC314
Accurately ripped (confidence 3) [56F5C3C1]
Copy OK

Track 3

Filename C:\byPr0gger\Jacques Loussier - Play Bach Highlights (1959-65 - 2008, Verve)[FLAC]\03. Prelude No. 2 In C Minor.wav

Pre-gap length 0:00:01.94

Peak level 90.5 %
Track quality 100.0 %
Test CRC E445965C
Copy CRC E445965C
Accurately ripped (confidence 3) [06203063]
Copy OK

Track 4

Filename C:\byPr0gger\Jacques Loussier - Play Bach Highlights (1959-65 - 2008, Verve)[FLAC]\04. Fugue No. 2 In C Minor.wav

Pre-gap length 0:00:02.66

Peak level 98.8 %
Track quality 100.0 %
Test CRC DDA0E4AD
Copy CRC DDA0E4AD
Accurately ripped (confidence 3) [CA1130B1]
Copy OK

Track 5

Filename C:\byPr0gger\Jacques Loussier - Play Bach Highlights (1959-65 - 2008, Verve)[FLAC]\05. Cantata No. 147.wav

Pre-gap length 0:00:02.45

Peak level 92.1 %
Track quality 100.0 %
Test CRC DD260EEE
Copy CRC DD260EEE
Accurately ripped (confidence 3) [076150D0]
Copy OK

Track 6

Filename C:\byPr0gger\Jacques Loussier - Play Bach Highlights (1959-65 - 2008, Verve)[FLAC]\06. Aria.wav

Pre-gap length 0:00:02.09

Peak level 92.4 %
Track quality 100.0 %
Test CRC 861216CE
Copy CRC 861216CE
Accurately ripped (confidence 3) [5CDEC662]
Copy OK

Track 7

Filename C:\byPr0gger\Jacques Loussier - Play Bach Highlights (1959-65 - 2008, Verve)[FLAC]\07. Gigue.wav

Pre-gap length 0:00:01.60

Peak level 94.4 %
Track quality 100.0 %
Test CRC 602E461D
Copy CRC 602E461D
Accurately ripped (confidence 3) [AE41440D]
Copy OK

Track 8

Filename C:\byPr0gger\Jacques Loussier - Play Bach Highlights (1959-65 - 2008, Verve)[FLAC]\08. Italian Concerto In F Major- Allegro.wav

Pre-gap length 0:00:01.80

Peak level 79.0 %
Track quality 100.0 %
Test CRC 300B6BC8
Copy CRC 300B6BC8
Accurately ripped (confidence 3) [CA3110EF]
Copy OK

Track 9

Filename C:\byPr0gger\Jacques Loussier - Play Bach Highlights (1959-65 - 2008, Verve)[FLAC]\09. Italian Concerto In F Major- Andante.wav

Pre-gap length 0:00:01.89

Peak level 78.4 %
Track quality 100.0 %
Test CRC 550E69B9
Copy CRC 550E69B9
Accurately ripped (confidence 3) [9AEE7B0C]
Copy OK

Track 10

Filename C:\byPr0gger\Jacques Loussier - Play Bach Highlights (1959-65 - 2008, Verve)[FLAC]\10. Italian Concerto In F Major– Presto.wav

Pre-gap length 0:00:01.96

Peak level 87.5 %
Track quality 100.0 %
Test CRC D628FBA6
Copy CRC D628FBA6
Accurately ripped (confidence 3) [44A9CC84]
Copy OK

Track 11

Filename C:\byPr0gger\Jacques Loussier - Play Bach Highlights (1959-65 - 2008, Verve)[FLAC]\11. Fantasia In C Minor.wav

Pre-gap length 0:00:02.00

Peak level 90.6 %
Track quality 100.0 %
Test CRC A6837BED
Copy CRC A6837BED
Accurately ripped (confidence 3) [26DE45AD]
Copy OK

Track 12

Filename C:\byPr0gger\Jacques Loussier - Play Bach Highlights (1959-65 - 2008, Verve)[FLAC]\12. oral No. 1.wav

Pre-gap length 0:00:02.21

Peak level 69.3 %
Track quality 100.0 %
Test CRC B8FE4629
Copy CRC B8FE4629
Accurately ripped (confidence 3) [800F7A22]
Copy OK

Track 13

Filename C:\byPr0gger\Jacques Loussier - Play Bach Highlights (1959-65 - 2008, Verve)[FLAC]\13. Cantata No. 29.wav

Pre-gap length 0:00:00.98

Peak level 93.6 %
Track quality 100.0 %
Test CRC 3D73CC0C
Copy CRC 3D73CC0C
Accurately ripped (confidence 3) [A2B37B34]
Copy OK

Track 14

Filename C:\byPr0gger\Jacques Loussier - Play Bach Highlights (1959-65 - 2008, Verve)[FLAC]\14. Sonata For Flute And Harpsichord In E Flat.wav

Pre-gap length 0:00:02.36

Peak level 96.5 %
Track quality 100.0 %
Test CRC 979FD30C
Copy CRC 979FD30C
Accurately ripped (confidence 3) [0C3E3070]
Copy OK

Track 15

Filename C:\byPr0gger\Jacques Loussier - Play Bach Highlights (1959-65 - 2008, Verve)[FLAC]\15. Passacaglia In C Minor.wav

Pre-gap length 0:00:01.77

Peak level 94.6 %
Track quality 100.0 %
Test CRC 4FB9025E
Copy CRC 4FB9025E
Accurately ripped (confidence 3) [D5D2996B]
Copy OK


All tracks accurately ripped

No errors occurred

End of status report

[CUETools log; Date: 17.01.2020 0:41:01; Version: 2.1.4]
[CTDB TOCID: qdWfl_MPIBPOrWHn0j7roTBAj0k-] found.
Track | CTDB Status
1 | (42/42) Accurately ripped
2 | (42/42) Accurately ripped
3 | (42/42) Accurately ripped
4 | (42/42) Accurately ripped
5 | (42/42) Accurately ripped
6 | (42/42) Accurately ripped
7 | (42/42) Accurately ripped
8 | (42/42) Accurately ripped
9 | (42/42) Accurately ripped
10 | (42/42) Accurately ripped
11 | (42/42) Accurately ripped
12 | (42/42) Accurately ripped
13 | (42/42) Accurately ripped
14 | (42/42) Accurately ripped
15 | (42/42) Accurately ripped
[AccurateRip ID: 00287539-01c04ae4-de10110f] found.
Track [ CRC | V2 ] Status
01 [8da9bf1d|c78193cf] (12+23/37) Accurately ripped
02 [56f5c3c1|6fa7575a] (12+23/37) Accurately ripped
03 [06203063|01400ff7] (12+23/37) Accurately ripped
04 [ca1130b1|ea2bf3e6] (12+23/37) Accurately ripped
05 [076150d0|7f8801c6] (12+23/37) Accurately ripped
06 [5cdec662|3625d512] (12+22/36) Accurately ripped
07 [ae41440d|c5dc0b9e] (12+22/36) Accurately ripped
08 [ca3110ef|c9d21c60] (12+22/36) Accurately ripped
09 [9aee7b0c|15d91320] (12+23/37) Accurately ripped
10 [44a9cc84|958b7f07] (12+22/36) Accurately ripped
11 [26de45ad|c40aca18] (12+22/36) Accurately ripped
12 [800f7a22|3bf6dce3] (12+22/36) Accurately ripped
13 [a2b37b34|3c354d25] (12+22/36) Accurately ripped
14 [0c3e3070|b5a20812] (12+22/36) Accurately ripped
15 [d5d2996b|f446d3a7] (12+22/36) Accurately ripped
Offsetted by 6:
01 [c42eb979] (00/37) No match (V2 was not tested)
02 [86265e65] (00/37) No match (V2 was not tested)
03 [2d70a19f] (00/37) No match (V2 was not tested)
04 [79ae84b1] (00/37) No match (V2 was not tested)
05 [3db82a48] (00/37) No match (V2 was not tested)
06 [fa90c53e] (00/36) No match (V2 was not tested)
07 [d66c9247] (00/36) No match (V2 was not tested)
08 [766d4c09] (00/36) No match (V2 was not tested)
09 [e1a62480] (00/37) No match (V2 was not tested)
10 [e4db9758] (00/36) No match (V2 was not tested)
11 [fcb1470b] (00/36) No match (V2 was not tested)
12 [7656c38a] (00/36) No match (V2 was not tested)
13 [8c1fcc06] (00/36) No match (V2 was not tested)
14 [b2c21ca0] (00/36) No match (V2 was not tested)
15 [23c4e81d] (00/36) No match (V2 was not tested)

Track Peak [ CRC32 ] [W/O NULL] [ LOG ]
– 98,8 [4E2E8AF6] [6ADA7C7F]
01 98,8 [606ABE3E] [D6EF42F2] CRC32
02 98,8 [CB6FC314] [8FB95086] CRC32
03 90,5 [E445965C] [77A654CB] CRC32
04 98,8 [DDA0E4AD] [B2E5242C] CRC32
05 92,1 [DD260EEE] [F489BD6B] CRC32
06 92,4 [861216CE] [388460BE] CRC32
07 94,4 [602E461D] [8A0428D4] CRC32
08 79,0 [300B6BC8] [C57A7AE7] CRC32
09 78,4 [550E69B9] [0C9BCDFB] CRC32
10 87,5 [D628FBA6] [D2FFF79B] CRC32
11 90,6 [A6837BED] [9100B402] CRC32
12 69,3 [B8FE4629] [012C8338] CRC32
13 93,6 [3D73CC0C] [F8C8D54D] CRC32
14 96,5 [979FD30C] [7AD7F033] CRC32
15 94,6 [4FB9025E] [ABBC249A] CRC32

Thanks to pr0gger